VERSION	0.00.00	1.05.00
FES_MODE	0
BPM_DEF	188.000	188.000	188.000	188.000
MET_DEF	4	4
RESOLUTION	384
CLK_DEF	384
COMPATIBLE_CODE	MA2

BPM	0	0	188.000
MET	0	0	4	4

NMTTP	2	0	3	B	0	M1
NMTTP	2	96	2	B	0	M1
NMTTP	2	192	1	B	0	M1
NMTTP	3	0	4	B	0	M1
NMTTP	3	96	5	B	0	M1
NMTTP	3	192	6	B	0	M1
NMTTP	4	0	0	B	0	M1
NMTTP	4	96	1	B	0	M1
NMTTP	4	192	2	B	0	M1
NMTTP	5	0	7	B	0	M1
NMTTP	5	96	6	B	0	M1
NMTTP	5	192	5	B	0	M1
NMTTP	5	288	4	B	0	M1
NMTTP	6	0	3	B	0	M1
NMTTP	6	96	2	B	0	M1
NMTTP	6	192	1	B	0	M1
NMTTP	7	0	4	B	0	M1
NMTTP	7	96	5	B	0	M1
NMTTP	7	192	6	B	0	M1
NMTTP	8	0	2	E	0	M1
NMTTP	8	96	3	E	0	M1
NMTTP	8	192	4	E	0	M1
NMTTP	8	288	5	E	0	M1
NMTTP	9	0	6	E	0	M1
NMTAP	9	192	3
NMTAP	9	240	4
NMTAP	9	288	3
NMTAP	9	288	4
NMHLD	10	0	6	96
NMTAP	10	96	4
NMHLD	10	192	2	96
NMTAP	10	288	4
NMTAP	11	0	5
NMTAP	11	96	6
NMTAP	11	192	7
NMTAP	11	288	0
NMHLD	12	0	1	96
NMTAP	12	96	3
NMHLD	12	192	5	96
NMTAP	12	288	3
NMTAP	13	0	1
NMSTR	13	96	7
NMSI_	13	96	7	96	96	4
NMHLD	14	0	1	96
NMTAP	14	96	3
NMHLD	14	192	5	96
NMTAP	14	288	3
NMTAP	15	0	2
NMTAP	15	96	1
NMTAP	15	192	0
NMTAP	15	288	7
NMHLD	16	0	6	96
NMTAP	16	96	4
NMHLD	16	192	2	96
NMTAP	16	288	4
NMHLD	17	0	3	96
NMHLD	17	0	5	96
NMTAP	17	192	6
NMTAP	17	288	0
NMTAP	17	288	7
BRTAP	18	0	1
EXTAP	18	192	3
EXTAP	18	192	5
EXTAP	18	288	3
EXTAP	18	288	5
NMSTR	19	0	2
NMSI_	19	0	2	96	96	0
NMSTR	19	192	5
NMSI_	19	192	5	96	96	7
NMHLD	20	0	0	96
NMHLD	20	192	1	96
NMHLD	20	192	7	96
NMTAP	21	0	2
NMTAP	21	0	6
NMTAP	21	96	2
NMTAP	21	96	6
NMTAP	21	192	3
NMTAP	21	192	5
NMSTR	22	0	2
NMSLL	22	0	2	96	144	6
NMSTR	23	0	5
NMSLR	23	0	5	96	144	1
NMTAP	24	0	2
NMTAP	24	0	4
NMTAP	24	96	2
NMTAP	24	96	4
NMTAP	24	192	0
NMTAP	24	240	0
NMTAP	24	288	7
NMHLD	24	336	7	96
NMTAP	25	48	1
BRTAP	25	144	2
BRTAP	25	144	6
BRTAP	25	192	2
BRTAP	25	192	6
NMTAP	26	0	1
NMTAP	26	0	5
NMSTR	26	96	1
NMSI_	26	96	1	96	96	6
NMSTR	26	96	5
NMSI_	26	96	5	96	96	2
NMTAP	27	0	0
NMTAP	27	0	4
NMSTR	27	96	0
NMSCR	27	96	0	96	96	3
NMSTR	27	96	4
NMSCR	27	96	4	96	96	7
NMTAP	28	0	4
NMTAP	28	0	5
NMHLD	28	96	6	96
NMTAP	28	192	4
NMTAP	28	288	2
NMTAP	29	0	1
NMTAP	29	0	7
NMTAP	29	96	0
NMTAP	29	96	6
EXHLD	29	192	0	96
EXHLD	29	192	1	96
NMTAP	30	0	2
NMTAP	30	0	3
NMTAP	30	96	4
NMTAP	30	96	5
NMTAP	30	192	6
NMTAP	30	192	7
NMTAP	30	288	0
NMTAP	30	288	1
NMTAP	31	0	2
NMTAP	31	0	3
EXSTR	31	96	0
NMSCR	31	96	0	96	96	3
EXSTR	31	96	7
NMSCL	31	96	7	96	96	4
NMHLD	32	0	6	96
NMHLD	32	96	4	96
NMHLD	32	192	3	96
NMTAP	32	288	1
NMTAP	33	0	0
NMTAP	33	0	1
NMHLD	33	96	2	96
NMSTR	33	96	3
NMSI_	33	96	3	96	96	7
NMTAP	34	0	0
NMTAP	34	0	6
NMTAP	34	96	0
NMTAP	34	96	6
NMTAP	34	192	1
NMTAP	34	192	7
NMTAP	34	288	1
NMTAP	34	288	7
NMTAP	35	0	0
NMTAP	35	0	6
NMTAP	35	96	1
NMTAP	35	96	7
NMTAP	35	192	0
NMTAP	35	192	6
NMTAP	35	288	0
NMTAP	35	288	6
NMTAP	36	0	2
NMTAP	36	0	4
NMTAP	36	96	2
NMTAP	36	96	4
NMTAP	36	192	3
NMTAP	36	192	5
NMTAP	36	288	3
NMTAP	36	288	5
NMTAP	37	0	2
NMTAP	37	0	4
NMTAP	37	96	3
NMTAP	37	96	5
NMTAP	37	192	2
NMTAP	37	192	6
NMTAP	38	0	1
NMTAP	38	0	7
NMTAP	38	96	1
NMTAP	38	96	7
NMTAP	38	192	0
NMTAP	38	192	6
NMTAP	38	288	0
NMTAP	38	288	6
NMTAP	39	0	1
NMTAP	39	0	7
NMTAP	39	96	0
NMTAP	39	96	6
NMTAP	39	192	1
NMTAP	39	192	7
NMTAP	39	288	1
NMTAP	39	288	7
NMTAP	40	0	3
NMTAP	40	0	5
NMTAP	40	96	3
NMTAP	40	96	5
NMTAP	40	192	2
NMTAP	40	192	4
NMTAP	40	288	2
NMTAP	40	288	4
NMTAP	41	0	3
NMTAP	41	0	5
NMTAP	41	96	2
NMTAP	41	96	4
NMTAP	41	192	1
NMTAP	41	192	5
NMTTP	42	0	6	E	0	M1
NMTTP	42	96	7	E	0	M1
NMTTP	42	192	0	E	0	M1
NMTTP	42	288	1	E	0	M1
NMTTP	43	0	2	E	0	M1
NMTTP	43	96	3	E	0	M1
NMTTP	43	192	4	E	0	M1
NMSTR	44	0	3
NMSI_	44	0	3	96	96	0
NMSTR	44	192	4
NMSI_	44	192	4	96	96	7
NMSTR	45	0	0
NMSCR	45	0	0	96	96	3
NMTAP	45	192	5
NMTAP	45	288	5
NMTTP	46	0	3	E	0	M1
NMTTP	46	96	2	E	0	M1
NMTTP	46	192	1	E	0	M1
NMTTP	46	288	0	E	0	M1
NMTTP	47	0	7	E	0	M1
NMTTP	47	96	6	E	0	M1
NMTTP	47	192	5	E	0	M1
NMHLD	48	0	3	96
NMHLD	48	0	5	96
NMHLD	48	192	2	96
NMHLD	48	192	4	96
NMTAP	49	0	3
NMTAP	49	0	5
NMTAP	49	96	1
NMTAP	49	96	7
BRTAP	49	192	2
BRTAP	49	192	6
NMTAP	50	0	5
NMTAP	50	48	5
NMTAP	50	96	4
NMTAP	50	192	2
NMTAP	50	240	2
NMTAP	50	288	3
NMTAP	51	0	1
NMTAP	51	0	4
NMTAP	51	96	1
NMTAP	51	96	4
NMTAP	51	192	3
NMTAP	51	192	6
NMTAP	51	288	3
NMTAP	51	288	6
NMHLD	52	0	2	96
NMHLD	52	96	0	96
NMHLD	52	192	7	96
NMHLD	52	288	5	96
NMTAP	53	0	3
NMTAP	53	96	2
NMTAP	53	96	6
NMTAP	53	144	2
NMTAP	53	144	6
NMTAP	53	240	1
NMTAP	53	240	5
NMTAP	53	288	1
NMTAP	53	288	5
NMTAP	54	0	2
NMTAP	54	48	2
NMTAP	54	96	3
NMTAP	54	192	5
NMTAP	54	240	5
NMTAP	54	288	4
NMTAP	55	0	3
NMTAP	55	0	6
NMTAP	55	96	3
NMTAP	55	96	6
NMTAP	55	192	1
NMTAP	55	192	4
NMTAP	55	288	1
NMTAP	55	288	4
NMHLD	56	0	5	96
NMHLD	56	96	7	96
NMHLD	56	192	0	96
NMHLD	56	288	2	96
NMTAP	57	0	4
NMTAP	57	96	3
NMTAP	57	96	5
NMTAP	57	192	2
NMTAP	57	192	6
BRTAP	57	288	2
BRTAP	57	288	6
NMTAP	58	0	1
NMTAP	58	48	1
NMTAP	58	96	3
NMTAP	58	192	6
NMTAP	58	240	6
NMTAP	58	288	4
NMTAP	59	0	6
NMTAP	59	0	7
NMTAP	59	96	0
NMTAP	59	96	7
NMTAP	59	192	0
NMTAP	59	192	1
NMTAP	59	288	0
NMTAP	59	288	7
NMHLD	60	0	6	96
NMHLD	60	96	4	96
NMHLD	60	192	3	96
NMHLD	60	288	1	96
NMTAP	61	0	7
NMTAP	61	96	2
NMTAP	61	96	6
NMTAP	61	144	2
NMTAP	61	144	6
NMTAP	61	240	1
NMTAP	61	240	5
NMTAP	61	288	1
NMTAP	61	288	5
NMTAP	62	0	6
NMTAP	62	48	6
NMTAP	62	96	4
NMTAP	62	192	1
NMTAP	62	240	1
NMTAP	62	288	3
NMTAP	63	0	0
NMTAP	63	0	1
NMTAP	63	96	0
NMTAP	63	96	7
NMTAP	63	192	6
NMTAP	63	192	7
NMTAP	63	288	0
NMTAP	63	288	7
NMHLD	64	0	1	96
NMHLD	64	96	3	96
NMHLD	64	192	4	96
NMHLD	64	288	6	96
NMTAP	65	0	0
NMTAP	65	96	2
NMTAP	65	96	4
NMTAP	65	192	1
NMTAP	65	192	5
BRTAP	65	288	1
BRTAP	65	288	5
NMSTR	66	0	0
NMSCR	66	0	0	96	144	4
NMTAP	66	288	6
NMSTR	67	0	7
NMSCL	67	0	7	96	144	3
NMTAP	67	288	1
NMSTR	68	0	0
NMSI_	68	0	0	96	96	3
NMSTR	68	192	7
NMSI_	68	192	7	96	96	4
NMTAP	69	0	1
NMTAP	69	96	1
NMTAP	69	192	2
NMTAP	69	192	3
NMHLD	70	0	1	96
NMHLD	70	0	3	96
NMHLD	70	192	1	96
NMHLD	70	192	3	96
NMHLD	71	0	4	96
NMHLD	71	0	6	96
NMHLD	71	192	4	96
NMHLD	71	192	6	96
NMTAP	72	0	3
NMTAP	72	96	2
NMTAP	72	192	4
NMTAP	72	288	5
NMTTP	73	0	3	E	0	M1
NMTTP	73	96	4	E	0	M1
NMTTP	73	192	5	E	0	M1
NMSTR	74	0	7
NMSCL	74	0	7	96	144	3
NMTAP	74	288	1
NMSTR	75	0	0
NMSCR	75	0	0	96	144	4
NMTAP	75	288	6
NMSTR	76	0	7
NMSI_	76	0	7	96	96	4
NMSTR	76	192	0
NMSI_	76	192	0	96	96	3
NMTAP	77	0	6
NMTAP	77	96	6
NMTAP	77	192	4
NMTAP	77	192	5
NMHLD	78	0	4	96
NMHLD	78	0	6	96
NMHLD	78	192	4	96
NMHLD	78	192	5	96
NMHLD	79	0	1	96
NMHLD	79	0	3	96
NMHLD	79	192	2	96
NMHLD	79	192	3	96
NMTAP	80	0	4
NMTAP	80	96	5
NMTAP	80	192	3
NMTAP	80	288	2
EXTAP	81	0	1
EXTAP	81	0	4
EXTAP	81	96	3
EXTAP	81	96	6
EXTAP	81	192	2
EXTAP	81	192	5
NMHLD	82	0	1	96
NMTAP	82	96	0
NMTAP	82	144	0
NMTAP	82	240	2
NMTAP	82	240	3
NMTAP	82	336	4
NMTAP	82	336	5
NMHLD	83	48	6	96
NMTAP	83	144	7
NMTAP	83	192	7
NMTAP	83	288	0
NMTAP	83	288	5
NMSTR	84	0	1
NMSCR	84	0	1	96	96	4
NMSTR	84	192	7
NMSCL	84	192	7	96	96	4
NMTAP	85	0	2
NMTAP	85	96	1
NMTAP	85	96	4
NMTAP	85	192	1
NMTAP	85	192	4
NMTAP	85	288	2
NMTAP	85	288	5
NMHLD	86	0	6	96
NMTAP	86	96	7
NMTAP	86	144	7
NMTAP	86	240	4
NMTAP	86	240	5
NMTAP	86	336	2
NMTAP	86	336	3
NMTAP	87	48	1
NMHLD	87	96	1	96
NMTAP	87	192	0
NMTAP	87	288	2
NMTAP	87	288	7
NMSTR	88	0	6
NMSCL	88	0	6	96	96	3
NMSTR	88	192	0
NMSCR	88	192	0	96	96	3
NMTAP	89	0	5
NMTAP	89	96	6
NMTAP	89	96	7
NMHLD	89	192	0	96
NMHLD	89	192	7	96
NMSTR	90	0	0
NMSI_	90	0	0	96	48	4
NMSTR	90	0	1
NMSI_	90	0	1	96	48	4
NMTAP	90	192	5
NMTAP	90	288	6
NMSTR	91	0	6
NMSI_	91	0	6	96	48	3
NMSTR	91	0	7
NMSI_	91	0	7	96	48	3
NMTAP	91	192	2
NMTAP	91	288	1
NMSTR	92	0	0
NMSI_	92	0	0	96	48	4
NMSTR	92	0	1
NMSI_	92	0	1	96	48	4
NMSTR	92	192	6
NMSI_	92	192	6	96	48	3
NMSTR	92	192	7
NMSI_	92	192	7	96	48	3
NMSTR	93	0	0
NMSI_	93	0	0	96	48	4
NMSTR	93	0	1
NMSI_	93	0	1	96	48	4
NMTAP	93	192	6
NMTAP	93	192	7
NMTAP	93	288	6
NMTAP	93	288	7
NMSTR	94	0	4
NMSI_	94	0	4	96	48	0
NMSTR	94	0	5
NMSI_	94	0	5	96	48	0
NMTAP	94	192	1
NMTAP	94	288	2
NMSTR	95	0	2
NMSI_	95	0	2	96	48	7
NMSTR	95	0	3
NMSI_	95	0	3	96	48	7
NMTAP	95	192	6
NMTAP	95	288	5
NMSTR	96	0	4
NMSI_	96	0	4	96	48	0
NMSTR	96	0	5
NMSI_	96	0	5	96	48	0
NMSTR	96	192	2
NMSI_	96	192	2	96	48	7
NMSTR	96	192	3
NMSI_	96	192	3	96	48	7
NMSTR	97	0	4
NMSI_	97	0	4	96	48	0
NMSTR	97	0	5
NMSI_	97	0	5	96	48	0
NMTAP	97	192	2
NMTAP	97	192	3
NMTAP	97	288	2
NMTAP	97	288	3
NMHLD	98	0	1	96
NMHLD	98	0	3	96
NMHLD	98	192	4	96
NMHLD	98	192	6	96
NMTAP	99	0	1
NMTAP	99	0	3
NMTAP	99	96	2
NMTAP	99	96	3
NMTAP	99	192	4
NMTAP	99	192	6
NMTAP	99	288	4
NMTAP	99	288	5
NMTAP	100	0	2
NMTAP	100	96	0
NMTAP	100	192	7
NMSTR	100	288	5
BRSXL	100	288	5	96	240	3
NMTAP	101	288	2
NMHLD	102	0	1	96
NMTAP	102	96	3
NMHLD	102	192	6	96
NMTAP	102	288	4
NMHLD	103	0	1	96
NMTAP	103	96	7
NMHLD	103	192	6	96
NMTAP	103	288	0
NMTAP	104	0	1
NMTAP	104	0	5
NMTAP	104	192	7
NMTAP	104	288	0
NMTAP	104	288	1
EXHLD	104	336	0	240
NMTAP	104	336	1
NMTTP	105	192	3	E	1	M1

T_REC_TAP	301
T_REC_BRK	11
T_REC_XTP	10
T_REC_BXX	0
T_REC_HLD	69
T_REC_XHO	3
T_REC_BHO	0
T_REC_BXH	0
T_REC_STR	46
T_REC_BST	0
T_REC_XST	2
T_REC_XBS	0
T_REC_TTP	42
T_REC_THO	0
T_REC_SLD	47
T_REC_BSL	1
T_REC_ALL	532
T_NUM_TAP	401
T_NUM_BRK	12
T_NUM_HLD	72
T_NUM_SLD	47
T_NUM_ALL	532
T_JUDGE_TAP	412
T_JUDGE_HLD	147
T_JUDGE_SLD	48
T_JUDGE_ALL	607
TTM_EACHPAIRS	141
TTM_SCR_TAP	200500
TTM_SCR_BRK	31200
TTM_SCR_HLD	72000
TTM_SCR_SLD	70500
TTM_SCR_ALL	374200
TTM_SCR_S	361850
TTM_SCR_SS	373000
TTM_RAT_ACV	10032

