VERSION	0.00.00	1.05.00
FES_MODE	0
BPM_DEF	188.000	188.000	188.000	188.000
MET_DEF	4	4
RESOLUTION	384
CLK_DEF	384
COMPATIBLE_CODE	MA2

BPM	0	0	188.000
MET	0	0	4	4

NMTAP	2	0	0
NMTAP	2	192	0
NMTAP	3	0	1
NMTAP	3	192	1
NMTAP	4	0	2
NMTAP	4	192	2
NMTAP	5	0	3
NMTAP	5	0	4
NMTAP	5	192	3
NMTAP	5	192	4
NMTAP	6	0	4
NMTAP	6	192	4
NMTAP	7	0	5
NMTAP	7	192	5
NMTAP	8	0	6
NMTAP	8	192	6
NMTAP	9	0	0
NMTAP	9	0	7
NMTAP	10	0	6
NMTAP	10	96	6
NMTAP	10	192	6
NMTAP	10	192	7
NMTAP	11	0	5
NMTAP	11	96	5
NMTAP	11	192	4
NMTAP	11	192	5
NMTAP	12	0	3
NMTAP	12	96	3
NMTAP	12	192	2
NMTAP	12	192	3
NMTAP	13	0	0
NMTAP	13	0	1
NMTAP	13	96	0
NMTAP	13	96	1
NMTAP	13	192	0
NMTAP	13	192	1
NMTAP	14	0	1
NMTAP	14	96	1
NMTAP	14	192	0
NMTAP	14	192	1
NMTAP	15	0	2
NMTAP	15	96	2
NMTAP	15	192	2
NMTAP	15	192	3
NMTAP	16	0	4
NMTAP	16	96	4
NMTAP	16	192	4
NMTAP	16	192	5
NMTAP	17	0	6
NMTAP	17	0	7
NMTAP	17	96	6
NMTAP	17	96	7
NMTAP	17	192	6
NMTAP	17	192	7
NMHLD	18	0	5	192
NMHLD	18	192	4	192
NMHLD	19	0	3	192
NMTAP	19	192	2
NMHLD	20	0	2	192
NMHLD	20	192	3	192
NMHLD	21	0	4	192
NMTAP	21	192	5
NMHLD	22	0	6	192
NMHLD	22	192	5	192
NMHLD	23	0	4	192
NMTAP	23	192	3
NMHLD	24	0	1	192
NMHLD	24	192	2	192
NMHLD	25	0	3	192
NMTAP	25	192	4
NMTAP	26	0	2
NMTAP	26	96	2
NMTAP	26	192	1
NMTAP	26	288	1
NMTAP	27	0	0
NMTAP	27	96	0
NMTAP	27	192	6
NMTAP	27	192	7
NMTAP	28	0	5
NMTAP	28	96	5
NMTAP	28	192	6
NMTAP	28	288	6
NMTAP	29	0	7
NMTAP	29	96	7
NMTAP	29	192	0
NMTAP	29	192	1
NMTAP	30	0	1
NMTAP	30	96	1
NMTAP	30	192	2
NMTAP	30	288	2
NMTAP	31	0	3
NMTAP	31	96	3
NMTAP	31	192	4
NMTAP	31	192	5
NMTAP	32	0	6
NMTAP	32	96	6
NMTAP	32	192	5
NMTAP	32	288	5
NMTAP	33	0	4
NMTAP	33	96	4
NMTAP	33	192	2
NMTAP	33	192	3
NMTAP	34	0	2
NMTAP	34	0	3
NMTAP	34	96	2
NMTAP	34	96	3
NMTAP	34	192	1
NMTAP	34	288	1
NMTAP	35	0	0
NMTAP	35	96	0
NMTAP	35	192	6
NMTAP	35	192	7
NMTAP	36	0	4
NMTAP	36	0	5
NMTAP	36	96	4
NMTAP	36	96	5
NMTAP	36	192	6
NMTAP	36	288	6
NMTAP	37	0	7
NMTAP	37	96	7
NMTAP	37	192	0
NMTAP	37	192	1
NMTAP	38	0	0
NMTAP	38	0	1
NMTAP	38	96	0
NMTAP	38	96	1
NMTAP	38	192	2
NMTAP	38	288	2
NMTAP	39	0	3
NMTAP	39	96	3
NMTAP	39	192	4
NMTAP	39	192	5
NMTAP	40	0	6
NMTAP	40	0	7
NMTAP	40	96	6
NMTAP	40	96	7
NMTAP	40	192	5
NMTAP	40	288	5
NMTAP	41	0	4
NMTAP	41	96	4
NMTAP	41	192	2
NMTAP	41	192	3
NMTAP	42	0	1
NMTAP	42	96	2
NMTAP	42	192	3
NMTAP	42	288	4
NMTAP	43	0	5
NMTAP	43	96	6
NMTAP	43	192	0
NMTAP	43	192	7
NMTAP	44	0	6
NMTAP	44	96	5
NMTAP	44	192	4
NMTAP	44	288	3
NMTAP	45	0	2
NMTAP	45	96	1
NMTAP	45	192	0
NMTAP	45	192	7
NMTAP	46	0	0
NMTAP	46	96	1
NMTAP	46	192	2
NMTAP	46	288	3
NMTAP	47	0	4
NMTAP	47	96	5
NMTAP	47	192	6
NMTAP	47	288	7
NMTAP	48	0	0
NMTAP	48	96	1
NMTAP	48	192	2
NMTAP	48	288	3
NMTAP	49	0	3
NMTAP	49	0	4
NMTAP	49	96	3
NMTAP	49	96	4
BXTAP	49	192	2
BXTAP	49	192	5
NMSTR	50	0	3
NMSI_	50	0	3	96	192	0
NMSTR	51	0	7
NMSI_	51	0	7	96	192	3
NMSTR	52	0	1
NMSI_	52	0	1	96	192	4
NMTAP	53	0	5
NMTAP	53	192	4
NMTAP	53	192	5
NMSTR	54	0	6
NMSI_	54	0	6	96	192	3
NMSTR	55	0	2
NMSI_	55	0	2	96	192	7
NMSTR	56	0	6
NMSI_	56	0	6	96	192	2
NMTAP	57	0	1
NMTAP	57	192	0
NMTAP	57	192	1
NMTAP	58	0	7
NMTAP	58	96	7
NMTAP	58	192	6
NMTAP	58	288	6
NMTAP	59	0	5
NMTAP	59	96	5
NMTAP	59	192	4
NMTAP	59	288	4
NMTAP	60	0	3
NMTAP	60	96	3
NMTAP	60	192	2
NMTAP	60	288	2
NMTAP	61	0	1
NMTAP	61	96	1
NMTAP	61	192	0
NMTAP	61	192	7
NMTAP	62	0	0
NMTAP	62	96	0
NMTAP	62	192	1
NMTAP	62	288	1
NMTAP	63	0	2
NMTAP	63	96	2
NMTAP	63	192	3
NMTAP	63	288	3
NMTAP	64	0	4
NMTAP	64	96	4
NMTAP	64	192	5
NMTAP	64	288	5
NMTAP	65	0	6
NMTAP	65	96	6
NMTAP	65	192	0
NMTAP	65	192	7
NMTAP	66	0	7
NMTAP	66	96	7
NMTAP	66	192	6
NMTAP	67	0	5
NMTAP	67	96	5
NMTAP	67	192	4
NMTAP	68	0	3
NMTAP	68	96	3
NMTAP	68	192	2
NMTAP	69	0	1
NMTAP	69	96	1
NMTAP	69	192	0
NMTAP	69	192	1
NMTAP	70	0	0
NMTAP	70	96	0
NMTAP	70	192	1
NMTAP	71	0	2
NMTAP	71	96	2
NMTAP	71	192	3
NMTAP	72	0	4
NMTAP	72	96	4
NMTAP	72	192	5
NMTAP	73	0	6
NMTAP	73	96	6
NMTAP	73	192	6
NMTAP	73	192	7
NMTTP	74	0	6	B	0	L1
NMTTP	74	96	5	B	0	L1
NMTTP	74	192	4	B	0	L1
NMTTP	75	0	1	B	0	L1
NMTTP	75	96	2	B	0	L1
NMTTP	75	192	3	B	0	L1
NMTTP	76	0	6	B	0	L1
NMTTP	76	96	5	B	0	L1
NMTTP	76	192	4	B	0	L1
NMTTP	76	288	3	B	0	L1
NMTTP	77	0	2	B	0	L1
NMTTP	77	96	1	B	0	L1
NMTTP	77	192	0	C	0	L1
NMTTP	78	0	0	B	0	L1
NMTTP	78	96	1	B	0	L1
NMTTP	78	192	2	B	0	L1
NMTTP	78	192	3	B	0	L1
NMTTP	79	0	7	B	0	L1
NMTTP	79	96	6	B	0	L1
NMTTP	79	192	4	B	0	L1
NMTTP	79	192	5	B	0	L1
NMTTP	80	0	1	B	0	L1
NMTTP	80	96	2	B	0	L1
NMTTP	80	192	3	B	0	L1
NMTTP	80	288	4	B	0	L1
NMTTP	81	0	0	C	1	L1
NMTAP	82	0	1
NMTAP	82	96	1
NMTAP	82	192	0
NMTAP	82	192	1
NMTAP	82	288	0
NMTAP	82	288	1
NMTAP	83	0	7
NMTAP	83	96	7
NMTAP	83	192	6
NMTAP	83	192	7
NMTAP	84	0	5
NMTAP	84	96	5
NMTAP	84	192	6
NMTAP	84	192	7
NMTAP	84	288	6
NMTAP	84	288	7
NMTAP	85	0	0
NMTAP	85	96	0
NMTAP	85	192	0
NMTAP	85	192	1
NMTAP	86	0	1
NMTAP	86	96	1
NMTAP	86	192	2
NMTAP	86	192	3
NMTAP	86	288	2
NMTAP	86	288	3
NMTAP	87	0	4
NMTAP	87	96	4
NMTAP	87	192	4
NMTAP	87	192	5
NMTAP	88	0	6
NMTAP	88	96	6
NMTAP	88	192	4
NMTAP	88	192	5
NMTAP	88	288	4
NMTAP	88	288	5
NMTAP	89	0	3
NMTAP	89	96	3
NMTAP	89	192	2
NMTAP	89	192	3
NMTAP	90	0	2
NMTAP	90	96	2
NMTAP	90	192	0
NMTAP	90	192	1
NMTAP	90	288	0
NMTAP	90	288	1
NMTAP	91	0	7
NMTAP	91	96	7
NMTAP	91	192	6
NMTAP	91	192	7
NMTAP	91	288	6
NMTAP	91	288	7
NMTAP	92	0	5
NMTAP	92	96	5
NMTAP	92	192	6
NMTAP	92	192	7
NMTAP	92	288	6
NMTAP	92	288	7
NMTAP	93	0	0
NMTAP	93	96	0
NMTAP	93	192	0
NMTAP	93	192	1
NMTAP	94	0	1
NMTAP	94	96	1
NMTAP	94	192	2
NMTAP	94	192	3
NMTAP	94	288	2
NMTAP	94	288	3
NMTAP	95	0	4
NMTAP	95	96	4
NMTAP	95	192	4
NMTAP	95	192	5
NMTAP	95	288	4
NMTAP	95	288	5
NMTAP	96	0	6
NMTAP	96	96	6
NMTAP	96	192	4
NMTAP	96	192	5
NMTAP	96	288	4
NMTAP	96	288	5
NMTAP	97	0	3
NMTAP	97	96	3
NMTAP	97	192	2
NMTAP	97	192	3
NMTAP	98	0	1
NMTAP	98	96	1
NMTAP	98	192	1
NMTAP	98	288	0
NMTAP	98	288	1
NMTAP	99	0	2
NMTAP	99	96	2
NMTAP	99	192	2
NMTAP	99	288	2
NMTAP	99	288	3
NMTAP	100	0	4
NMTAP	100	96	4
NMTAP	100	192	4
NMTAP	100	288	4
NMTAP	100	288	5
NMTAP	101	0	6
NMTAP	101	0	7
NMTAP	101	96	6
NMTAP	101	96	7
NMTAP	101	192	0
NMTAP	101	192	5
NMTAP	102	0	6
NMTAP	102	96	6
NMTAP	102	192	6
NMTAP	102	288	6
NMTAP	102	288	7
NMTAP	103	0	5
NMTAP	103	96	5
NMTAP	103	192	5
NMTAP	103	288	4
NMTAP	103	288	5
NMTAP	104	0	3
NMTAP	104	96	3
NMTAP	104	192	3
NMTAP	104	288	2
NMTAP	104	288	3
NMTAP	105	0	0
NMTAP	105	0	1
NMTAP	105	96	0
NMTAP	105	96	1
BRTAP	105	192	2
BRTAP	105	192	7

T_REC_TAP	350
T_REC_BRK	2
T_REC_XTP	0
T_REC_BXX	2
T_REC_HLD	12
T_REC_XHO	0
T_REC_BHO	0
T_REC_BXH	0
T_REC_STR	6
T_REC_BST	0
T_REC_XST	0
T_REC_XBS	0
T_REC_TTP	26
T_REC_THO	0
T_REC_SLD	6
T_REC_BSL	0
T_REC_ALL	404
T_NUM_TAP	382
T_NUM_BRK	4
T_NUM_HLD	12
T_NUM_SLD	6
T_NUM_ALL	404
T_JUDGE_TAP	386
T_JUDGE_HLD	48
T_JUDGE_SLD	6
T_JUDGE_ALL	440
TTM_EACHPAIRS	80
TTM_SCR_TAP	191000
TTM_SCR_BRK	10400
TTM_SCR_HLD	12000
TTM_SCR_SLD	9000
TTM_SCR_ALL	222400
TTM_SCR_S	215350
TTM_SCR_SS	222000
TTM_RAT_ACV	10018

