VERSION	0.00.00	1.05.00
FES_MODE	0
BPM_DEF	188.000	188.000	188.000	188.000
MET_DEF	4	4
RESOLUTION	384
CLK_DEF	384
COMPATIBLE_CODE	MA2

BPM	0	0	188.000
MET	0	0	4	4

NMTAP	2	0	0
NMTAP	2	192	0
NMTAP	3	0	0
NMTAP	4	0	7
NMTAP	4	192	7
NMTAP	5	0	7
NMTAP	6	0	0
NMTAP	6	192	0
NMTAP	7	0	0
NMTAP	8	0	0
NMTAP	8	0	7
NMTAP	8	192	0
NMTAP	8	192	7
NMTAP	9	0	0
NMTAP	9	0	7
NMTAP	10	0	0
NMTAP	10	192	0
NMTAP	11	0	1
NMTAP	12	0	2
NMTAP	12	192	2
NMTAP	13	0	3
NMTAP	13	0	4
NMTAP	14	0	4
NMTAP	14	192	4
NMTAP	15	0	5
NMTAP	16	0	6
NMTAP	16	192	6
NMTAP	17	0	0
NMTAP	17	0	7
NMSTR	18	0	7
NMSI_	18	0	7	96	288	3
NMSTR	20	0	0
NMSI_	20	0	0	96	288	4
NMSTR	22	0	6
NMSI_	22	0	6	96	288	2
NMSTR	24	0	1
NMSI_	24	0	1	96	288	5
BXTAP	26	0	7
NMTAP	26	192	7
NMTAP	27	0	6
NMTAP	27	192	6
NMTAP	28	0	5
NMTAP	28	192	5
NMTAP	29	0	3
NMTAP	29	0	4
NMTAP	30	0	3
NMTAP	30	192	3
NMTAP	31	0	2
NMTAP	31	192	2
NMTAP	32	0	1
NMTAP	32	192	1
NMTAP	33	0	0
NMTAP	33	0	7
NMTAP	34	0	0
NMTAP	34	192	0
NMTAP	35	0	1
NMTAP	35	192	1
NMTAP	36	0	2
NMTAP	36	192	2
NMTAP	37	0	3
NMTAP	37	0	4
NMTAP	37	192	3
NMTAP	37	192	4
NMTAP	38	0	4
NMTAP	38	192	4
NMTAP	39	0	5
NMTAP	39	192	5
NMTAP	40	0	6
NMTAP	40	192	6
BRTAP	41	0	0
BRTAP	41	0	7
NMTAP	42	0	6
NMTAP	42	192	6
NMTAP	43	0	6
NMTAP	43	0	7
NMTAP	44	0	5
NMTAP	44	192	5
NMTAP	45	0	4
NMTAP	45	0	5
NMTAP	46	0	3
NMTAP	46	192	3
NMTAP	47	0	2
NMTAP	47	0	3
NMTAP	48	0	1
NMTAP	48	192	1
NMTAP	49	0	0
NMTAP	49	0	1
NMTTP	50	0	0	B	0	L1
NMTTP	51	0	7	B	0	L1
NMTTP	52	0	1	B	0	L1
NMTTP	53	0	6	B	0	L1
NMTTP	54	0	2	B	0	L1
NMTTP	55	0	5	B	0	L1
NMTTP	56	0	3	B	0	L1
NMTTP	57	0	0	C	1	L1
EXTAP	58	0	0
EXTAP	58	0	1
EXTAP	58	192	0
EXTAP	58	192	1
EXTAP	59	0	0
EXTAP	59	0	1
NMTAP	60	0	2
NMTAP	60	0	3
NMTAP	60	192	2
NMTAP	60	192	3
NMTAP	61	0	2
NMTAP	61	0	3
NMTAP	62	0	4
NMTAP	62	0	5
NMTAP	62	192	4
NMTAP	62	192	5
NMTAP	63	0	4
NMTAP	63	0	5
NMTAP	64	0	6
NMTAP	64	0	7
NMTAP	64	192	6
NMTAP	64	192	7
NMTAP	65	0	6
NMTAP	65	0	7
NMSTR	66	0	7
NMSI_	66	0	7	96	288	4
NMSTR	68	0	3
NMSI_	68	0	3	96	288	0
NMSTR	70	0	7
NMSI_	70	0	7	96	288	4
NMSTR	72	0	3
NMSI_	72	0	3	96	288	0
NMHLD	74	0	6	384
NMHLD	74	0	7	384
NMHLD	76	0	4	384
NMHLD	76	0	5	384
NMHLD	78	0	2	384
NMHLD	78	0	3	384
NMHLD	80	0	0	384
NMHLD	80	0	1	384
BRTAP	82	0	0
NMTAP	82	96	0
NMTAP	82	192	0
NMTAP	83	0	1
NMTAP	83	192	1
NMTAP	84	0	2
NMTAP	84	96	2
NMTAP	84	192	2
NMTAP	85	0	3
NMTAP	85	192	3
NMTAP	85	192	4
NMTAP	86	0	4
NMTAP	86	96	4
NMTAP	86	192	4
NMTAP	87	0	5
NMTAP	87	192	5
NMTAP	88	0	6
NMTAP	88	96	6
NMTAP	88	192	6
EXTAP	89	0	0
EXTAP	89	0	7
NMTAP	90	0	7
NMTAP	90	96	7
NMTAP	90	192	7
NMTAP	91	0	6
NMTAP	91	96	6
NMTAP	91	192	6
NMTAP	92	0	5
NMTAP	92	96	5
NMTAP	92	192	5
NMTAP	93	0	3
NMTAP	93	0	4
NMTAP	93	192	3
NMTAP	93	192	4
NMTAP	94	0	3
NMTAP	94	96	3
NMTAP	94	192	3
NMTAP	95	0	2
NMTAP	95	96	2
NMTAP	95	192	2
NMTAP	96	0	1
NMTAP	96	96	1
NMTAP	96	192	1
EXTAP	97	0	0
EXTAP	97	0	7
NMHLD	98	0	0	192
NMTAP	99	0	1
NMTAP	99	192	1
NMHLD	100	0	2	192
NMTAP	101	0	3
NMTAP	101	0	4
NMTAP	101	192	3
NMTAP	101	192	4
NMHLD	102	0	4	192
NMTAP	103	0	5
NMTAP	103	192	5
NMTAP	104	0	6
NMTAP	104	192	6
EXHLD	105	0	0	192
EXHLD	105	0	7	192

T_REC_TAP	144
T_REC_BRK	3
T_REC_XTP	10
T_REC_BXX	1
T_REC_HLD	11
T_REC_XHO	2
T_REC_BHO	0
T_REC_BXH	0
T_REC_STR	8
T_REC_BST	0
T_REC_XST	0
T_REC_XBS	0
T_REC_TTP	8
T_REC_THO	0
T_REC_SLD	8
T_REC_BSL	0
T_REC_ALL	195
T_NUM_TAP	170
T_NUM_BRK	4
T_NUM_HLD	13
T_NUM_SLD	8
T_NUM_ALL	195
T_JUDGE_TAP	174
T_JUDGE_HLD	84
T_JUDGE_SLD	8
T_JUDGE_ALL	266
TTM_EACHPAIRS	38
TTM_SCR_TAP	85000
TTM_SCR_BRK	10400
TTM_SCR_HLD	13000
TTM_SCR_SLD	12000
TTM_SCR_ALL	120400
TTM_SCR_S	116400
TTM_SCR_SS	120000
TTM_RAT_ACV	10033

