VERSION	0.00.00	1.05.00
FES_MODE	0
BPM_DEF	130.000	130.000	130.000	130.000
MET_DEF	4	4
RESOLUTION	384
CLK_DEF	384
COMPATIBLE_CODE	MA2

BPM	0	0	130.000
MET	0	0	4	4

NMHLD	2	0	1	144
NMHLD	2	0	5	144
NMTAP	2	192	2
NMTAP	2	192	4
NMTAP	2	240	2
NMTAP	2	240	4
NMSTR	2	288	1
NMSCR	2	288	1	96	96	5
NMSTR	3	0	5
NMSCL	3	0	5	96	96	1
NMTAP	3	96	6
NMHLD	3	192	7	96
NMTAP	3	336	1
NMTAP	4	0	2
NMTAP	4	0	3
NMTAP	4	48	6
NMTAP	4	96	4
NMTAP	4	96	5
NMTAP	4	144	2
NMSTR	4	192	0
NMSCR	4	192	0	96	96	3
NMTAP	4	288	5
NMSTR	5	0	7
NMSCL	5	0	7	96	96	4
NMTAP	5	96	2
NMHLD	5	192	0	96
NMTAP	5	288	3
NMTAP	5	336	1
NMTAP	5	336	4
NMTAP	6	0	2
NMTAP	6	0	5
NMTAP	6	48	3
NMTAP	6	48	6
NMSTR	6	96	4
NMSCL	6	96	4	96	48	1
NMTAP	6	96	7
NMSTR	6	192	4
NMSCR	6	192	4	96	48	7
NMSTR	6	288	4
NMSI_	6	288	4	96	48	0
NMTAP	7	0	4
NMSTR	7	96	1
NMSCR	7	96	1	96	48	4
NMSTR	7	96	7
NMSCL	7	96	7	96	48	4
NMTAP	7	192	1
NMTAP	7	192	7
NMSTR	7	288	2
NMSCL	7	288	2	96	96	6
NMTAP	7	336	4
NMSTR	8	0	6
NMSCR	8	0	6	96	96	2
NMTAP	8	96	4
NMTAP	8	144	5
NMHLD	8	192	6	96
NMSTR	8	288	0
NMSI_	8	288	0	96	48	4
NMSCR	8	288	0	96	48	3
NMTAP	9	0	0
NMSTR	9	96	7
NMSI_	9	96	7	96	48	2
NMSI_	9	96	7	96	48	3
NMTAP	9	192	7
NMTAP	9	288	1
NMTAP	9	288	3
NMTAP	9	336	1
NMTAP	9	336	3
NMSTR	10	0	2
NMSLL	10	0	2	96	96	4
NMTAP	10	48	3
NMSTR	10	96	4
NMSLR	10	96	4	96	96	2
NMHLD	10	192	3	96
NMHLD	11	0	1	48
NMHLD	11	0	3	48
BRTAP	11	96	4
BRTAP	11	144	6
BRTAP	11	192	0
BRTAP	11	240	2
NMHLD	11	288	4	48
NMHLD	11	288	6	48
NMSTR	12	0	3
NMSXR	12	0	3	96	96	4
NMTAP	12	48	2
NMSTR	12	96	4
NMSCR	12	96	4	96	96	2
EXTAP	12	288	6
EXTAP	12	336	6
NMTAP	13	0	0
NMTAP	13	48	0
NMSTR	13	96	7
NMSF_	13	96	7	96	48	3
NMTAP	13	144	7
NMSTR	13	288	5
NMSCL	13	288	5	96	96	1
NMTAP	13	336	5
NMSTR	14	0	1
NMSCL	14	0	1	96	96	5
NMTAP	14	96	5
NMTAP	14	192	1
NMTAP	14	240	1
BXSTR	14	288	2
NMSLL	14	288	2	96	96	3
BXTAP	14	336	3
BXTAP	14	336	4
NMHLD	15	0	5	192
CNSI_	15	96	3	0	48	6
CNSI_	15	144	6	0	48	4
NMHLD	15	288	2	48
NMHLD	15	288	3	48
NMHLD	16	0	0	48
NMHLD	16	0	1	48
NMSTR	16	96	6
NMSXL	16	96	6	96	48	0
NMSXR	16	96	6	96	48	4
NMTAP	16	96	7
NMHLD	16	288	5	48
NMHLD	16	288	7	48
NMHLD	17	0	0	48
NMHLD	17	0	2	48
NMSTR	17	96	1
NMSI_	17	96	1	96	48	5
NMSTR	17	96	7
NMSI_	17	96	7	96	48	3
NMTAP	17	144	0
NMSTR	17	288	2
NMSCL	17	288	2	96	96	6
NMTAP	17	336	4
NMSTR	18	0	6
NMSCR	18	0	6	96	96	2
NMTAP	18	48	5
NMTAP	18	96	4
NMTAP	18	144	5
NMHLD	18	192	6	96
NMSTR	18	288	0
NMSLR	18	288	0	96	96	4
NMTAP	19	0	7
NMSTR	19	96	0
NMSLL	19	96	0	96	96	4
NMTAP	19	192	1
NMSTR	19	288	0
NMSCR	19	288	0	96	48	3
NMTAP	19	336	0
NMSTR	20	0	0
NMSCL	20	0	0	96	48	5
NMSTR	20	96	0
NMSI_	20	96	0	96	48	4
NMTAP	20	192	0
NMTAP	20	288	3
NMSTR	20	288	5
NMSI_	20	288	5	96	48	0
NMTAP	20	336	4
NMTAP	21	0	3
NMTAP	21	0	5
NMSTR	21	96	1
NMSI_	21	96	1	96	48	4
NMTAP	21	96	7
NMTAP	21	144	0
NMTAP	21	192	1
NMTAP	21	192	7
NMTAP	21	240	6
NMTAP	21	288	3
NMTAP	21	288	5
NMTAP	21	336	2
NMTAP	22	0	2
NMTAP	22	0	4
NMTAP	22	48	5
NMSTR	22	96	3
NMSF_	22	96	3	96	48	7
NMTAP	22	96	6
NMTAP	22	144	2
NMSTR	22	288	0
NMSI_	22	288	0	96	48	3
NMTAP	22	288	6
NMTAP	22	336	1
NMTAP	23	0	0
NMTAP	23	0	7
NMHLD	23	96	2	96
NMSTR	23	96	4
NMSCR	23	96	4	96	48	7
NMTAP	23	192	4
NMSTR	23	288	3
NMSI_	23	288	3	96	48	0
NMTAP	23	336	2
NMSTR	24	0	3
NMSI_	24	0	3	96	48	6
NMTAP	24	48	4
NMSTR	24	96	3
NMSXR	24	96	3	96	96	2
NMTAP	24	144	2
NMTAP	24	192	3
NMHLD	24	288	7	384
NMTAP	25	0	4
NMTAP	25	48	3
NMTAP	25	96	2
NMTAP	25	144	1
NMTAP	25	192	0
NMTAP	25	240	6
NMSTR	25	288	5
NMSCR	25	288	5	96	192	2
NMTAP	25	336	4
NMTAP	26	0	3
NMTAP	26	48	3
NMTAP	26	96	3
NMTAP	26	144	3
NMTAP	26	192	3
BRTAP	26	288	0
BRTAP	26	288	6
NMSTR	27	0	1
NMSCR	27	0	1	96	48	5
NMSTR	27	48	5
NMSCL	27	48	5	96	48	1
NMTAP	27	96	6
NMTAP	27	144	7
NMSTR	27	192	7
NMSUL	27	192	7	96	48	2
NMSTR	27	240	2
NMSUR	27	240	2	96	48	7
NMTAP	27	288	1
NMTAP	27	336	0
NMSTR	28	0	0
NMSI_	28	0	0	96	48	3
NMSTR	28	48	0
NMSI_	28	48	0	96	48	5
NMSTR	28	96	0
NMSI_	28	96	0	96	48	4
NMTAP	28	240	6
NMSTR	28	288	2
NMSI_	28	288	2	96	48	7
NMTAP	28	336	3
NMTAP	29	0	4
NMTAP	29	48	5
NMSTR	29	96	5
NMSI_	29	96	5	96	48	0
NMTAP	29	144	4
NMSTR	29	192	3
NMSXR	29	192	3	96	192	7
NMTAP	29	240	2
NMTAP	29	288	7
NMTAP	29	336	6
NMHLD	30	0	6	192
NMTAP	30	192	7
NMTAP	30	240	0
NMTAP	30	240	1
NMTAP	30	288	2
NMTAP	30	288	3
NMTAP	30	336	4
NMTAP	30	336	5
NMSTR	31	0	6
NMSCL	31	0	6	96	48	2
NMSTR	31	48	2
NMSCR	31	48	2	96	48	6
NMTAP	31	96	1
NMTAP	31	144	0
NMSTR	31	192	0
NMSUR	31	192	0	96	48	5
NMSTR	31	240	5
NMSUL	31	240	5	96	48	0
NMTAP	31	288	6
NMTAP	31	336	7
NMSTR	32	0	7
NMSCL	32	0	7	96	96	1
EXTAP	32	48	1
EXSTR	32	96	1
NMSLR	32	96	1	96	64	5
EXTAP	32	144	0
EXTAP	32	192	0
NMTAP	32	288	1
NMTAP	32	336	1
NMTAP	33	0	2
NMTAP	33	0	7
NMTAP	33	48	3
NMTAP	33	48	6
NMHLD	33	96	4	96
NMSTR	33	96	5
NMSI_	33	96	5	96	48	7
NMTAP	33	192	5
NMTAP	33	288	6
NMTAP	33	288	7
NMTAP	33	336	6
NMTAP	33	336	7
NMTAP	34	0	0
NMTAP	34	0	5
NMTAP	34	48	1
NMTAP	34	48	4
NMSTR	34	96	2
NMSCR	34	96	2	96	48	5
NMTAP	34	96	3
NMSTR	34	192	2
NMSXL	34	192	2	96	144	5
NMTAP	35	96	7
NMTAP	35	144	6
NMTAP	35	192	4
NMTAP	35	192	5
NMTAP	35	240	4
NMTAP	35	240	5
NMHLD	35	288	6	48
NMHLD	35	288	7	48
NMHLD	36	0	0	48
NMHLD	36	0	1	48
NMTAP	36	96	2
NMTAP	36	128	2
NMTAP	36	144	3
NMTAP	36	176	3
NMTAP	36	192	1
NMHLD	36	288	2	48
NMHLD	36	288	4	48
NMHLD	37	0	3	48
NMHLD	37	0	5	48
NMTAP	37	96	6
NMTAP	37	128	6
NMTAP	37	144	4
NMTAP	37	176	4
NMTAP	37	192	5
NMTAP	37	240	3
NMTAP	37	240	6
NMTAP	37	288	2
NMTAP	37	288	5
NMTAP	37	336	1
NMTAP	37	336	4
NMTAP	38	0	0
NMTAP	38	0	3
NMTTP	38	48	2	E	0	M1
NMTTP	38	96	3	E	0	M1
NMTTP	38	144	4	E	0	M1
NMTTP	38	192	5	E	0	M1
EXHLD	38	240	6	48
NMSTR	38	288	4
NMSLL	38	288	4	96	96	0
NMTAP	39	0	5
NMSTR	39	96	4
NMSCR	39	96	4	96	96	0
NMTAP	39	192	3
NMTAP	39	288	4
NMTAP	39	336	4
NMSTR	40	0	3
NMSV_	40	0	3	96	48	2
NMSV_	40	0	3	96	48	4
NMTAP	40	48	3
CNSI_	40	144	2	0	48	0
CNSI_	40	144	4	0	48	6
NMSTR	40	288	6
NMSI_	40	288	6	96	48	3
NMSTR	40	288	7
NMSI_	40	288	7	96	48	2
NMTAP	41	0	6
NMTAP	41	0	7
NMSTR	41	96	0
NMSI_	41	96	0	96	48	4
NMSTR	41	96	1
NMSI_	41	96	1	96	48	5
NMTAP	41	192	0
NMTAP	41	192	1
NMTAP	41	288	3
NMTAP	41	288	6
NMTAP	41	336	3
NMTAP	41	336	6
NMTAP	42	0	2
NMTAP	42	48	1
NMTAP	42	48	4
NMTAP	42	96	1
NMSTR	42	96	4
NMSI_	42	96	4	96	48	6
NMSTR	42	192	4
NMSI_	42	192	4	96	48	2
NMTAP	42	240	3
NMSTR	42	288	4
NMSCR	42	288	4	96	48	7
NMTAP	42	336	5
NMTAP	43	0	3
NMTAP	43	0	4
NMTAP	43	96	3
NMTAP	43	192	3
NMTAP	43	288	2
NMTAP	43	288	4
NMTAP	43	336	2
NMTAP	43	336	4
NMSTR	44	0	1
NMSCR	44	0	1	96	48	3
NMSTR	44	0	5
NMSCL	44	0	5	96	48	3
NMTAP	44	48	0
NMTAP	44	48	6
NMTAP	44	192	1
NMTAP	44	192	5
NMTAP	44	288	4
NMTAP	44	336	4
NMSTR	45	0	2
NMSCL	45	0	2	96	48	0
NMSTR	45	0	6
NMSCR	45	0	6	96	48	0
NMTAP	45	48	3
NMTAP	45	48	5
NMTAP	45	192	2
NMTAP	45	192	6
NMSTR	45	288	3
NMSI_	45	288	3	96	48	0
NMTAP	45	336	1
NMSTR	46	0	4
NMSI_	46	0	4	96	48	7
NMTAP	46	48	6
NMSTR	46	96	1
NMSCR	46	96	1	96	48	4
NMTAP	46	144	0
NMTAP	46	192	7
NMSTR	46	288	3
NMSI_	46	288	3	96	48	0
NMSTR	46	288	6
NMSI_	46	288	6	96	48	2
NMSTR	47	96	1
NMSI_	47	96	1	96	48	5
NMSTR	47	96	3
NMSI_	47	96	3	96	48	7
NMSTR	47	288	7
NMSI_	47	288	7	96	48	4
NMTAP	47	336	7
NMSTR	48	0	7
NMSCR	48	0	7	96	48	2
NMSTR	48	96	7
NMSV_	48	96	7	96	48	4
NMTAP	48	192	7
NMSTR	48	288	2
NMSCL	48	288	2	96	48	7
NMTAP	48	288	3
NMTAP	48	336	1
NMTAP	49	0	2
NMTAP	49	0	4
NMSTR	49	96	6
NMSV_	49	96	6	96	48	3
NMTAP	49	96	7
NMTAP	49	144	5
NMTAP	49	192	0
NMTAP	49	192	6
NMTAP	49	240	1
NMTAP	49	288	2
NMTAP	49	288	4
NMTAP	49	336	5
NMTAP	50	0	3
NMTAP	50	0	5
NMTAP	50	48	2
NMTAP	50	96	1
NMSTR	50	96	4
NMSV_	50	96	4	96	48	2
NMSV_	50	96	4	96	48	6
NMTAP	50	144	5
NMTAP	50	288	1
NMSTR	50	288	7
NMSCL	50	288	7	96	48	4
NMTAP	50	336	6
NMTAP	51	0	0
NMTAP	51	0	7
NMSTR	51	96	3
NMSV_	51	96	3	96	48	0
NMHLD	51	96	5	96
NMTAP	51	192	3
NMSTR	51	288	4
NMSCR	51	288	4	96	48	7
NMSTR	52	0	4
NMSV_	52	0	4	96	48	1
NMTAP	52	48	3
NMSTR	52	96	4
NMSXL	52	96	4	96	96	5
NMTAP	52	144	5
NMHLD	52	288	0	384
NMTAP	53	0	3
NMTAP	53	48	4
NMTAP	53	96	5
NMTAP	53	144	6
NMTAP	53	192	7
NMTAP	53	240	1
NMTAP	53	288	2
NMTAP	53	336	3
NMTAP	54	0	4
NMTAP	54	0	5
NMTAP	54	48	6
NMTAP	54	48	7
NMTAP	54	96	0
NMTAP	54	96	1
NMTAP	54	144	2
NMTAP	54	144	3
NMTAP	54	192	4
NMTAP	54	192	5
NMTAP	54	240	6
NMTAP	54	240	7
NMTAP	54	288	0
NMTAP	54	288	1
NMTAP	54	336	2
NMTAP	54	336	3
EXTAP	55	0	2
EXTAP	55	0	3
NMTAP	55	48	0
NMTAP	55	80	0
NMTAP	55	96	6
NMTAP	55	128	6
NMTAP	55	144	2
NMTAP	55	176	2
BXTAP	55	192	4
NMTAP	55	208	5
NMTAP	55	224	6
NMTAP	55	240	7
NMTAP	55	256	0
NMTAP	55	272	1
BXTAP	55	288	2
NMSTR	56	0	5
NMSCR	56	0	5	96	48	1
NMSTR	56	48	1
NMSCL	56	48	1	96	48	5
NMTAP	56	96	2
NMTAP	56	144	3
NMSTR	56	192	3
NMSUL	56	192	3	96	48	6
NMSTR	56	240	6
NMSUR	56	240	6	96	48	3
NMTAP	56	288	5
NMTAP	56	336	4
NMSTR	57	0	4
NMSI_	57	0	4	96	48	1
NMSTR	57	48	4
NMSI_	57	48	4	96	48	7
NMSTR	57	96	4
NMSI_	57	96	4	96	48	0
NMTAP	57	240	5
NMSTR	57	288	2
NMSV_	57	288	2	96	48	7
NMTAP	57	336	3
NMTAP	58	0	4
NMTAP	58	48	5
NMSTR	58	96	5
NMSCR	58	96	5	96	48	0
NMTAP	58	144	4
NMSTR	58	192	3
NMSI_	58	192	3	96	96	0
NMTAP	58	240	2
NMTAP	58	288	6
NMTAP	58	336	7
CNSLR	59	0	0	0	48	4
NMHLD	59	0	7	192
CNSI_	59	48	4	0	48	6
NMTAP	59	192	6
NMTAP	59	240	6
NMTAP	59	240	7
NMTAP	59	288	5
NMTAP	59	336	3
NMTAP	59	336	4
NMSTR	60	0	2
NMSCL	60	0	2	96	48	6
NMSTR	60	48	6
NMSCR	60	48	6	96	48	2
NMTAP	60	96	5
NMTAP	60	144	4
NMSTR	60	192	4
NMSUR	60	192	4	96	48	1
NMSTR	60	240	1
NMSUL	60	240	1	96	48	4
NMTAP	60	288	2
NMTAP	60	336	3
NMSTR	61	0	3
NMSCL	61	0	3	96	96	5
EXTAP	61	48	5
EXSTR	61	96	5
NMSLR	61	96	5	96	64	1
EXTAP	61	144	4
EXTAP	61	192	4
NMTAP	61	288	5
NMTAP	61	336	5
NMTAP	62	0	3
NMTAP	62	0	6
NMTAP	62	48	2
NMTAP	62	48	7
NMHLD	62	96	0	96
NMSTR	62	96	1
NMSI_	62	96	1	96	48	3
NMTAP	62	192	1
NMTAP	62	288	2
NMTAP	62	288	4
NMTAP	62	336	1
NMTAP	62	336	5
NMSTR	63	0	0
NMSCR	63	0	0	96	48	3
NMSTR	63	0	6
NMSCR	63	0	6	96	48	0
NMSTR	63	96	0
NMSUL	63	96	0	96	48	4
NMSUR	63	96	0	96	48	4
NMTAP	63	192	0
BXTAP	63	288	3
BXTAP	63	288	5
NMHLD	64	0	1	48
NMHLD	64	0	4	48
NMTAP	64	128	1
NMTAP	64	128	4
NMTAP	64	192	2
NMTAP	64	192	5
NMTAP	64	240	3
NMTAP	64	240	6
NMSTR	64	272	3
NMSI_	64	272	3	96	48	1
NMSTR	64	272	6
NMSI_	64	272	6	96	48	0
NMTAP	64	320	4
NMTAP	64	320	5
BRTAP	64	368	3
BRTAP	64	368	6
EXTAP	65	96	0
EXTAP	65	96	7
EXTAP	65	144	2
EXTAP	65	144	5
EXSTR	65	192	3
NMSCL	65	192	3	96	48	0
EXTAP	65	192	4
NMTAP	65	240	2
NMTAP	65	288	5
NMTAP	65	336	4
NMSTR	66	0	6
NMSI_	66	0	6	96	48	2
NMTAP	66	48	6
NMSTR	66	96	0
NMSI_	66	96	0	96	48	4
NMTAP	66	144	0
NMSTR	66	192	5
NMSI_	66	192	5	96	96	2
NMTAP	66	240	5
NMTAP	66	288	4
NMTAP	66	336	3
CNSI_	67	0	2	0	48	6
NMHLD	67	0	3	192
CNSCR	67	48	6	0	48	1
NMTAP	67	192	2
NMTAP	67	240	0
NMTAP	67	288	7
NMTAP	67	336	5
NMSTR	68	0	4
NMSI_	68	0	4	96	48	7
NMSTR	68	0	5
NMSCR	68	0	5	96	48	7
NMSTR	68	192	4
NMSV_	68	192	4	96	48	1
NMSTR	68	192	5
NMSCR	68	192	5	96	48	0
NMSTR	69	0	4
BRSUR	69	0	4	96	96	3
NMSTR	69	0	5
BRSCR	69	0	5	96	96	2
NMSTR	69	288	1
NMSI_	69	288	1	96	48	5
NMTAP	69	336	0
NMTAP	70	0	5
NMTAP	70	48	6
NMSTR	70	96	7
NMSCL	70	96	7	96	48	4
NMTAP	70	144	7
NMSTR	70	192	0
NMSCR	70	192	0	96	48	3
NMTAP	70	240	0
NMSTR	70	288	6
NMSI_	70	288	6	96	48	2
NMTAP	70	336	7
NMTAP	71	0	2
NMTAP	71	48	1
NMSTR	71	96	0
NMSUR	71	96	0	96	48	4
NMTAP	71	192	4
NMSTR	71	272	5
NMSI_	71	272	5	96	48	1
NMTAP	71	320	4
NMTAP	71	320	6
NMHLD	71	368	7	112
NMTAP	72	96	1
NMTAP	72	176	2
NMTAP	72	192	3
NMTAP	72	224	3
NMTAP	72	240	1
NMTAP	72	288	0
NMTAP	72	288	6
NMTAP	72	368	5
NMTAP	73	0	4
NMTAP	73	32	4
NMTAP	73	48	6
NMTAP	73	80	6
NMTAP	73	96	2
NMTAP	73	128	2
NMTAP	73	144	4
NMTAP	73	176	4
NMTAP	73	192	1
NMTAP	73	224	1
NMTAP	73	240	3
NMHLD	73	288	0	96
NMTAP	73	288	4
NMSTR	74	0	3
NMSCR	74	0	3	96	96	7
NMTAP	74	96	1
NMSTR	74	192	4
NMSCL	74	192	4	96	96	0
NMTAP	74	288	6
NMTTP	75	0	2	E	0	M1
NMTTP	75	48	1	E	0	M1
NMTTP	75	96	0	C	0	M1
NMTTP	75	144	5	E	0	M1
NMTTP	75	192	6	E	0	M1

T_REC_TAP	343
T_REC_BRK	8
T_REC_XTP	15
T_REC_BXX	6
T_REC_HLD	41
T_REC_XHO	1
T_REC_BHO	0
T_REC_BXH	0
T_REC_STR	127
T_REC_BST	0
T_REC_XST	3
T_REC_XBS	1
T_REC_TTP	9
T_REC_THO	0
T_REC_SLD	135
T_REC_BSL	2
T_REC_ALL	691
T_NUM_TAP	497
T_NUM_BRK	17
T_NUM_HLD	42
T_NUM_SLD	135
T_NUM_ALL	691
T_JUDGE_TAP	512
T_JUDGE_HLD	84
T_JUDGE_SLD	137
T_JUDGE_ALL	733
TTM_EACHPAIRS	117
TTM_SCR_TAP	248500
TTM_SCR_BRK	44200
TTM_SCR_HLD	42000
TTM_SCR_SLD	202500
TTM_SCR_ALL	537200
TTM_SCR_S	519450
TTM_SCR_SS	535500
TTM_RAT_ACV	10031

