VERSION	0.00.00	1.05.00
FES_MODE	0
BPM_DEF	130.000	130.000	130.000	130.000
MET_DEF	4	4
RESOLUTION	384
CLK_DEF	384
COMPATIBLE_CODE	MA2

BPM	0	0	130.000
MET	0	0	4	4

EXHLD	2	0	0	192
EXHLD	2	0	7	192
NMTAP	2	288	0
NMTAP	2	288	7
NMTAP	3	0	1
NMHLD	3	96	2	576
NMTAP	3	192	4
NMTAP	4	0	3
NMTAP	4	96	3
NMTAP	4	192	4
NMTAP	4	288	4
NMTAP	5	0	5
NMHLD	5	96	5	576
NMTAP	5	192	3
NMTAP	6	0	4
NMTAP	6	96	4
NMTAP	6	192	3
NMTAP	6	288	2
NMTAP	7	0	1
NMHLD	7	96	1	480
NMTAP	7	192	3
NMTAP	7	288	3
NMTAP	8	0	2
NMTAP	8	96	2
NMTAP	8	192	3
NMTAP	8	288	2
NMTAP	8	288	4
NMTAP	9	0	6
NMHLD	9	96	6	96
NMTAP	9	192	4
NMTAP	9	288	3
NMTTP	10	0	3	E	0	M1
NMTTP	10	0	5	E	0	M1
NMTTP	10	96	2	E	0	M1
NMTTP	10	96	4	E	0	M1
NMTTP	10	192	0	C	1	M1
EXTAP	11	0	6
EXTAP	11	48	6
EXTAP	11	96	7
NMTAP	11	192	0
NMTAP	11	192	5
NMTAP	11	288	0
NMTAP	11	288	5
NMTAP	12	0	1
NMTAP	12	48	1
NMTAP	12	96	0
NMTAP	12	192	2
NMTAP	12	192	7
NMTAP	12	288	2
NMTAP	12	288	7
NMTAP	13	0	6
NMTAP	13	48	6
NMTAP	13	96	7
NMTAP	13	144	7
NMTAP	13	192	5
NMTAP	13	288	0
NMTAP	13	288	4
NMHLD	14	0	1	96
NMHLD	14	96	3	96
NMHLD	14	192	4	96
NMSTR	14	288	6
NMSUL	14	288	6	96	192	3
NMTAP	15	192	2
NMTAP	15	288	1
NMTAP	15	288	4
NMTAP	16	0	2
NMTAP	16	48	2
NMTAP	16	96	3
NMTAP	16	144	3
NMTAP	16	192	1
NMTAP	16	288	0
NMTAP	16	288	6
NMTAP	17	0	5
NMTAP	17	48	5
NMTAP	17	96	4
NMTAP	17	144	4
NMTAP	17	192	6
NMTAP	17	288	1
NMTAP	17	288	7
NMTAP	18	0	1
NMTAP	18	0	7
NMTAP	18	96	0
NMTAP	18	96	6
BXHLD	18	192	1	96
BXHLD	18	192	5	96
NMSTR	19	0	2
NMSCR	19	0	2	96	96	5
NMTTP	19	192	6	E	0	M1
NMSTR	20	0	5
NMSCL	20	0	5	96	96	2
NMTTP	20	192	2	E	0	M1
NMSTR	21	0	1
NMSCR	21	0	1	96	96	4
NMSTR	21	192	5
NMSCR	21	192	5	96	96	0
NMTAP	22	0	1
NMTAP	22	96	2
NMTAP	22	96	3
NMTAP	22	192	1
NMTAP	22	192	4
NMHLD	23	0	2	96
NMTAP	23	96	0
NMHLD	23	192	0	96
NMTAP	23	288	7
NMHLD	24	0	7	96
NMTAP	24	96	5
NMTAP	24	192	0
NMTAP	24	192	4
NMTAP	24	288	1
NMTAP	24	288	3
NMTAP	25	0	2
NMTAP	25	48	2
NMTAP	25	96	5
NMTAP	25	144	5
NMTAP	25	192	3
NMTAP	25	240	3
NMSTR	25	288	4
NMSCL	25	288	4	96	96	1
NMSCR	25	288	4	96	96	7
NMTAP	26	192	2
NMTAP	26	192	6
BXSTR	26	288	0
NMSI_	26	288	0	96	48	4
BXSTR	26	288	1
NMSI_	26	288	1	96	48	4
NMSTR	27	96	6
NMSI_	27	96	6	96	48	3
NMSTR	27	96	7
NMSI_	27	96	7	96	48	3
NMSTR	27	288	0
NMSI_	27	288	0	96	48	4
NMSTR	27	288	1
NMSI_	27	288	1	96	48	4
NMSTR	28	96	6
NMSI_	28	96	6	96	48	3
NMSTR	28	96	7
NMSI_	28	96	7	96	48	3
NMTAP	28	288	0
NMTAP	28	288	1
NMHLD	29	0	2	96
NMHLD	29	96	0	96
NMHLD	29	192	7	96
NMTAP	29	288	5
NMTAP	29	336	5
NMTAP	30	0	3
NMTAP	30	96	2
NMTAP	30	96	4
BRTAP	30	192	1
BRTAP	30	192	5
NMSTR	30	288	6
NMSI_	30	288	6	96	48	3
NMSTR	30	288	7
NMSI_	30	288	7	96	48	3
NMSTR	31	96	0
NMSI_	31	96	0	96	48	4
NMSTR	31	96	1
NMSI_	31	96	1	96	48	4
NMSTR	31	288	6
NMSI_	31	288	6	96	48	3
NMSTR	31	288	7
NMSI_	31	288	7	96	48	3
BXSTR	32	96	0
NMSI_	32	96	0	96	48	4
BXSTR	32	96	1
NMSI_	32	96	1	96	48	4
NMTAP	32	288	6
NMTAP	32	288	7
NMHLD	33	0	5	96
NMHLD	33	96	7	96
NMHLD	33	192	0	96
NMTAP	33	288	2
NMHLD	34	0	2	96
NMHLD	34	96	0	96
NMSTR	34	192	7
NMSSR	34	192	7	96	144	3
NMTAP	35	192	0
NMTAP	35	192	7
NMTAP	35	288	1
NMTAP	35	288	6
NMTAP	36	0	0
NMTAP	36	96	1
NMTAP	36	96	7
NMTAP	36	192	6
NMTAP	36	288	5
NMTAP	36	288	7
NMTAP	37	0	1
NMTAP	37	96	0
NMTAP	37	96	2
NMTAP	37	192	7
NMTAP	37	288	0
NMTAP	37	288	6
NMTAP	38	0	1
NMTAP	38	0	5
NMTAP	38	96	2
NMTAP	38	96	6
BRTAP	38	192	2
BRTAP	38	192	6
NMHLD	39	0	1	384
NMTAP	39	144	3
NMTAP	39	192	3
NMHLD	40	0	3	384
NMTAP	40	144	2
NMTAP	40	192	2
NMSTR	41	0	2
NMSCR	41	0	2	96	192	0
NMSTR	42	0	3
NMSSR	42	0	3	96	144	7
NMHLD	43	0	6	288
NMTAP	43	96	4
NMTAP	43	192	4
NMTAP	43	288	5
NMHLD	44	0	4	288
NMTAP	44	96	5
NMTAP	44	192	5
NMTAP	44	288	6
NMHLD	45	0	5	96
NMTAP	45	96	4
NMHLD	45	192	4	96
NMTAP	45	288	3
NMTAP	46	0	3
NMTAP	46	96	2
NMTAP	46	96	3
NMTAP	46	192	1
NMTAP	46	192	4
NMSTR	47	0	2
NMSCL	47	0	2	96	96	7
NMSTR	47	0	3
NMSUL	47	0	3	96	96	6
NMTAP	47	288	4
NMTAP	47	288	5
NMTAP	48	0	6
NMTAP	48	48	6
NMTAP	48	96	7
NMTAP	48	192	0
NMTAP	48	192	5
NMTAP	48	288	0
NMTAP	48	288	5
NMSTR	49	0	6
NMSI_	49	0	6	96	96	3
NMTAP	49	0	7
NMSTR	49	192	1
NMSI_	49	192	1	96	96	4
NMTAP	50	0	5
NMTAP	50	48	5
NMTAP	50	96	4
NMTAP	50	144	4
NMTAP	50	192	6
NMTAP	50	288	0
NMTAP	50	288	7
NMHLD	51	0	6	288
NMTTP	51	96	7	E	0	M1
NMTTP	51	192	6	E	0	M1
NMTTP	51	288	5	E	0	M1
NMHLD	52	0	2	288
NMTTP	52	96	1	E	0	M1
NMTTP	52	192	2	E	0	M1
NMTTP	52	288	3	E	0	M1
NMTAP	53	0	6
NMTAP	53	48	6
NMTAP	53	96	0
NMTAP	53	144	0
NMTAP	53	192	7
NMTAP	53	240	7
NMTAP	53	288	1
NMTAP	53	336	1
NMTAP	54	0	5
NMTAP	54	48	5
NMTAP	54	96	3
NMTAP	54	144	3
NMTAP	54	192	4
NMTAP	54	240	4
NMTAP	54	288	2
NMTAP	54	336	2
NMSTR	55	0	6
NMSUL	55	0	6	96	96	1
NMSTR	55	288	0
NMSI_	55	288	0	96	48	5
NMSTR	55	288	1
NMSI_	55	288	1	96	48	4
NMSTR	56	96	6
NMSI_	56	96	6	96	48	3
NMSTR	56	96	7
NMSI_	56	96	7	96	48	2
NMSTR	56	288	0
NMSI_	56	288	0	96	48	5
NMSTR	56	288	1
NMSI_	56	288	1	96	48	4
NMSTR	57	96	6
NMSI_	57	96	6	96	48	3
NMSTR	57	96	7
NMSI_	57	96	7	96	48	2
NMTAP	57	288	0
NMTAP	57	288	1
NMTAP	58	0	2
NMTAP	58	48	2
NMTAP	58	96	0
NMTAP	58	192	5
NMTAP	58	240	5
NMTAP	58	288	7
NMTAP	59	0	0
NMTAP	59	0	6
NMTAP	59	96	1
NMTAP	59	96	7
BRTAP	59	192	2
BRTAP	59	192	6
NMSTR	59	288	4
NMSI_	59	288	4	96	48	0
NMSTR	59	288	5
NMSI_	59	288	5	96	48	0
NMSTR	60	96	2
NMSI_	60	96	2	96	48	7
NMSTR	60	96	3
NMSI_	60	96	3	96	48	7
NMSTR	60	288	4
NMSI_	60	288	4	96	48	0
NMSTR	60	288	5
NMSI_	60	288	5	96	48	0
BXSTR	61	96	2
NMSI_	61	96	2	96	48	7
BXSTR	61	96	3
NMSI_	61	96	3	96	48	7
BXTAP	61	288	4
BXTAP	61	288	5
NMHLD	62	0	5	96
NMHLD	62	96	7	96
NMHLD	62	192	0	96
NMSTR	62	288	2
NMSCL	62	288	2	96	192	4
NMHLD	64	0	3	192
NMHLD	64	0	4	192
NMSTR	64	288	1
BRSI_	64	288	1	96	48	4
NMSTR	64	288	6
BRSI_	64	288	6	96	48	3
NMTAP	65	96	0
NMTAP	65	96	7
NMTAP	65	192	0
NMTAP	65	192	2
NMTAP	65	288	5
NMTAP	65	288	7
NMTAP	66	0	6
NMTAP	66	48	6
NMTAP	66	96	7
NMTAP	66	192	1
NMTAP	66	240	1
NMTAP	66	288	0
NMTAP	67	0	2
NMHLD	67	0	7	96
NMHLD	67	96	5	96
NMTAP	67	192	3
NMSTR	67	288	0
NMSI_	67	288	0	96	48	4
NMSTR	67	288	1
NMSI_	67	288	1	96	48	5
NMSTR	68	96	6
NMSI_	68	96	6	96	48	2
NMSTR	68	96	7
NMSI_	68	96	7	96	48	3
EXSTR	68	288	1
NMSXL	68	288	1	96	192	4
EXSTR	68	288	4
NMSXL	68	288	4	96	192	7
EXTAP	69	288	4
EXTAP	69	288	5
NMHLD	70	0	6	192
NMTAP	70	96	5
NMTAP	70	192	7
NMTAP	70	288	0
NMTAP	70	288	4
NMHLD	71	0	1	192
NMTAP	71	96	2
NMTAP	71	192	0
NMSTR	71	288	0
BRSCL	71	288	0	96	96	5
NMSTR	71	288	1
BRSCR	71	288	1	96	96	4
NMTAP	72	192	4
NMTAP	72	192	6
NMTAP	72	288	4
NMTAP	72	288	6
NMTAP	73	0	6
NMTAP	73	0	7
NMTAP	73	96	0
NMTAP	73	96	5
NMTAP	73	192	0
NMTAP	73	192	1
NMTAP	73	288	2
NMTAP	73	288	7
NMTAP	74	0	4
NMTAP	74	0	6
NMTAP	74	96	3
NMTAP	74	96	7
NMTAP	74	192	1
NMTAP	74	192	3
NMTAP	74	288	0
NMTAP	74	288	4
NMTAP	75	0	5
NMTAP	75	48	4
NMTAP	75	96	3
NMTAP	75	144	2
NMTTP	75	192	0	C	0	M1
NMTTP	75	192	1	B	0	M1
NMTTP	75	192	6	B	0	M1

T_REC_TAP	220
T_REC_BRK	6
T_REC_XTP	5
T_REC_BXX	2
T_REC_HLD	35
T_REC_XHO	2
T_REC_BHO	0
T_REC_BXH	2
T_REC_STR	49
T_REC_BST	0
T_REC_XST	2
T_REC_XBS	6
T_REC_TTP	16
T_REC_THO	0
T_REC_SLD	54
T_REC_BSL	4
T_REC_ALL	403
T_NUM_TAP	292
T_NUM_BRK	20
T_NUM_HLD	37
T_NUM_SLD	54
T_NUM_ALL	403
T_JUDGE_TAP	306
T_JUDGE_HLD	146
T_JUDGE_SLD	58
T_JUDGE_ALL	510
TTM_EACHPAIRS	83
TTM_SCR_TAP	146000
TTM_SCR_BRK	52000
TTM_SCR_HLD	37000
TTM_SCR_SLD	81000
TTM_SCR_ALL	316000
TTM_SCR_S	304600
TTM_SCR_SS	314000
TTM_RAT_ACV	10063

