VERSION	0.00.00	1.05.00
FES_MODE	0
BPM_DEF	225.000	225.000	225.000	225.000
MET_DEF	4	4
RESOLUTION	384
CLK_DEF	384
COMPATIBLE_CODE	MA2

BPM	0	0	225.000
MET	0	0	4	4

NMTTP	4	288	0	A	0	M1
NMTTP	4	288	7	A	0	M1
NMTTP	4	312	0	B	0	M1
NMTTP	4	312	7	B	0	M1
NMTTP	4	336	0	C	1	M1
NMTTP	4	360	3	B	0	M1
NMTTP	4	360	4	B	0	M1
NMTTP	5	0	3	A	0	M1
NMTTP	5	0	4	A	0	M1
NMHLD	8	48	4	192
NMHLD	8	240	5	192
NMHLD	9	48	6	240
NMHLD	9	288	7	204
NMHLD	10	108	0	312
NMHLD	11	36	1	492
EXSTR	12	144	2
NMSV_	12	144	2	96	432	7
EXTAP	12	156	3
EXSTR	12	168	4
NMSV_	12	168	4	96	408	7
NMTAP	14	24	0
NMTAP	14	24	7
NMTAP	14	96	1
NMTAP	14	96	6
NMTAP	14	168	2
NMTAP	14	168	5
NMTAP	14	240	3
NMTAP	14	240	4
NMSTR	15	0	2
NMSLL	15	0	2	96	192	3
NMSTR	15	0	5
NMSLR	15	0	5	96	192	4
CNSCL	15	288	3	0	192	2
CNSCR	15	288	4	0	192	5
NMTAP	16	288	5
NMTAP	16	312	4
NMTAP	16	336	5
EXTAP	17	0	3
EXTAP	17	0	6
NMTAP	17	96	2
NMTAP	17	120	3
NMTAP	17	144	2
EXTAP	17	192	1
EXTAP	17	192	4
NMTAP	17	288	5
NMTAP	17	312	4
NMTAP	17	336	5
EXTAP	18	0	3
EXTAP	18	0	6
NMHLD	18	96	0	96
NMTTP	18	192	0	E	0	M1
NMTTP	18	240	7	E	0	M1
NMTTP	18	288	6	E	0	M1
NMSTR	19	0	1
NMSCR	19	0	1	96	192	5
NMTAP	19	192	7
NMSTR	20	0	6
NMSCL	20	0	6	96	192	2
NMTAP	20	192	0
NMTAP	21	0	0
NMTAP	21	0	1
NMSTR	21	96	3
NMSV_	21	96	3	96	96	0
NMSV_	21	96	3	96	96	6
NMTAP	22	0	1
NMTAP	22	0	5
NMSTR	22	96	2
NMSI_	22	96	2	96	48	0
NMSTR	22	96	3
NMSI_	22	96	3	96	48	5
NMTAP	22	192	2
NMTAP	22	192	3
NMSTR	23	0	6
NMSCL	23	0	6	96	192	2
NMTAP	23	192	0
NMSTR	24	0	1
NMSCR	24	0	1	96	192	5
NMTAP	24	192	7
NMSTR	25	0	0
NMSI_	25	0	0	96	48	3
NMSI_	25	0	0	96	48	5
EXSTR	25	192	4
NMSI_	25	192	4	96	48	1
NMSI_	25	192	4	96	48	7
NMTAP	26	0	2
NMTAP	26	0	6
NMSTR	26	96	4
NMSI_	26	96	4	96	48	2
NMSTR	26	96	5
NMSI_	26	96	5	96	48	7
NMTAP	26	192	4
NMTAP	26	192	5
NMSTR	27	0	1
NMSCR	27	0	1	96	192	5
NMTAP	27	96	0
NMTAP	27	192	7
NMSTR	28	0	6
NMSCL	28	0	6	96	192	2
NMTAP	28	96	7
NMTAP	28	192	0
NMTAP	29	0	1
NMTAP	29	48	1
NMTAP	29	96	4
NMTAP	29	144	4
NMSTR	29	192	3
NMSV_	29	192	3	96	48	0
NMSV_	29	192	3	96	48	6
NMTAP	29	240	3
NMTAP	30	0	1
NMTAP	30	0	5
NMSTR	30	96	2
NMSI_	30	96	2	96	48	0
NMSTR	30	96	3
NMSI_	30	96	3	96	48	5
NMTAP	30	192	2
NMTAP	30	192	3
NMTAP	31	0	6
NMSTR	31	0	7
NMSI_	31	0	7	96	48	4
NMHLD	31	192	5	72
NMHLD	31	264	7	72
NMTAP	31	336	0
NMTAP	32	48	1
NMTAP	32	96	1
NMTAP	32	192	2
NMTAP	32	192	3
NMTAP	32	288	2
NMTAP	32	288	3
NMSTR	33	0	0
NMSI_	33	0	0	96	48	3
NMTAP	33	0	1
NMHLD	33	192	2	72
NMHLD	33	264	0	72
NMTAP	33	336	7
NMTAP	34	48	6
NMTAP	34	96	6
NMTAP	34	192	4
NMTAP	34	192	5
NMTAP	34	288	4
NMTAP	34	288	5
BRHLD	35	0	2	384
BRTAP	35	0	3
NMTAP	35	96	1
NMTAP	35	192	0
NMTAP	35	288	7
BRHLD	36	0	5	384
NMTAP	36	96	6
NMTAP	36	192	7
NMTAP	36	288	0
BRHLD	37	0	2	192
NMTAP	37	96	0
BRHLD	37	192	5	192
NMTAP	37	288	7
BRTAP	38	0	1
BRTAP	38	96	2
BRTAP	38	96	6
BRSTR	38	192	3
NMSCL	38	192	3	96	528	0
BRSTR	38	192	7
NMSCL	38	192	7	96	528	4
NMTAP	38	288	3
NMTAP	38	288	7
NMSTR	40	192	0
NMSI_	40	192	0	96	48	4
BRTAP	40	288	0
NMSTR	41	0	5
NMSCR	41	0	5	96	48	0
NMTAP	41	96	4
NMTAP	41	96	5
NMSTR	41	192	2
NMSCL	41	192	2	96	48	7
NMTAP	41	288	2
NMTAP	41	288	3
NMSTR	42	0	5
NMSCR	42	0	5	96	48	0
NMTAP	42	96	4
NMTAP	42	96	5
NMSTR	42	192	2
NMSCL	42	192	2	96	48	7
NMTAP	42	288	2
NMTAP	42	288	3
NMSTR	43	0	5
NMSCR	43	0	5	96	48	0
NMTAP	43	96	4
NMTAP	43	96	5
NMSTR	43	192	2
NMSCL	43	192	2	96	48	7
NMTAP	43	288	2
NMTAP	43	288	3
NMSTR	44	0	5
NMSI_	44	0	5	96	48	0
NMSTR	44	96	1
NMSI_	44	96	1	96	48	4
NMTAP	44	96	5
NMTAP	44	192	1
NMSTR	44	192	7
NMSCL	44	192	7	96	48	4
BRTAP	44	288	3
BRTAP	44	288	7
EXSTR	45	0	2
NMSCL	45	0	2	96	48	7
NMTAP	45	96	2
NMTAP	45	96	3
NMSTR	45	192	5
NMSCR	45	192	5	96	48	0
NMTAP	45	288	4
NMTAP	45	288	5
NMTAP	46	0	3
NMTAP	46	24	2
NMTAP	46	48	1
NMTAP	46	72	0
NMTAP	46	96	7
NMTAP	46	120	6
NMTAP	46	144	5
NMTAP	46	168	4
EXTAP	46	192	3
EXSTR	46	240	0
NMSF_	46	240	0	96	48	4
EXTAP	47	48	2
EXTAP	47	48	6
EXTAP	47	96	2
EXTAP	47	96	6
NMTAP	47	192	0
NMTAP	47	192	1
NMTAP	47	288	2
NMTAP	47	288	7
NMTAP	48	0	3
NMTAP	48	0	6
NMTAP	48	48	5
NMTAP	48	72	4
NMTAP	48	96	5
NMTAP	48	144	6
NMTAP	48	192	6
NMTAP	48	288	3
NMTAP	48	288	4
EXHLD	49	0	1	192
NMTAP	49	96	3
NMHLD	49	192	6	192
NMTAP	49	288	4
NMHLD	50	0	1	192
NMTAP	50	96	3
NMHLD	50	192	6	192
NMTAP	50	288	4
NMHLD	51	0	2	192
NMTAP	51	96	0
NMHLD	51	192	5	192
NMTAP	51	288	7
NMHLD	52	0	2	192
NMTAP	52	96	0
NMTAP	52	192	5
NMTAP	52	288	3
NMTAP	52	288	4
NMTTP	53	0	1	E	1	M1
NMTTP	53	96	3	E	1	M1
NMTTP	53	192	5	E	1	M1
NMTTP	53	288	7	E	1	M1
NMTTP	54	0	0	E	1	M1
NMTTP	54	96	2	E	1	M1
NMTTP	54	192	4	E	1	M1
NMTTP	54	288	6	E	1	M1
NMHLD	55	0	4	144
NMHLD	55	0	6	144
NMHLD	55	192	3	96
NMHLD	55	192	4	96
BRHLD	55	336	1	192
BRHLD	55	336	3	192
NMTAP	56	192	2
NMTAP	56	240	1
NMTAP	56	288	0
NMTAP	56	336	7
EXHLD	57	0	6	48
NMTAP	57	48	7
NMHLD	57	96	6	48
NMTAP	57	144	7
NMHLD	57	192	5	48
NMTAP	57	240	4
NMHLD	57	288	5	48
NMTAP	57	336	4
EXSTR	58	0	4
NMSUR	58	0	4	96	96	2
EXSTR	58	0	5
NMSCR	58	0	5	96	96	1
EXHLD	59	0	1	48
NMTAP	59	48	0
NMHLD	59	96	1	48
NMTAP	59	144	0
NMHLD	59	192	2	48
NMTAP	59	240	3
NMHLD	59	288	2	48
NMTAP	59	336	3
EXSTR	60	0	2
NMSCL	60	0	2	96	96	6
EXSTR	60	0	3
NMSUL	60	0	3	96	96	5
NMSTR	61	0	4
NMSI_	61	0	4	96	48	0
NMSTR	61	0	5
NMSI_	61	0	5	96	48	7
NMSTR	61	192	2
NMSI_	61	192	2	96	48	0
NMSTR	61	192	3
NMSI_	61	192	3	96	48	7
NMSTR	62	0	4
NMSI_	62	0	4	96	48	0
NMSTR	62	0	5
NMSI_	62	0	5	96	48	1
NMSTR	62	192	2
NMSI_	62	192	2	96	48	6
NMSTR	62	192	3
NMSI_	62	192	3	96	48	7
BRTAP	63	0	0
NMTAP	63	48	7
BRTAP	63	96	1
NMTAP	63	144	6
BRTAP	63	192	2
NMTAP	63	192	5
BRSTR	63	240	3
BRSXR	63	240	3	96	240	0
NMSTR	63	240	4
NMSXL	63	240	4	96	240	7
BRTAP	63	336	3
NMTAP	63	336	4
NMTTP	65	0	1	B	0	M1
NMTTP	65	0	2	B	0	M1
NMTTP	65	192	5	B	0	M1
NMTTP	65	192	6	B	0	M1
NMTTP	66	0	2	B	0	M1
NMTTP	66	0	3	B	0	M1
NMTTP	66	96	4	B	0	M1
NMTTP	66	96	5	B	0	M1
NMTTP	66	192	0	E	1	M1
NMTTP	66	192	1	E	0	M1
NMTTP	66	192	7	E	0	M1
NMTAP	67	0	2
NMTAP	67	0	3
NMTAP	67	192	2
NMTAP	67	192	3
NMTAP	67	288	3
NMTAP	67	288	4
NMTAP	68	0	4
NMTAP	68	0	5
NMTAP	68	192	4
NMTAP	68	192	5
NMTAP	69	0	4
NMTAP	69	0	5
NMTAP	69	192	4
NMTAP	69	192	5
NMTAP	69	288	3
NMTAP	69	288	4
NMSTR	70	0	2
NMSXR	70	0	2	96	192	2
NMSTR	70	0	3
NMSXL	70	0	3	96	192	2
NMTAP	71	0	4
NMTAP	71	0	5
NMTAP	71	192	6
NMTAP	71	192	7
NMSTR	72	0	6
NMSSR	72	0	6	96	192	2
NMSTR	72	0	7
NMSSL	72	0	7	96	192	3
NMSTR	73	0	1
NMSLR	73	0	1	96	96	5
NMSTR	73	96	5
NMSLR	73	96	5	96	96	1
NMSTR	73	192	1
NMSV_	73	192	1	96	96	7
NMTAP	74	0	4
NMTAP	74	96	5
NMHLD	74	192	4	48
NMHLD	74	192	6	48
NMHLD	74	288	3	48
NMHLD	74	288	4	48
EXTAP	75	0	1
EXTAP	75	0	3
NMTAP	75	144	2
NMTAP	75	192	2
NMTAP	75	192	3
NMTAP	76	0	1
NMTAP	76	0	3
NMTAP	76	96	3
NMTAP	76	96	4
NMTAP	76	192	4
NMTAP	76	192	6
EXTAP	77	0	4
EXTAP	77	0	6
NMTAP	77	144	5
NMTAP	77	192	4
NMTAP	77	192	5
NMTAP	78	0	3
NMTAP	78	0	4
NMTAP	78	96	2
NMTAP	78	96	3
NMTAP	78	192	4
NMTAP	78	192	5
EXTAP	78	288	3
EXTAP	78	288	6
NMHLD	79	0	4	96
NMTAP	79	0	5
NMHLD	79	96	3	96
NMHLD	79	192	2	96
NMSTR	79	288	1
BRSCR	79	288	1	96	288	7
BXHLD	80	0	1	288
EXTAP	81	0	2
EXTAP	81	0	3
NMTAP	81	144	5
NMTAP	81	192	4
NMTAP	81	192	5
BXTAP	81	288	6
BXTAP	81	288	7
BXTAP	81	336	0
BXTAP	81	336	7
BXTAP	82	0	0
BXSTR	82	0	1
NMSF_	82	0	1	96	192	5
EXTAP	83	0	6
EXTAP	83	0	7
NMTAP	83	96	4
NMTAP	83	96	5
NMSTR	83	192	3
NMSV_	83	192	3	96	48	0
NMSV_	83	192	3	96	48	6
NMTAP	83	240	3
NMTAP	84	0	1
NMTAP	84	0	5
NMSTR	84	96	2
NMSI_	84	96	2	96	48	0
NMSTR	84	96	3
NMSI_	84	96	3	96	48	5
NMTAP	84	192	2
NMTAP	84	192	3
EXSTR	85	0	0
NMSI_	85	0	0	96	48	3
NMSI_	85	0	0	96	48	5
EXSTR	85	192	4
NMSI_	85	192	4	96	48	1
NMSI_	85	192	4	96	48	7
NMTAP	86	0	2
NMTAP	86	0	6
NMSTR	86	96	4
NMSI_	86	96	4	96	48	2
NMSTR	86	96	5
NMSI_	86	96	5	96	48	7
NMTAP	86	192	4
NMTAP	86	192	5
NMTAP	87	0	0
NMTAP	87	0	7
NMTAP	87	96	0
NMTAP	87	96	1
NMTAP	87	192	1
NMTAP	87	192	2
NMTAP	87	288	2
NMTAP	87	288	3
NMTAP	88	0	4
NMTAP	88	48	4
NMTAP	88	96	5
NMTAP	88	144	5
NMTAP	88	192	6
NMTAP	88	240	6
NMTAP	88	288	7
NMTAP	89	0	4
NMTAP	89	0	6
NMTAP	89	96	1
NMTAP	89	96	3
NMTAP	89	192	3
NMTAP	89	192	4
NMSTR	89	240	3
NMSXR	89	240	3	96	96	1
NMSTR	89	240	4
NMSXL	89	240	4	96	96	6
BRTAP	89	336	3
BRTAP	89	336	4
EXTAP	90	96	2
EXTAP	90	96	3
EXTAP	90	192	1
EXTAP	90	192	6
BRTAP	90	288	4
BRTAP	90	288	5
EXSTR	91	0	7
NMSLL	91	0	7	96	96	3
NMTAP	91	96	2
NMTAP	91	144	1
NMSTR	91	192	0
NMSI_	91	192	0	96	48	4
BRTAP	91	288	0
NMTAP	92	0	3
NMSTR	92	0	6
NMSLL	92	0	6	96	96	2
NMTAP	92	96	1
NMTAP	92	144	0
NMSTR	92	192	7
NMSI_	92	192	7	96	48	3
BRTAP	92	288	7
NMSTR	93	0	5
NMSCR	93	0	5	96	48	0
NMTAP	93	48	4
NMTAP	93	96	3
NMSTR	93	144	2
NMSCR	93	144	2	96	48	5
NMTAP	93	240	0
NMSTR	93	288	7
NMSI_	93	288	7	96	48	4
EXSTR	94	0	0
NMSI_	94	0	0	96	48	3
EXTAP	94	0	7
EXTAP	94	96	0
EXSTR	94	96	5
NMSI_	94	96	5	96	48	2
EXSTR	94	192	1
BRSI_	94	192	1	96	48	6
EXTAP	94	192	5
EXTAP	94	288	1
BRTAP	94	288	7
NMTAP	95	0	3
NMTAP	95	0	5
NMTAP	95	96	2
NMTAP	95	144	1
NMSTR	95	192	0
NMSI_	95	192	0	96	48	4
NMSTR	95	240	4
NMSI_	95	240	4	96	48	1
BRTAP	95	288	0
NMHLD	95	336	7	96
NMTAP	96	96	0
NMTAP	96	96	6
NMTAP	96	144	1
NMTAP	96	144	5
NMSTR	96	192	2
NMSI_	96	192	2	96	48	7
NMSTR	96	192	4
NMSI_	96	192	4	96	48	7
BRTAP	96	288	2
BRTAP	96	288	4
EXSTR	97	0	6
NMSI_	97	0	6	96	96	1
EXSTR	97	96	1
NMSI_	97	96	1	96	96	4
EXSTR	97	192	4
NMSI_	97	192	4	96	96	7
EXTAP	97	288	7
NMTAP	98	0	0
NMTAP	98	24	1
NMTAP	98	48	2
NMTAP	98	72	3
NMTAP	98	96	4
NMTAP	98	120	5
NMTAP	98	144	6
NMTAP	98	168	7
NMSTR	98	192	0
NMSI_	98	192	0	96	48	4
BRTAP	98	288	0
BRTAP	98	288	1
EXSTR	99	0	3
NMSLL	99	0	3	96	96	7
NMTAP	99	96	6
NMTAP	99	144	5
NMSTR	99	192	4
NMSI_	99	192	4	96	48	0
NMTAP	99	288	0
BRTAP	99	288	4
NMSTR	100	0	2
NMSLL	100	0	2	96	96	6
NMTAP	100	0	7
NMTAP	100	96	5
NMTAP	100	144	4
NMSTR	100	192	3
NMSI_	100	192	3	96	48	7
BRTAP	100	288	3
NMSTR	101	0	1
NMSCR	101	0	1	96	48	4
NMTAP	101	48	0
NMTAP	101	96	7
NMSTR	101	144	6
NMSCR	101	144	6	96	48	1
NMTAP	101	240	4
NMSTR	101	288	3
NMSI_	101	288	3	96	48	1
NMSI_	101	288	3	96	48	6
EXTAP	102	0	3
EXSTR	102	96	4
NMSUR	102	96	4	96	48	1
EXSTR	102	96	5
NMSI_	102	96	5	96	48	0
BRTAP	102	192	4
BRTAP	102	192	5
NMSTR	103	0	2
NMSUL	103	0	2	96	48	6
NMTAP	103	48	3
NMTAP	103	96	4
NMSTR	103	192	5
NMSUR	103	192	5	96	48	1
NMTAP	103	240	4
NMTAP	103	288	3
NMSTR	104	0	2
NMSCL	104	0	2	96	48	7
NMTAP	104	48	3
NMTAP	104	96	4
NMSTR	104	192	5
NMSCR	104	192	5	96	48	0
NMTAP	104	240	4
NMTAP	104	288	3
NMSTR	105	0	3
NMSI_	105	0	3	96	48	7
BRTAP	105	96	2
NMTAP	105	96	3
NMSTR	105	192	4
NMSI_	105	192	4	96	48	0
NMTAP	105	288	4
BRTAP	105	288	5
NMSTR	106	0	3
NMSI_	106	0	3	96	48	7
BRTAP	106	96	1
NMTAP	106	96	3
NMSTR	106	192	4
NMSI_	106	192	4	96	48	0
NMTAP	106	288	4
BRTAP	106	288	6
EXSTR	107	0	2
BRSI_	107	0	2	96	192	5
BRSCR	107	0	2	96	192	5
NMTAP	108	0	7
NMTAP	108	24	0
NMTAP	108	48	7
NMTAP	108	72	0
NMTAP	108	96	7
EXTAP	108	144	6
EXTAP	108	192	3
EXTAP	108	192	5
NMTAP	108	240	3
NMTAP	108	240	5
NMTAP	108	336	2
NMTAP	108	336	4
EXTAP	109	0	2
EXSTR	109	0	4
NMSUR	109	0	4	96	48	0
NMTAP	109	96	4
NMTAP	109	96	5
NMSTR	109	192	3
NMSUL	109	192	3	96	48	7
NMTAP	109	288	2
NMTAP	109	288	3
NMSTR	110	0	4
NMSUR	110	0	4	96	48	0
NMTAP	110	96	4
NMTAP	110	96	5
NMSTR	110	192	3
NMSUL	110	192	3	96	48	7
NMTAP	110	288	2
NMTAP	110	288	3
NMSTR	111	0	4
NMSUR	111	0	4	96	48	1
NMTAP	111	96	4
NMTAP	111	96	5
NMSTR	111	192	3
NMSUL	111	192	3	96	48	6
NMTAP	111	288	2
NMTAP	111	288	3
EXSTR	112	0	5
NMSI_	112	0	5	96	48	0
NMSTR	112	96	4
NMSI_	112	96	4	96	48	1
NMTAP	112	96	5
NMTAP	112	192	4
NMSTR	112	192	7
NMSCL	112	192	7	96	48	4
BRTAP	112	288	0
BRTAP	112	288	7
NMSTR	113	0	3
NMSUL	113	0	3	96	48	7
NMTAP	113	96	1
NMTAP	113	96	3
NMSTR	113	192	4
NMSUR	113	192	4	96	48	0
NMTAP	113	288	4
NMTAP	113	288	6
EXTAP	114	0	3
NMTAP	114	24	2
NMTAP	114	48	1
NMTAP	114	72	0
NMTAP	114	96	7
NMTAP	114	120	6
NMTAP	114	144	5
NMTAP	114	168	4
EXTAP	114	192	3
EXSTR	114	240	0
NMSF_	114	240	0	96	48	4
EXTAP	115	48	2
EXTAP	115	48	6
EXTAP	115	96	2
EXTAP	115	96	6
NMTAP	115	192	4
NMTAP	115	192	5
NMTAP	115	288	3
NMTAP	115	288	6
NMTAP	116	0	2
NMTAP	116	0	7
NMTAP	116	48	1
NMTAP	116	72	0
NMTAP	116	96	1
NMTAP	116	144	7
NMTAP	116	192	0
NMTAP	116	192	6
EXSTR	117	0	5
NMSI_	117	0	5	96	48	7
NMTAP	117	96	4
NMTAP	117	192	2
NMSTR	117	240	2
NMSI_	117	240	2	96	48	0
NMTAP	117	336	3
NMTAP	118	48	4
NMSTR	118	96	4
NMSXR	118	96	4	96	96	4
NMSTR	118	192	4
NMSXL	118	192	4	96	96	4
NMSTR	119	0	2
NMSI_	119	0	2	96	48	7
NMTAP	119	96	5
NMSTR	119	144	5
NMSI_	119	144	5	96	48	1
NMSTR	119	240	0
NMSI_	119	240	0	96	48	4
NMTAP	119	336	7
NMTAP	120	48	2
NMTAP	120	48	6
NMSTR	120	96	1
NMSCR	120	96	1	96	1920	1
NMSTR	120	96	5
NMSCR	120	96	5	96	1920	5
BRTAP	120	192	1
BRTAP	120	192	5

T_REC_TAP	310
T_REC_BRK	35
T_REC_XTP	42
T_REC_BXX	5
T_REC_HLD	35
T_REC_XHO	3
T_REC_BHO	6
T_REC_BXH	1
T_REC_STR	96
T_REC_BST	3
T_REC_XST	26
T_REC_XBS	1
T_REC_TTP	31
T_REC_THO	0
T_REC_SLD	130
T_REC_BSL	5
T_REC_ALL	729
T_NUM_TAP	505
T_NUM_BRK	56
T_NUM_HLD	38
T_NUM_SLD	130
T_NUM_ALL	729
T_JUDGE_TAP	549
T_JUDGE_HLD	142
T_JUDGE_SLD	135
T_JUDGE_ALL	826
TTM_EACHPAIRS	152
TTM_SCR_TAP	252500
TTM_SCR_BRK	145600
TTM_SCR_HLD	38000
TTM_SCR_SLD	195000
TTM_SCR_ALL	631100
TTM_SCR_S	606750
TTM_SCR_SS	625500
TTM_RAT_ACV	10089

