VERSION	0.00.00	1.05.00
FES_MODE	0
BPM_DEF	225.000	225.000	225.000	225.000
MET_DEF	4	4
RESOLUTION	384
CLK_DEF	384
COMPATIBLE_CODE	MA2

BPM	0	0	225.000
MET	0	0	4	4

BXHLD	1	240	4	4800
NMTHO	4	288	0	3600	C	0	M1
EXTAP	15	0	0
EXTAP	15	0	7
EXHLD	15	96	0	672
EXTAP	15	96	7
BXTAP	17	0	7
BXTAP	17	192	1
BXTAP	17	192	6
BXTAP	18	0	2
BXTAP	18	0	5
NMHLD	19	0	1	192
NMHLD	19	0	3	192
NMHLD	20	0	4	192
NMHLD	20	0	6	192
NMTAP	21	0	6
NMTAP	21	0	7
NMTAP	21	96	0
NMTAP	21	192	1
NMTAP	21	192	7
NMTAP	21	288	2
NMTAP	22	0	0
NMTAP	22	0	1
NMTAP	22	96	0
NMTAP	22	96	1
BRTAP	22	192	2
BRTAP	22	192	7
NMHLD	23	0	4	192
NMHLD	23	0	6	192
NMHLD	24	0	1	192
NMHLD	24	0	3	192
NMTAP	25	0	0
NMTAP	25	0	1
NMTAP	25	96	0
NMTAP	25	96	7
NMTAP	25	192	6
NMTAP	25	192	7
NMTAP	25	288	0
NMTAP	25	288	7
NMTAP	26	0	0
NMTAP	26	0	1
NMTAP	26	96	2
NMTAP	26	96	7
BRTAP	26	192	3
BRTAP	26	192	6
NMHLD	27	0	2	96
NMHLD	27	0	3	96
NMTAP	27	192	3
NMTAP	27	192	4
NMTAP	27	288	3
NMTAP	27	288	4
NMHLD	28	0	4	96
NMHLD	28	0	5	96
NMTAP	28	192	3
NMTAP	28	192	6
NMTAP	29	0	0
NMTAP	29	0	1
NMTAP	29	96	7
NMTAP	29	192	0
NMTAP	29	192	6
NMTAP	29	288	5
NMTAP	30	0	6
NMTAP	30	0	7
NMTAP	30	96	6
NMTAP	30	96	7
BRTAP	30	192	0
BRTAP	30	192	5
NMTAP	31	0	1
NMTAP	31	96	1
NMTAP	31	96	3
NMTAP	31	192	2
NMTAP	31	288	2
NMTAP	31	288	4
NMTAP	32	0	5
NMTAP	32	96	3
NMTAP	32	96	5
NMTAP	32	192	4
NMTAP	32	192	6
NMTAP	32	288	4
NMTAP	32	288	6
NMSTR	33	0	7
NMSI_	33	0	7	96	96	3
NMSTR	33	192	0
NMSI_	33	192	0	96	96	4
NMTAP	34	0	6
NMTAP	34	96	7
NMTAP	34	192	0
NMTAP	34	192	1
NMTAP	34	288	0
NMTAP	34	288	1
BXHLD	35	0	2	96
BXHLD	35	0	7	96
NMTAP	35	192	1
NMTAP	35	192	6
NMTAP	35	288	1
NMTAP	35	288	6
BXHLD	36	0	0	96
BXHLD	36	0	5	96
NMTAP	36	192	1
NMTAP	36	192	6
NMTAP	36	288	1
NMTAP	36	288	6
BXTAP	37	0	2
BXTAP	37	0	7
NMTAP	37	96	1
NMTAP	37	96	6
BXTAP	37	192	0
BXTAP	37	192	5
NMTAP	37	288	1
NMTAP	37	288	6
BRTAP	38	0	2
BRTAP	38	0	7
BRTAP	38	96	0
BRTAP	38	96	5
BRHLD	38	192	1	576
BRSTR	38	192	6
NMSI_	38	192	6	96	96	0
NMTAP	40	192	2
NMTAP	40	192	3
BRTAP	40	288	0
BRTAP	40	288	6
NMTAP	41	0	5
NMTAP	41	96	6
NMTAP	41	96	7
NMTAP	41	192	5
NMTAP	41	288	6
NMTAP	41	288	7
NMTAP	42	0	5
NMTAP	42	96	0
NMTAP	42	96	6
NMTAP	42	192	5
NMTAP	42	288	0
NMTAP	42	288	6
NMTAP	43	0	1
NMTAP	43	96	0
NMTAP	43	96	6
NMTAP	43	192	5
NMTAP	43	288	0
NMTAP	43	288	6
NMTAP	44	0	1
NMTAP	44	96	0
NMTAP	44	96	1
NMTAP	44	192	2
NMTAP	44	192	7
NMTAP	44	288	3
NMTAP	44	288	6
NMTAP	45	0	5
NMTAP	45	96	4
NMTAP	45	96	6
NMTAP	45	192	2
NMTAP	45	288	1
NMTAP	45	288	3
NMHLD	46	0	3	96
NMHLD	46	0	4	96
BRTAP	46	192	1
BRTAP	46	192	6
BRTAP	46	240	1
BRTAP	46	240	6
EXHLD	46	336	2	96
NMTAP	47	48	4
EXHLD	47	96	4	96
EXHLD	47	192	3	96
EXSTR	47	288	5
NMSUL	47	288	5	96	288	3
NMTAP	49	0	2
NMHLD	49	96	2	288
NMTAP	49	192	3
NMTAP	50	0	5
NMHLD	50	96	5	288
NMTAP	50	192	4
NMTAP	51	0	3
NMHLD	51	96	2	288
NMTAP	51	192	3
NMTAP	52	0	4
NMTAP	52	96	4
BXTAP	52	192	5
BXTAP	52	288	6
NMHLD	53	0	6	96
NMHLD	53	0	7	96
NMTAP	53	192	6
NMTAP	53	288	7
NMHLD	54	0	0	96
NMHLD	54	0	1	96
NMTAP	54	192	1
NMTAP	54	288	0
NMHLD	55	0	7	192
NMTAP	55	192	0
EXTAP	55	288	1
EXTAP	55	288	6
BXTAP	55	336	1
BXSTR	55	336	6
NMSI_	55	336	6	96	144	3
NMTAP	56	192	2
NMTAP	56	288	2
NMTAP	57	0	0
NMTAP	57	0	1
NMTAP	57	96	2
NMTAP	57	192	6
NMTAP	57	192	7
NMTAP	57	288	5
NMHLD	58	0	4	96
NMHLD	58	0	5	96
BRTAP	58	192	2
BRTAP	58	192	7
NMTAP	59	0	6
NMTAP	59	0	7
NMTAP	59	96	5
NMTAP	59	192	0
NMTAP	59	192	1
NMTAP	59	288	2
NMHLD	60	0	2	96
NMHLD	60	0	3	96
BRTAP	60	192	0
BRTAP	60	192	5
NMSTR	61	0	6
NMSI_	61	0	6	96	96	3
NMSTR	61	192	2
NMSI_	61	192	2	96	96	7
NMSTR	62	0	6
NMSCL	62	0	6	96	96	3
NMTAP	62	192	2
NMTAP	62	288	1
EXTAP	63	0	0
EXTAP	63	96	0
EXTAP	63	192	1
EXTAP	63	192	7
EXTAP	63	240	1
EXTAP	63	240	7
BXTAP	63	336	2
BXHLD	63	336	6	432
NMTTP	65	0	5	B	0	M1
NMTTP	65	0	5	E	0	M1
NMTTP	65	192	2	B	0	M1
NMTTP	65	192	3	E	0	M1
NMTTP	66	0	5	E	0	M1
NMTTP	66	96	4	E	0	M1
NMTTP	66	192	3	E	1	M1
NMHLD	67	0	6	192
NMHLD	67	192	7	192
NMTAP	68	0	5
NMTAP	68	96	5
NMHLD	68	192	4	192
NMTAP	68	192	6
NMHLD	69	0	5	192
NMHLD	69	192	6	192
NMTAP	70	0	7
NMTAP	70	96	7
NMTAP	70	192	4
NMTAP	70	192	6
EXTAP	70	288	5
NMHLD	71	0	4	96
NMHLD	71	0	6	96
NMHLD	71	192	5	96
NMHLD	71	192	7	96
NMHLD	72	0	4	96
NMHLD	72	0	6	96
BXTAP	72	192	5
NMTAP	73	0	4
NMTAP	73	96	5
NMTAP	73	192	4
NMTAP	73	192	6
NMTAP	73	288	4
NMSTR	73	288	6
NMSSR	73	288	6	96	288	2
EXTAP	74	288	1
NMHLD	75	0	1	144
NMHLD	75	144	0	144
NMTAP	75	288	1
NMTAP	76	0	2
NMTAP	76	96	2
NMTAP	76	192	1
NMTAP	76	192	3
NMTAP	76	288	2
NMHLD	77	0	1	144
NMHLD	77	144	0	144
NMTAP	77	288	1
NMTAP	78	0	2
NMTAP	78	96	2
NMTAP	78	192	1
NMTAP	78	192	3
BXTAP	78	288	2
BRTAP	79	0	3
BRTAP	79	96	2
BRTAP	79	192	1
BRTAP	79	288	0
BRSTR	80	0	0
NMSI_	80	0	0	96	192	5
NMHLD	81	0	6	144
NMHLD	81	144	4	144
NMSTR	81	288	5
NMSCL	81	288	5	96	192	2
NMSV_	81	288	5	96	192	0
NMHLD	83	0	0	96
NMHLD	83	0	1	96
NMHLD	83	192	6	96
NMHLD	83	192	7	96
NMTAP	84	0	4
NMTAP	84	0	5
NMTAP	84	96	3
NMTAP	84	96	6
BRTAP	84	192	3
BRTAP	84	192	6
NMHLD	85	0	6	96
NMHLD	85	0	7	96
NMHLD	85	192	0	96
NMHLD	85	192	1	96
NMTAP	86	0	2
NMTAP	86	0	3
NMTAP	86	96	1
NMTAP	86	96	4
BRTAP	86	192	1
BRTAP	86	192	4
NMHLD	87	0	5	96
NMHLD	87	96	4	96
NMHLD	87	192	5	96
NMHLD	87	288	4	96
NMTAP	88	0	5
NMTAP	88	96	3
NMTAP	88	96	6
BRTAP	88	192	2
BRHLD	88	192	7	192
NMTHO	89	0	0	336	C	1	M1
NMTAP	90	192	0
NMTAP	90	192	7
NMTAP	90	288	0
NMTAP	90	288	7
NMTAP	91	0	0
NMTAP	91	0	1
NMTAP	91	96	2
NMTAP	91	144	2
NMTAP	91	192	3
BRTAP	91	288	0
BRTAP	91	288	5
NMTAP	92	0	6
NMTAP	92	0	7
NMTAP	92	96	5
NMTAP	92	144	5
NMTAP	92	192	4
BRTAP	92	288	2
BRTAP	92	288	7
NMTAP	93	0	0
NMTAP	93	0	1
NMTAP	93	96	2
NMTAP	93	96	3
NMTAP	93	192	4
NMTAP	93	192	5
NMTAP	93	288	6
NMTAP	93	288	7
NMTAP	94	0	0
NMTAP	94	0	1
NMTAP	94	96	0
NMTAP	94	96	1
NMTAP	94	192	2
NMTAP	94	192	7
BRTAP	94	288	0
NMHLD	95	0	2	96
NMTAP	95	96	0
NMTAP	95	144	0
NMTAP	95	192	1
NMTAP	95	288	6
NMTAP	95	336	6
NMTAP	96	0	7
EXTAP	96	96	3
EXTAP	96	96	5
BRTAP	96	192	2
BRTAP	96	192	6
BRTAP	96	288	7
NMSTR	97	0	6
NMSCR	97	0	6	96	96	1
NMSTR	97	192	2
NMSCR	97	192	2	96	96	5
NMHLD	98	0	6	192
BRTAP	98	192	4
BRTAP	98	288	0
BRTAP	98	288	1
NMTAP	99	0	2
NMTAP	99	0	3
NMTAP	99	96	5
NMTAP	99	144	5
NMTAP	99	192	4
BRTAP	99	288	1
BRTAP	99	288	7
NMTAP	100	0	2
NMTAP	100	0	3
NMTAP	100	96	5
NMTAP	100	144	5
NMTAP	100	192	4
BRTAP	100	288	1
BRTAP	100	288	7
NMTAP	101	0	5
NMTAP	101	0	7
NMTAP	101	96	3
NMTAP	101	96	4
NMTAP	101	192	0
NMTAP	101	192	2
NMTAP	101	288	3
NMTAP	101	288	4
BRTAP	102	0	4
BRTAP	102	0	6
BRTAP	102	96	1
BRTAP	102	96	3
BRTAP	102	192	2
BRTAP	102	192	7
NMHLD	103	0	1	96
EXTAP	103	96	3
NMHLD	103	192	5	96
EXTAP	103	288	4
NMHLD	104	0	2	96
EXTAP	104	96	3
NMHLD	104	192	6	96
EXTAP	104	288	4
BXTAP	105	0	6
BXTAP	105	0	7
NMTAP	105	96	4
NMTAP	105	96	5
BXTAP	105	192	0
BXTAP	105	192	1
NMTAP	105	288	2
NMTAP	105	288	3
BRTAP	106	0	1
BRTAP	106	0	7
NMTAP	106	96	4
NMTAP	106	96	5
BRTAP	106	192	0
BRTAP	106	192	6
NMTAP	106	288	2
NMTAP	106	288	3
NMSTR	107	0	1
BRSUR	107	0	1	96	288	5
NMTAP	107	0	5
NMTAP	108	192	4
NMTAP	108	240	4
NMTAP	108	288	3
NMTAP	109	0	2
NMTAP	109	0	5
EXTAP	109	96	0
EXTAP	109	96	1
NMTAP	109	192	2
NMTAP	109	192	5
EXTAP	109	288	6
EXTAP	109	288	7
NMTAP	110	0	3
NMTAP	110	0	5
EXTAP	110	96	0
EXTAP	110	96	1
NMTAP	110	192	2
NMTAP	110	192	4
EXTAP	110	288	6
EXTAP	110	288	7
NMTAP	111	0	2
NMTAP	111	0	3
EXTAP	111	96	1
EXTAP	111	96	7
NMTAP	111	192	4
NMTAP	111	192	5
EXTAP	111	288	0
EXTAP	111	288	6
NMTAP	112	0	2
NMTAP	112	0	3
BXTAP	112	96	0
BXTAP	112	96	1
BXTAP	112	192	6
BXTAP	112	192	7
BXTAP	112	288	0
BXTAP	112	288	5
NMTAP	113	0	1
NMTAP	113	0	4
NMTAP	113	96	6
NMTAP	113	96	7
NMTAP	113	192	3
NMTAP	113	192	6
NMTAP	113	288	0
NMTAP	113	288	1
NMHLD	114	0	2	96
NMHLD	114	0	3	96
BRTAP	114	192	0
BRTAP	114	192	5
NMHLD	114	336	1	96
NMTAP	115	48	3
NMHLD	115	96	3	96
NMHLD	115	192	4	96
NMHLD	115	288	6	96
NMTHO	116	0	0	192	C	0	M1
BRTAP	117	0	0
BRTAP	117	0	7
NMTAP	117	192	6
NMHLD	117	240	6	96
NMTAP	117	336	4
NMTAP	118	48	2
NMTAP	118	48	3
NMSTR	118	96	2
NMSCL	118	96	2	96	96	7
NMSTR	118	96	3
NMSCR	118	96	3	96	96	6
NMTAP	119	0	4
NMTAP	119	0	5
NMTAP	119	96	0
NMTAP	119	96	1
NMTAP	119	144	0
NMTAP	119	144	1
NMTAP	119	240	3
NMTAP	119	240	4
EXTAP	119	336	1
EXTAP	119	336	5
NMTAP	120	48	0
NMTAP	120	48	6
NMTAP	120	96	0
NMTAP	120	96	6
NMTTP	120	192	0	C	1	M1
NMTTP	120	192	1	B	0	M1
NMTTP	120	192	5	B	0	M1

T_REC_TAP	269
T_REC_BRK	58
T_REC_XTP	33
T_REC_BXX	25
T_REC_HLD	68
T_REC_XHO	4
T_REC_BHO	2
T_REC_BXH	6
T_REC_STR	12
T_REC_BST	2
T_REC_XST	1
T_REC_XBS	1
T_REC_TTP	10
T_REC_THO	3
T_REC_SLD	16
T_REC_BSL	1
T_REC_ALL	511
T_NUM_TAP	325
T_NUM_BRK	95
T_NUM_HLD	75
T_NUM_SLD	16
T_NUM_ALL	511
T_JUDGE_TAP	411
T_JUDGE_HLD	423
T_JUDGE_SLD	17
T_JUDGE_ALL	851
TTM_EACHPAIRS	170
TTM_SCR_TAP	162500
TTM_SCR_BRK	247000
TTM_SCR_HLD	75000
TTM_SCR_SLD	24000
TTM_SCR_ALL	508500
TTM_SCR_S	484050
TTM_SCR_SS	499000
TTM_RAT_ACV	10190

