VERSION	0.00.00	1.05.00
FES_MODE	0
BPM_DEF	112.000	112.000	112.000	112.000
MET_DEF	4	4
RESOLUTION	384
CLK_DEF	384
COMPATIBLE_CODE	MA2

BPM	0	0	112.000
MET	0	0	4	4

NMTTP	1	96	3	B	0	M1
NMTTP	1	96	4	B	0	M1
NMTTP	1	96	4	E	0	M1
NMTTP	1	288	3	B	0	M1
NMTTP	1	288	3	A	0	M1
NMTTP	1	288	4	B	0	M1
NMTTP	1	288	4	E	0	M1
NMTTP	1	288	4	A	0	M1
NMTTP	1	288	4	D	0	M1
NMTTP	2	96	3	B	0	M1
NMTTP	2	96	3	A	0	M1
NMTTP	2	96	4	B	0	M1
NMTTP	2	96	4	E	0	M1
NMTTP	2	96	4	A	0	M1
NMTTP	2	96	4	D	0	M1
NMTTP	2	288	3	B	0	M1
NMTTP	2	288	3	A	0	M1
NMTTP	2	288	4	B	0	M1
NMTTP	2	288	4	E	0	M1
NMTTP	2	288	4	A	0	M1
NMTTP	2	288	4	D	0	M1
NMHLD	3	0	5	96
NMTTP	3	96	3	B	0	M1
NMTTP	3	96	3	A	0	M1
NMTTP	3	96	4	B	0	M1
NMTTP	3	96	4	E	0	M1
NMTTP	3	96	4	A	0	M1
NMTTP	3	96	4	D	0	M1
NMHLD	3	192	2	96
NMTTP	3	288	3	B	0	M1
NMTTP	3	288	3	A	0	M1
NMTTP	3	288	4	B	0	M1
NMTTP	3	288	4	E	0	M1
NMTTP	3	288	4	A	0	M1
NMTTP	3	288	4	D	0	M1
EXHLD	3	336	5	336
NMTTP	4	96	3	B	0	M1
NMTTP	4	96	3	A	0	M1
NMTTP	4	96	4	B	0	M1
NMTTP	4	96	4	E	0	M1
NMTTP	4	96	4	A	0	M1
NMTTP	4	96	4	D	0	M1
NMTTP	4	288	3	B	0	M1
NMTTP	4	288	3	A	0	M1
NMTTP	4	288	4	B	0	M1
NMTTP	4	288	4	E	0	M1
NMTTP	4	288	4	A	0	M1
NMTTP	4	288	4	D	0	M1
NMTAP	5	0	2
NMTAP	5	96	2
NMTTP	5	96	3	B	0	M1
NMTTP	5	96	3	A	0	M1
NMTTP	5	96	4	B	0	M1
NMTTP	5	96	4	E	0	M1
NMTTP	5	96	4	A	0	M1
NMTTP	5	96	4	D	0	M1
NMTAP	5	192	5
NMTTP	5	288	3	B	0	M1
NMTTP	5	288	3	A	0	M1
NMTTP	5	288	4	B	0	M1
NMTTP	5	288	4	E	0	M1
NMTTP	5	288	4	A	0	M1
NMTTP	5	288	4	D	0	M1
NMTAP	5	288	5
NMTAP	6	0	2
NMTAP	6	96	2
NMTTP	6	96	3	B	0	M1
NMTTP	6	96	3	A	0	M1
NMTTP	6	96	4	B	0	M1
NMTTP	6	96	4	E	0	M1
NMTTP	6	96	4	A	0	M1
NMTTP	6	96	4	D	0	M1
NMTAP	6	192	5
NMTTP	6	288	3	B	0	M1
NMTTP	6	288	3	A	0	M1
NMTTP	6	288	4	B	0	M1
NMTTP	6	288	4	E	0	M1
NMTTP	6	288	4	A	0	M1
NMTTP	6	288	4	D	0	M1
NMSTR	6	288	5
NMSI_	6	288	5	96	48	7
NMTAP	7	0	5
NMTTP	7	96	3	B	0	M1
NMTTP	7	96	3	A	0	M1
NMTTP	7	96	4	B	0	M1
NMTTP	7	96	4	E	0	M1
NMTTP	7	96	4	A	0	M1
NMTTP	7	96	4	D	1	M1
NMTTP	7	288	3	B	0	M1
NMTTP	7	288	3	A	0	M1
NMTTP	7	288	4	B	0	M1
NMTTP	7	288	4	E	0	M1
NMTTP	7	288	4	A	0	M1
NMTTP	7	288	4	D	0	M1
BRTAP	7	336	7
NMTAP	8	48	0
NMTAP	8	96	0
NMTTP	8	96	3	B	0	M1
NMTTP	8	96	3	A	0	M1
NMTTP	8	96	4	B	0	M1
NMTTP	8	96	4	E	0	M1
NMTTP	8	96	4	A	0	M1
NMTTP	8	96	4	D	0	M1
NMTAP	8	144	0
NMTAP	8	192	6
NMTAP	8	216	6
NMTAP	8	240	7
NMTAP	8	288	1
NMTAP	8	312	1
NMTAP	8	336	0
BRSTR	9	0	7
NMSI_	9	0	7	96	48	5
NMTTP	9	96	3	B	0	M1
NMTTP	9	96	3	A	0	M1
NMTTP	9	96	4	B	0	M1
NMTTP	9	96	4	E	0	M1
NMTTP	9	96	4	A	0	M1
NMTTP	9	96	4	D	0	M1
NMSTR	9	192	0
NMSI_	9	192	0	96	48	2
NMTTP	9	288	3	B	0	M1
NMTTP	9	288	3	A	0	M1
NMTTP	9	288	4	B	0	M1
NMTTP	9	288	4	E	0	M1
NMTTP	9	288	4	A	0	M1
NMTTP	9	288	4	D	0	M1
NMTAP	10	0	6
NMTTP	10	96	3	B	0	M1
NMTTP	10	96	3	A	0	M1
NMTTP	10	96	4	B	0	M1
NMTTP	10	96	4	E	0	M1
NMTTP	10	96	4	A	0	M1
NMTTP	10	96	4	D	0	M1
NMTAP	10	192	1
NMTAP	10	240	1
NMTTP	10	288	3	B	0	M1
NMTTP	10	288	3	A	0	M1
NMTTP	10	288	4	B	0	M1
NMTTP	10	288	4	E	0	M1
NMTTP	10	288	4	A	0	M1
NMTTP	10	288	4	D	0	M1
NMTAP	11	0	2
NMTTP	11	96	3	B	0	M1
NMTTP	11	96	3	A	0	M1
NMTTP	11	96	4	B	0	M1
NMTTP	11	96	4	E	0	M1
NMTTP	11	96	4	A	0	M1
NMTTP	11	96	4	D	0	M1
NMTAP	11	192	7
NMTAP	11	240	7
NMTTP	11	288	3	B	0	M1
NMTTP	11	288	3	A	0	M1
NMTTP	11	288	4	B	0	M1
NMTTP	11	288	4	E	0	M1
NMTTP	11	288	4	A	0	M1
NMTTP	11	288	4	D	0	M1
NMTAP	12	0	5
NMTTP	12	96	3	B	0	M1
NMTTP	12	96	3	A	0	M1
NMTTP	12	96	4	B	0	M1
NMTTP	12	96	4	E	0	M1
NMTTP	12	96	4	A	0	M1
NMTTP	12	96	4	D	0	M1
NMTAP	12	192	0
NMTAP	12	240	0
NMTTP	12	288	3	B	0	M1
NMTTP	12	288	3	A	0	M1
NMTTP	12	288	4	B	0	M1
NMTTP	12	288	4	E	0	M1
NMTTP	12	288	4	A	0	M1
NMTTP	12	288	4	D	0	M1
NMSTR	13	0	2
NMSCL	13	0	2	96	48	0
NMTAP	13	96	2
NMTTP	13	96	3	B	0	M1
NMTTP	13	96	3	A	0	M1
NMTTP	13	96	4	B	0	M1
NMTTP	13	96	4	E	0	M1
NMTTP	13	96	4	A	0	M1
NMTTP	13	96	4	D	1	M1
NMTTP	13	288	3	B	0	M1
NMTTP	13	288	3	A	0	M1
NMTTP	13	288	4	B	0	M1
NMTTP	13	288	4	E	0	M1
NMTTP	13	288	4	A	0	M1
NMTTP	13	288	4	D	0	M1
NMTAP	14	0	5
NMTAP	14	48	5
NMTTP	14	96	3	B	0	M1
NMTTP	14	96	3	A	0	M1
NMTTP	14	96	4	B	0	M1
NMTTP	14	96	4	E	0	M1
NMTTP	14	96	4	A	0	M1
NMTTP	14	96	4	D	0	M1
NMTAP	14	192	2
NMTAP	14	240	2
NMTTP	14	288	3	B	0	M1
NMTTP	14	288	3	A	0	M1
NMTTP	14	288	4	B	0	M1
NMTTP	14	288	4	E	0	M1
NMTTP	14	288	4	A	0	M1
NMTTP	14	288	4	D	0	M1
BXHLD	15	0	7	192
NMTTP	15	96	3	B	0	M1
NMTTP	15	96	3	A	0	M1
NMTTP	15	96	4	B	0	M1
NMTTP	15	96	4	E	0	M1
NMTTP	15	96	4	A	0	M1
NMTTP	15	96	4	D	0	M1
NMTAP	15	192	5
NMTTP	15	288	3	B	0	M1
NMTTP	15	288	3	A	0	M1
NMTTP	15	288	4	B	0	M1
NMTTP	15	288	4	E	0	M1
NMTTP	15	288	4	A	0	M1
NMTTP	15	288	4	D	0	M1
NMTAP	16	0	2
NMTAP	16	48	2
NMTTP	16	96	3	B	0	M1
NMTTP	16	96	3	A	0	M1
NMTTP	16	96	4	B	0	M1
NMTTP	16	96	4	E	0	M1
NMTTP	16	96	4	A	0	M1
NMTTP	16	96	4	D	0	M1
NMTAP	16	192	5
NMTAP	16	240	5
NMTTP	16	288	3	B	0	M1
NMTTP	16	288	3	A	0	M1
NMTTP	16	288	4	B	0	M1
NMTTP	16	288	4	E	0	M1
NMTTP	16	288	4	A	0	M1
NMTTP	16	288	4	D	0	M1
EXTAP	17	0	0
NMTTP	17	96	3	B	0	M1
NMTTP	17	96	3	A	0	M1
NMTTP	17	96	4	B	0	M1
NMTTP	17	96	4	E	0	M1
NMTTP	17	96	4	A	0	M1
NMTTP	17	96	4	D	0	M1
EXTAP	17	96	7
NMSTR	17	192	5
NMSCR	17	192	5	96	48	7
NMTTP	17	288	3	B	0	M1
NMTTP	17	288	3	A	0	M1
NMTTP	17	288	4	B	0	M1
NMTTP	17	288	4	E	0	M1
NMTTP	17	288	4	A	0	M1
NMTTP	17	288	4	D	0	M1
NMTAP	17	288	5
NMHLD	18	0	2	96
NMTTP	18	96	3	B	0	M1
NMTTP	18	96	3	A	0	M1
NMTTP	18	96	4	B	0	M1
NMTTP	18	96	4	E	0	M1
NMTTP	18	96	4	A	0	M1
NMTTP	18	96	4	D	0	M1
NMTAP	18	192	5
NMTAP	18	240	6
NMTTP	18	288	3	B	0	M1
NMTTP	18	288	3	A	0	M1
NMTTP	18	288	4	B	0	M1
NMTTP	18	288	4	E	0	M1
NMTTP	18	288	4	A	0	M1
NMTTP	18	288	4	D	0	M1
BXTAP	18	288	6
NMSTR	19	0	7
NMSI_	19	0	7	96	48	2
NMTAP	19	48	7
NMTTP	19	96	3	B	0	M1
NMTTP	19	96	3	A	0	M1
NMTTP	19	96	4	B	0	M1
NMTTP	19	96	4	E	0	M1
NMTTP	19	96	4	A	0	M1
NMTTP	19	96	4	D	0	M1
NMSTR	19	192	0
NMSI_	19	192	0	96	48	5
NMTAP	19	240	0
NMTTP	19	288	3	B	0	M1
NMTTP	19	288	3	A	0	M1
NMTTP	19	288	4	B	0	M1
NMTTP	19	288	4	E	0	M1
NMTTP	19	288	4	A	0	M1
NMTTP	19	288	4	D	0	M1
NMSTR	20	0	7
NMSI_	20	0	7	96	48	2
NMTAP	20	48	7
NMTTP	20	96	3	B	0	M1
NMTTP	20	96	3	A	0	M1
NMTTP	20	96	4	B	0	M1
NMTTP	20	96	4	E	0	M1
NMTTP	20	96	4	A	0	M1
NMTTP	20	96	4	D	0	M1
NMTAP	20	192	1
NMTAP	20	240	0
BRTAP	20	288	0
NMTTP	20	288	3	B	0	M1
NMTTP	20	288	3	A	0	M1
NMTTP	20	288	4	B	0	M1
NMTTP	20	288	4	E	0	M1
NMTTP	20	288	4	A	0	M1
NMTTP	20	288	4	D	0	M1
NMHLD	21	0	7	96
NMTTP	21	96	3	B	0	M1
NMTTP	21	96	3	A	0	M1
NMTTP	21	96	4	B	0	M1
NMTTP	21	96	4	E	0	M1
NMTTP	21	96	4	A	0	M1
NMTTP	21	96	4	D	0	M1
BXHLD	21	192	0	96
NMTTP	21	288	3	B	0	M1
NMTTP	21	288	3	A	0	M1
NMTTP	21	288	4	B	0	M1
NMTTP	21	288	4	E	0	M1
NMTTP	21	288	4	A	0	M1
NMTTP	21	288	4	D	0	M1
NMTAP	22	0	6
NMTAP	22	48	6
NMTTP	22	96	3	B	0	M1
NMTTP	22	96	3	A	0	M1
NMTTP	22	96	4	B	0	M1
NMTTP	22	96	4	E	0	M1
NMTTP	22	96	4	A	0	M1
NMTTP	22	96	4	D	0	M1
NMTAP	22	96	7
NMTAP	22	144	7
NMTAP	22	192	0
NMTAP	22	240	0
EXTAP	22	288	1
NMTTP	22	288	3	B	0	M1
NMTTP	22	288	3	A	0	M1
NMTTP	22	288	4	B	0	M1
NMTTP	22	288	4	E	0	M1
NMTTP	22	288	4	A	0	M1
NMTTP	22	288	4	D	0	M1
NMTAP	23	0	1
NMTAP	23	48	1
NMTAP	23	96	0
NMTTP	23	96	3	B	0	M1
NMTTP	23	96	3	A	0	M1
NMTTP	23	96	4	B	0	M1
NMTTP	23	96	4	E	0	M1
NMTTP	23	96	4	A	0	M1
NMTTP	23	96	4	D	0	M1
NMTAP	23	144	0
NMTAP	23	192	7
NMTAP	23	240	7
NMTTP	23	288	3	B	0	M1
NMTTP	23	288	3	A	0	M1
NMTTP	23	288	4	B	0	M1
NMTTP	23	288	4	E	0	M1
NMTTP	23	288	4	A	0	M1
NMTTP	23	288	4	D	0	M1
NMTAP	23	288	6
NMTAP	23	336	6
NMTAP	24	0	7
NMTAP	24	48	7
NMTAP	24	96	0
NMTTP	24	96	3	B	0	M1
NMTTP	24	96	3	A	0	M1
NMTTP	24	96	4	B	0	M1
NMTTP	24	96	4	E	0	M1
NMTTP	24	96	4	A	0	M1
NMTTP	24	96	4	D	0	M1
NMTAP	24	144	0
NMTAP	24	192	1
NMTAP	24	240	1
NMTAP	24	288	0
NMTTP	24	288	3	B	0	M1
NMTTP	24	288	3	A	0	M1
NMTTP	24	288	4	B	0	M1
NMTTP	24	288	4	E	0	M1
NMTTP	24	288	4	A	0	M1
NMTTP	24	288	4	D	0	M1
NMTAP	24	336	0
NMTAP	25	0	7
NMTAP	25	48	7
NMTTP	25	96	3	B	0	M1
NMTTP	25	96	3	A	0	M1
NMTTP	25	96	4	B	0	M1
NMTTP	25	96	4	E	0	M1
NMTTP	25	96	4	A	0	M1
NMTTP	25	96	4	D	0	M1
NMTAP	25	96	6
NMTAP	25	144	6
BXHLD	25	192	6	192
NMTTP	25	288	3	B	0	M1
NMTTP	25	288	3	A	0	M1
NMTTP	25	288	4	B	0	M1
NMTTP	25	288	4	E	0	M1
NMTTP	25	288	4	A	0	M1
NMTTP	25	288	4	D	0	M1
NMTAP	26	0	5
NMTTP	26	96	3	B	0	M1
NMTTP	26	96	3	A	0	M1
NMTTP	26	96	4	B	0	M1
NMTTP	26	96	4	E	0	M1
NMTTP	26	96	4	A	0	M1
NMTTP	26	96	4	D	0	M1
NMTAP	26	192	2
NMTAP	26	216	2
NMTTP	26	288	3	B	0	M1
NMTTP	26	288	3	A	0	M1
NMTTP	26	288	4	B	0	M1
NMTTP	26	288	4	E	0	M1
NMTTP	26	288	4	A	0	M1
NMTTP	26	288	4	D	0	M1
BXHLD	26	312	1	192
NMTAP	27	0	6
NMTAP	27	48	5
NMTTP	27	96	3	B	0	M1
NMTTP	27	96	3	A	0	M1
NMTTP	27	96	4	B	0	M1
NMTTP	27	96	4	E	0	M1
NMTTP	27	96	4	A	0	M1
NMTTP	27	96	4	D	0	M1
NMTAP	27	192	1
NMTAP	27	240	2
NMTTP	27	288	3	B	0	M1
NMTTP	27	288	3	A	0	M1
NMTTP	27	288	4	B	0	M1
NMTTP	27	288	4	E	0	M1
NMTTP	27	288	4	A	0	M1
NMTTP	27	288	4	D	0	M1
NMTAP	28	0	5
BXHLD	28	48	6	192
NMTTP	28	96	3	B	0	M1
NMTTP	28	96	3	A	0	M1
NMTTP	28	96	4	B	0	M1
NMTTP	28	96	4	E	0	M1
NMTTP	28	96	4	A	0	M1
NMTTP	28	96	4	D	0	M1
NMTAP	28	192	2
NMTAP	28	216	2
NMTTP	28	288	3	B	0	M1
NMTTP	28	288	3	A	0	M1
NMTTP	28	288	4	B	0	M1
NMTTP	28	288	4	E	0	M1
NMTTP	28	288	4	A	0	M1
NMTTP	28	288	4	D	0	M1
NMTAP	29	0	5
NMTTP	29	96	3	B	0	M1
NMTTP	29	96	3	A	0	M1
NMTTP	29	96	4	B	0	M1
NMTTP	29	96	4	E	0	M1
NMTTP	29	96	4	A	0	M1
NMTTP	29	96	4	D	0	M1
NMSTR	29	96	5
NMSCR	29	96	5	96	48	7
NMSTR	29	192	0
NMSCR	29	192	0	96	48	2
NMTAP	29	192	5
NMTAP	29	288	0
NMTTP	29	288	3	B	0	M1
NMTTP	29	288	3	A	0	M1
NMTTP	29	288	4	B	0	M1
NMTTP	29	288	4	E	0	M1
NMTTP	29	288	4	A	0	M1
NMTTP	29	288	4	D	0	M1
NMTAP	30	0	2
NMSTR	30	96	2
NMSCL	30	96	2	96	48	0
NMTTP	30	96	3	B	0	M1
NMTTP	30	96	3	A	0	M1
NMTTP	30	96	4	B	0	M1
NMTTP	30	96	4	E	0	M1
NMTTP	30	96	4	A	0	M1
NMTTP	30	96	4	D	0	M1
NMTAP	30	192	2
NMSTR	30	192	7
NMSCL	30	192	7	96	48	5
NMTTP	30	288	3	B	0	M1
NMTTP	30	288	3	A	0	M1
NMTTP	30	288	4	B	0	M1
NMTTP	30	288	4	E	0	M1
NMTTP	30	288	4	A	0	M1
NMTTP	30	288	4	D	0	M1
NMTAP	30	288	7
NMTAP	31	0	5
NMTTP	31	96	3	B	0	M1
NMTTP	31	96	3	A	0	M1
NMTTP	31	96	4	B	0	M1
NMTTP	31	96	4	E	0	M1
NMTTP	31	96	4	A	0	M1
NMTTP	31	96	4	D	0	M1
NMSTR	31	96	5
NMSCR	31	96	5	96	48	7
NMSTR	31	192	0
NMSCR	31	192	0	96	48	2
NMTAP	31	192	5
NMTAP	31	288	0
NMTTP	31	288	3	B	0	M1
NMTTP	31	288	3	A	0	M1
NMTTP	31	288	4	B	0	M1
NMTTP	31	288	4	E	0	M1
NMTTP	31	288	4	A	0	M1
NMTTP	31	288	4	D	0	M1
NMSTR	32	0	6
NMSI_	32	0	6	96	96	0
NMTTP	32	96	3	B	0	M1
NMTTP	32	96	3	A	0	M1
NMTTP	32	96	4	B	0	M1
NMTTP	32	96	4	E	0	M1
NMTTP	32	96	4	A	0	M1
NMTTP	32	96	4	D	0	M1
CNSI_	32	192	0	0	72	5
EXTAP	32	192	2
EXTAP	32	216	2
EXTAP	32	240	2
EXTAP	32	264	2
CNSI_	32	264	5	0	72	1
EXTAP	32	288	2
NMHLD	33	0	0	96
NMTTP	33	96	3	B	0	M1
NMTTP	33	96	3	A	0	M1
NMTTP	33	96	4	B	0	M1
NMTTP	33	96	4	E	0	M1
NMTTP	33	96	4	A	0	M1
NMTTP	33	96	4	D	0	M1
NMTAP	33	192	6
NMTAP	33	192	7
NMTAP	33	264	5
NMTTP	33	288	3	B	0	M1
NMTTP	33	288	3	A	0	M1
NMTTP	33	288	4	B	0	M1
NMTTP	33	288	4	E	0	M1
NMTTP	33	288	4	A	0	M1
NMTTP	33	288	4	D	0	M1
NMTAP	33	336	1
NMTAP	34	0	1
NMTAP	34	48	0
NMTAP	34	96	0
NMTTP	34	96	3	B	0	M1
NMTTP	34	96	3	A	0	M1
NMTTP	34	96	4	B	0	M1
NMTTP	34	96	4	E	0	M1
NMTTP	34	96	4	A	0	M1
NMTTP	34	96	4	D	0	M1
NMTAP	34	144	1
NMTAP	34	144	7
NMTAP	34	192	1
NMTAP	34	192	7
NMTAP	34	264	2
NMTTP	34	288	3	B	0	M1
NMTTP	34	288	3	A	0	M1
NMTTP	34	288	4	B	0	M1
NMTTP	34	288	4	E	0	M1
NMTTP	34	288	4	A	0	M1
NMTTP	34	288	4	D	0	M1
NMHLD	35	0	7	96
NMTTP	35	96	3	B	0	M1
NMTTP	35	96	3	A	0	M1
NMTTP	35	96	4	B	0	M1
NMTTP	35	96	4	E	0	M1
NMTTP	35	96	4	A	0	M1
NMTTP	35	96	4	D	0	M1
NMTAP	35	192	0
NMTAP	35	192	1
NMTAP	35	264	2
NMTTP	35	288	3	B	0	M1
NMTTP	35	288	3	A	0	M1
NMTTP	35	288	4	B	0	M1
NMTTP	35	288	4	E	0	M1
NMTTP	35	288	4	A	0	M1
NMTTP	35	288	4	D	0	M1
NMTAP	35	336	6
NMTAP	36	0	6
NMTAP	36	48	7
NMTTP	36	96	3	B	0	M1
NMTTP	36	96	3	A	0	M1
NMTTP	36	96	4	B	0	M1
NMTTP	36	96	4	E	0	M1
NMTTP	36	96	4	A	0	M1
NMTTP	36	96	4	D	0	M1
NMTAP	36	96	7
NMTAP	36	144	0
NMTAP	36	144	6
NMTAP	36	192	0
NMTAP	36	192	6
NMTAP	36	240	1
NMTAP	36	264	4
NMTTP	36	288	2	B	0	M1
NMTTP	36	288	2	A	0	M1
NMTTP	36	288	3	B	0	M1
NMTTP	36	288	3	E	0	M1
NMTTP	36	288	3	A	0	M1
NMTTP	36	288	3	D	1	M1
NMTAP	37	0	0
NMTTP	37	0	4	B	0	M1
NMTTP	37	0	4	A	0	M1
NMTTP	37	0	5	B	0	M1
NMTTP	37	0	5	E	0	M1
NMTTP	37	0	5	A	0	M1
NMTTP	37	0	5	D	0	M1
NMTAP	37	48	0
NMTTP	37	96	2	B	0	M1
NMTTP	37	96	2	A	0	M1
NMTTP	37	96	3	B	0	M1
NMTTP	37	96	3	E	0	M1
NMTTP	37	96	3	A	0	M1
NMTTP	37	96	3	D	0	M1
NMTAP	37	96	7
NMTAP	37	144	7
NMTAP	37	192	1
NMTTP	37	192	4	B	0	M1
NMTTP	37	192	4	A	0	M1
NMTTP	37	192	5	B	0	M1
NMTTP	37	192	5	E	0	M1
NMTTP	37	192	5	A	0	M1
NMTTP	37	192	5	D	0	M1
NMTAP	37	240	1
NMTTP	37	288	2	B	0	M1
NMTTP	37	288	2	A	0	M1
NMTTP	37	288	3	B	0	M1
NMTTP	37	288	3	E	0	M1
NMTTP	37	288	3	A	0	M1
NMTTP	37	288	3	D	0	M1
NMTAP	37	288	6
NMTAP	37	336	6
NMTTP	38	0	5	D	0	M1
NMTTP	38	48	6	D	0	M1
NMTTP	38	96	7	D	0	M1
NMTTP	38	144	0	D	0	M1
NMTTP	38	192	1	D	0	M1
NMTTP	38	240	2	D	0	M1
NMTTP	38	288	3	D	0	M1
NMTTP	38	336	4	D	0	M1
NMTAP	39	0	2
NMTAP	39	24	2
NMTAP	39	48	2
NMTAP	39	72	2
NMTAP	39	96	0
NMTAP	39	120	0
NMTAP	39	144	0
NMTAP	39	168	0
NMTAP	39	192	6
NMTAP	39	216	6
NMTAP	39	240	6
NMTAP	39	264	6
NMSTR	39	288	4
NMSSL	39	288	4	96	192	0
NMTAP	39	312	4
NMTAP	39	336	4
NMTAP	39	360	4
EXHLD	40	0	1	192
NMSTR	40	288	2
NMSCL	40	288	2	96	96	5
NMTAP	40	288	4
NMSTR	41	0	5
NMSCR	41	0	5	96	96	2
NMTTP	41	96	3	B	0	M1
NMTTP	41	96	3	A	0	M1
NMTTP	41	96	4	B	0	M1
NMTTP	41	96	4	E	0	M1
NMTTP	41	96	4	A	0	M1
NMTTP	41	96	4	D	0	M1
NMTAP	41	192	5
NMTTP	41	288	3	B	0	M1
NMTTP	41	288	3	A	0	M1
NMTTP	41	288	4	B	0	M1
NMTTP	41	288	4	E	0	M1
NMTTP	41	288	4	A	0	M1
NMTTP	41	288	4	D	0	M1
NMSTR	41	288	5
NMSCR	41	288	5	96	96	2
NMSTR	42	0	2
NMSCL	42	0	2	96	96	5
NMTTP	42	96	3	B	0	M1
NMTTP	42	96	3	A	0	M1
NMTTP	42	96	4	B	0	M1
NMTTP	42	96	4	E	0	M1
NMTTP	42	96	4	A	0	M1
NMTTP	42	96	4	D	0	M1
BXHLD	42	192	2	48
BXHLD	42	288	0	48
NMTTP	42	288	3	B	0	M1
NMTTP	42	288	3	A	0	M1
NMTTP	42	288	4	B	0	M1
NMTTP	42	288	4	E	0	M1
NMTTP	42	288	4	A	0	M1
NMTTP	42	288	4	D	1	M1
NMTAP	43	0	6
NMTAP	43	24	6
NMTAP	43	48	2
NMTAP	43	72	2
NMTTP	43	96	3	B	0	M1
NMTTP	43	96	3	A	0	M1
NMTTP	43	96	4	B	0	M1
NMTTP	43	96	4	E	0	M1
NMTTP	43	96	4	A	0	M1
NMTTP	43	96	4	D	0	M1
NMTAP	43	144	0
NMTAP	43	144	6
NMTAP	43	192	1
NMTAP	43	216	1
NMTAP	43	240	7
NMTAP	43	264	7
NMTTP	43	288	3	B	0	M1
NMTTP	43	288	3	A	0	M1
NMTTP	43	288	4	B	0	M1
NMTTP	43	288	4	E	0	M1
NMTTP	43	288	4	A	0	M1
NMTTP	43	288	4	D	0	M1
NMTAP	43	336	1
NMTAP	43	336	5
NMTAP	44	0	6
NMTAP	44	24	6
NMTAP	44	48	0
NMTAP	44	72	0
NMTTP	44	96	3	B	0	M1
NMTTP	44	96	3	A	0	M1
NMTTP	44	96	4	B	0	M1
NMTTP	44	96	4	E	0	M1
NMTTP	44	96	4	A	0	M1
NMTTP	44	96	4	D	0	M1
NMTAP	44	144	0
NMTAP	44	144	2
NMTAP	44	192	0
NMTAP	44	192	7
NMTAP	44	240	5
NMTAP	44	240	7
NMTTP	44	288	3	B	0	M1
NMTTP	44	288	3	A	0	M1
NMTTP	44	288	4	B	0	M1
NMTTP	44	288	4	E	0	M1
NMTTP	44	288	4	A	0	M1
NMTTP	44	288	4	D	1	M1
EXSTR	44	288	5
NMSCR	44	288	5	96	96	2
EXSTR	45	0	2
NMSCL	45	0	2	96	96	5
NMTTP	45	96	3	B	0	M1
NMTTP	45	96	3	A	0	M1
NMTTP	45	96	4	B	0	M1
NMTTP	45	96	4	E	0	M1
NMTTP	45	96	4	A	0	M1
NMTTP	45	96	4	D	0	M1
NMTAP	45	192	2
NMSTR	45	288	2
NMSCL	45	288	2	96	96	5
NMTTP	45	288	3	B	0	M1
NMTTP	45	288	3	A	0	M1
NMTTP	45	288	4	B	0	M1
NMTTP	45	288	4	E	0	M1
NMTTP	45	288	4	A	0	M1
NMTTP	45	288	4	D	0	M1
NMSTR	46	0	5
NMSCR	46	0	5	96	96	2
NMTTP	46	96	3	B	0	M1
NMTTP	46	96	3	A	0	M1
NMTTP	46	96	4	B	0	M1
NMTTP	46	96	4	E	0	M1
NMTTP	46	96	4	A	0	M1
NMTTP	46	96	4	D	0	M1
BXHLD	46	192	5	48
NMTTP	46	288	3	B	0	M1
NMTTP	46	288	3	A	0	M1
NMTTP	46	288	4	B	0	M1
NMTTP	46	288	4	E	0	M1
NMTTP	46	288	4	A	0	M1
NMTTP	46	288	4	D	0	M1
BXHLD	46	288	7	48
NMHLD	47	0	0	48
NMTAP	47	48	5
NMTAP	47	72	5
NMTTP	47	96	3	B	0	M1
NMTTP	47	96	3	A	0	M1
NMTTP	47	96	4	B	0	M1
NMTTP	47	96	4	E	0	M1
NMTTP	47	96	4	A	0	M1
NMTTP	47	96	4	D	0	M1
NMTAP	47	144	6
NMTAP	47	168	6
NMTAP	47	192	0
NMTAP	47	216	0
NMTAP	47	240	5
NMTAP	47	264	5
NMTTP	47	288	3	B	0	M1
NMTTP	47	288	3	A	0	M1
NMTTP	47	288	4	B	0	M1
NMTTP	47	288	4	E	0	M1
NMTTP	47	288	4	A	0	M1
NMTTP	47	288	4	D	0	M1
NMTAP	47	312	2
NMTAP	47	336	2
NMHLD	48	0	7	48
NMTAP	48	48	1
NMTAP	48	72	1
NMTTP	48	96	3	B	0	M1
NMTTP	48	96	3	A	0	M1
NMTTP	48	96	4	B	0	M1
NMTTP	48	96	4	E	0	M1
NMTTP	48	96	4	A	0	M1
NMTTP	48	96	4	D	0	M1
NMTAP	48	144	2
NMTAP	48	168	2
NMTAP	48	192	0
NMTAP	48	192	2
NMTAP	48	240	5
NMTAP	48	240	7
NMTTP	48	288	3	B	0	M1
NMTTP	48	288	3	A	0	M1
NMTTP	48	288	4	B	0	M1
NMTTP	48	288	4	E	0	M1
NMTTP	48	288	4	A	0	M1
NMTTP	48	288	4	D	1	M1
NMSTR	49	0	0
NMSCR	49	0	0	96	48	2
NMSTR	49	96	0
NMSCL	49	96	0	96	48	6
NMTTP	49	96	3	B	0	M1
NMTTP	49	96	3	A	0	M1
NMTTP	49	96	4	B	0	M1
NMTTP	49	96	4	E	0	M1
NMTTP	49	96	4	A	0	M1
NMTTP	49	96	4	D	0	M1
NMSTR	49	192	0
NMSI_	49	192	0	96	48	2
NMTAP	49	288	0
NMTTP	49	288	3	B	0	M1
NMTTP	49	288	3	A	0	M1
NMTTP	49	288	4	B	0	M1
NMTTP	49	288	4	E	0	M1
NMTTP	49	288	4	A	0	M1
NMTTP	49	288	4	D	0	M1
NMSTR	50	0	7
NMSCL	50	0	7	96	48	5
NMTTP	50	96	3	B	0	M1
NMTTP	50	96	3	A	0	M1
NMTTP	50	96	4	B	0	M1
NMTTP	50	96	4	E	0	M1
NMTTP	50	96	4	A	0	M1
NMTTP	50	96	4	D	0	M1
NMSTR	50	96	7
NMSCR	50	96	7	96	48	1
NMSTR	50	192	7
NMSI_	50	192	7	96	48	5
NMTTP	50	288	3	B	0	M1
NMTTP	50	288	3	A	0	M1
NMTTP	50	288	4	B	0	M1
NMTTP	50	288	4	E	0	M1
NMTTP	50	288	4	A	0	M1
NMTTP	50	288	4	D	0	M1
BRTAP	50	288	7
NMSTR	51	0	0
NMSCR	51	0	0	96	48	2
NMSTR	51	96	0
NMSCL	51	96	0	96	48	6
NMTTP	51	96	3	B	0	M1
NMTTP	51	96	3	A	0	M1
NMTTP	51	96	4	B	0	M1
NMTTP	51	96	4	E	0	M1
NMTTP	51	96	4	A	0	M1
NMTTP	51	96	4	D	0	M1
NMSTR	51	192	0
NMSI_	51	192	0	96	48	2
NMTAP	51	288	0
NMTTP	51	288	3	B	0	M1
NMTTP	51	288	3	A	0	M1
NMTTP	51	288	4	B	0	M1
NMTTP	51	288	4	E	0	M1
NMTTP	51	288	4	A	0	M1
NMTTP	51	288	4	D	0	M1
NMSTR	52	0	7
NMSCL	52	0	7	96	48	5
NMTTP	52	96	3	B	0	M1
NMTTP	52	96	3	A	0	M1
NMTTP	52	96	4	B	0	M1
NMTTP	52	96	4	E	0	M1
NMTTP	52	96	4	A	0	M1
NMTTP	52	96	4	D	0	M1
NMSTR	52	96	7
NMSCR	52	96	7	96	48	1
BXTAP	52	192	2
BRSTR	52	192	7
NMSI_	52	192	7	96	48	5
BXTAP	52	240	2
NMTTP	52	288	3	B	0	M1
NMTTP	52	288	3	A	0	M1
NMTTP	52	288	4	B	0	M1
NMTTP	52	288	4	E	0	M1
NMTTP	52	288	4	A	0	M1
NMTTP	52	288	4	D	0	M1
BRTAP	52	288	7
NMSTR	53	0	0
NMSCR	53	0	0	96	48	2
NMSTR	53	96	0
NMSCL	53	96	0	96	48	6
NMTTP	53	96	3	B	0	M1
NMTTP	53	96	3	A	0	M1
NMTTP	53	96	4	B	0	M1
NMTTP	53	96	4	E	0	M1
NMTTP	53	96	4	A	0	M1
NMTTP	53	96	4	D	0	M1
NMSTR	53	192	0
NMSI_	53	192	0	96	48	2
NMSTR	53	288	0
NMSI_	53	288	0	96	48	6
NMTTP	53	288	3	B	0	M1
NMTTP	53	288	3	A	0	M1
NMTTP	53	288	4	B	0	M1
NMTTP	53	288	4	E	0	M1
NMTTP	53	288	4	A	0	M1
NMTTP	53	288	4	D	0	M1
NMSTR	54	0	0
NMSCR	54	0	0	96	48	2
NMSTR	54	96	0
NMSCL	54	96	0	96	48	6
NMTTP	54	96	3	B	0	M1
NMTTP	54	96	3	A	0	M1
NMTTP	54	96	4	B	0	M1
NMTTP	54	96	4	E	0	M1
NMTTP	54	96	4	A	0	M1
NMTTP	54	96	4	D	0	M1
NMSTR	54	192	0
NMSI_	54	192	0	96	48	2
BRTAP	54	288	0
NMTTP	54	288	3	B	0	M1
NMTTP	54	288	3	A	0	M1
NMTTP	54	288	4	B	0	M1
NMTTP	54	288	4	E	0	M1
NMTTP	54	288	4	A	0	M1
NMTTP	54	288	4	D	0	M1
NMSTR	55	0	7
NMSCL	55	0	7	96	48	5
NMTTP	55	96	3	B	0	M1
NMTTP	55	96	3	A	0	M1
NMTTP	55	96	4	B	0	M1
NMTTP	55	96	4	E	0	M1
NMTTP	55	96	4	A	0	M1
NMTTP	55	96	4	D	0	M1
NMSTR	55	96	7
NMSCR	55	96	7	96	48	1
NMSTR	55	192	7
NMSI_	55	192	7	96	48	5
NMTTP	55	288	3	B	0	M1
NMTTP	55	288	3	A	0	M1
NMTTP	55	288	4	B	0	M1
NMTTP	55	288	4	E	0	M1
NMTTP	55	288	4	A	0	M1
NMTTP	55	288	4	D	0	M1
NMSTR	55	288	7
NMSI_	55	288	7	96	48	1
NMSTR	56	0	7
NMSCL	56	0	7	96	48	5
NMTTP	56	96	3	B	0	M1
NMTTP	56	96	3	A	0	M1
NMTTP	56	96	4	B	0	M1
NMTTP	56	96	4	E	0	M1
NMTTP	56	96	4	A	0	M1
NMTTP	56	96	4	D	0	M1
NMSTR	56	96	7
NMSCR	56	96	7	96	48	1
BXTAP	56	192	2
BRSTR	56	192	7
NMSI_	56	192	7	96	48	5
BXTAP	56	240	2
NMTTP	56	288	3	B	0	M1
NMTTP	56	288	3	A	0	M1
NMTTP	56	288	4	B	0	M1
NMTTP	56	288	4	E	0	M1
NMTTP	56	288	4	A	0	M1
NMTTP	56	288	4	D	0	M1
BRTAP	56	288	7
NMTAP	57	0	2
NMTAP	57	48	2
NMTAP	57	96	1
NMTTP	57	96	3	B	0	M1
NMTTP	57	96	3	A	0	M1
NMTTP	57	96	4	B	0	M1
NMTTP	57	96	4	E	0	M1
NMTTP	57	96	4	A	0	M1
NMTTP	57	96	4	D	0	M1
NMTAP	57	144	1
NMTAP	57	192	5
NMTAP	57	240	6
NMHLD	57	264	6	72
NMTTP	57	288	3	B	0	M1
NMTTP	57	288	3	A	0	M1
NMTTP	57	288	4	B	0	M1
NMTTP	57	288	4	E	0	M1
NMTTP	57	288	4	A	0	M1
NMTTP	57	288	4	D	0	M1
NMTAP	57	336	2
NMTAP	58	0	1
NMTAP	58	48	1
NMSTR	58	96	2
NMSI_	58	96	2	96	48	6
NMTTP	58	96	3	B	0	M1
NMTTP	58	96	3	A	0	M1
NMTTP	58	96	4	B	0	M1
NMTTP	58	96	4	E	0	M1
NMTTP	58	96	4	A	0	M1
NMTTP	58	96	4	D	0	M1
NMTAP	58	144	2
NMSTR	58	192	2
NMSI_	58	192	2	96	48	0
NMTAP	58	192	5
NMTAP	58	288	2
NMTTP	58	288	3	B	0	M1
NMTTP	58	288	3	A	0	M1
NMTTP	58	288	4	B	0	M1
NMTTP	58	288	4	E	0	M1
NMTTP	58	288	4	A	0	M1
NMTTP	58	288	4	D	0	M1
NMTAP	59	0	5
NMTAP	59	48	5
NMTTP	59	96	3	B	0	M1
NMTTP	59	96	3	A	0	M1
NMTTP	59	96	4	B	0	M1
NMTTP	59	96	4	E	0	M1
NMTTP	59	96	4	A	0	M1
NMTTP	59	96	4	D	0	M1
NMTAP	59	96	6
NMTAP	59	144	6
NMTAP	59	192	2
NMTAP	59	240	1
NMHLD	59	264	1	72
NMTTP	59	288	3	B	0	M1
NMTTP	59	288	3	A	0	M1
NMTTP	59	288	4	B	0	M1
NMTTP	59	288	4	E	0	M1
NMTTP	59	288	4	A	0	M1
NMTTP	59	288	4	D	0	M1
NMTAP	59	336	5
NMTAP	60	0	6
NMTAP	60	48	7
NMTAP	60	96	0
NMTTP	60	96	3	B	0	M1
NMTTP	60	96	3	A	0	M1
NMTTP	60	96	4	B	0	M1
NMTTP	60	96	4	E	0	M1
NMTTP	60	96	4	A	0	M1
NMTTP	60	96	4	D	0	M1
NMTAP	60	144	1
NMTTP	60	240	2	B	0	M1
NMTTP	60	240	2	A	0	M1
NMTTP	60	240	3	B	0	M1
NMTTP	60	240	3	E	0	M1
NMTTP	60	240	3	A	0	M1
NMTTP	60	240	3	D	0	M1
NMTTP	60	288	4	B	0	M1
NMTTP	60	288	4	A	0	M1
NMTTP	60	288	5	B	0	M1
NMTTP	60	288	5	E	0	M1
NMTTP	60	288	5	A	0	M1
NMTTP	60	288	5	D	0	M1
NMTAP	61	0	6
NMTAP	61	48	6
NMTTP	61	96	3	B	0	M1
NMTTP	61	96	3	A	0	M1
NMTTP	61	96	4	B	0	M1
NMTTP	61	96	4	E	0	M1
NMTTP	61	96	4	A	0	M1
NMTTP	61	96	4	D	0	M1
NMTAP	61	96	7
NMTAP	61	144	7
NMTAP	61	192	2
NMTAP	61	240	1
NMHLD	61	264	1	72
NMTTP	61	288	3	B	0	M1
NMTTP	61	288	3	A	0	M1
NMTTP	61	288	4	B	0	M1
NMTTP	61	288	4	E	0	M1
NMTTP	61	288	4	A	0	M1
NMTTP	61	288	4	D	0	M1
NMTAP	61	336	5
NMTAP	62	0	6
NMTAP	62	48	6
NMTTP	62	96	3	B	0	M1
NMTTP	62	96	3	A	0	M1
NMTTP	62	96	4	B	0	M1
NMTTP	62	96	4	E	0	M1
NMTTP	62	96	4	A	0	M1
NMTTP	62	96	4	D	0	M1
NMSTR	62	96	5
NMSI_	62	96	5	96	48	1
NMTAP	62	144	5
NMTAP	62	192	2
NMSTR	62	192	5
NMSI_	62	192	5	96	48	7
NMTTP	62	288	3	B	0	M1
NMTTP	62	288	3	A	0	M1
NMTTP	62	288	4	B	0	M1
NMTTP	62	288	4	E	0	M1
NMTTP	62	288	4	A	0	M1
NMTTP	62	288	4	D	0	M1
NMTAP	62	288	5
NMTAP	63	0	2
NMTAP	63	48	2
NMTAP	63	96	1
NMTTP	63	96	3	B	0	M1
NMTTP	63	96	3	A	0	M1
NMTTP	63	96	4	B	0	M1
NMTTP	63	96	4	E	0	M1
NMTTP	63	96	4	A	0	M1
NMTTP	63	96	4	D	0	M1
NMTAP	63	144	1
NMTAP	63	192	5
NMTAP	63	240	6
NMHLD	63	264	6	72
NMTTP	63	288	3	B	0	M1
NMTTP	63	288	3	A	0	M1
NMTTP	63	288	4	B	0	M1
NMTTP	63	288	4	E	0	M1
NMTTP	63	288	4	A	0	M1
NMTTP	63	288	4	D	0	M1
NMTAP	63	336	2
NMTAP	64	0	1
NMTAP	64	48	1
NMTAP	64	96	2
NMTTP	64	96	3	B	0	M1
NMTTP	64	96	3	A	0	M1
NMTTP	64	96	4	B	0	M1
NMTTP	64	96	4	E	0	M1
NMTTP	64	96	4	A	0	M1
NMTTP	64	96	4	D	0	M1
NMTAP	64	144	2
BRTAP	64	192	0
BRTAP	64	192	2
BRTAP	64	240	5
BRTAP	64	240	7
BRHLD	64	288	0	240
BRHLD	64	288	7	240
NMTTP	65	240	1	A	0	M1
NMTTP	65	272	2	A	0	M1
NMTTP	65	304	3	A	0	M1
NMTTP	65	336	4	A	0	M1
NMTTP	65	368	5	A	0	M1
NMTTP	66	16	6	A	0	M1
NMTTP	66	48	7	A	0	M1
EXHLD	66	160	1	128
EXTAP	66	288	7
EXTAP	66	336	7
EXTAP	67	0	0
EXTAP	67	0	6
EXTAP	67	32	0
EXTAP	67	32	6
EXTAP	67	64	1
EXTAP	67	64	7
EXTAP	67	96	1
EXTAP	67	96	7

T_REC_TAP	228
T_REC_BRK	10
T_REC_XTP	18
T_REC_BXX	5
T_REC_HLD	12
T_REC_XHO	3
T_REC_BHO	2
T_REC_BXH	9
T_REC_STR	49
T_REC_BST	3
T_REC_XST	2
T_REC_XBS	0
T_REC_TTP	744
T_REC_THO	0
T_REC_SLD	54
T_REC_BSL	0
T_REC_ALL	1139
T_NUM_TAP	1041
T_NUM_BRK	29
T_NUM_HLD	15
T_NUM_SLD	54
T_NUM_ALL	1139
T_JUDGE_TAP	1059
T_JUDGE_HLD	132
T_JUDGE_SLD	54
T_JUDGE_ALL	1245
TTM_EACHPAIRS	28
TTM_SCR_TAP	520500
TTM_SCR_BRK	75400
TTM_SCR_HLD	15000
TTM_SCR_SLD	81000
TTM_SCR_ALL	691900
TTM_SCR_S	668350
TTM_SCR_SS	689000
TTM_RAT_ACV	10042

