VERSION	0.00.00	1.05.00
FES_MODE	0
BPM_DEF	112.000	112.000	112.000	112.000
MET_DEF	4	4
RESOLUTION	384
CLK_DEF	384
COMPATIBLE_CODE	MA2

BPM	0	0	112.000
MET	0	0	4	4

NMHLD	1	0	2	1440
NMSTR	1	0	4
NMSCR	1	0	4	96	144	7
NMSTR	2	0	0
NMSI_	2	0	0	96	144	3
NMTAP	3	96	3
NMTAP	3	288	3
NMTAP	4	96	3
NMTAP	4	288	3
BXSTR	5	0	3
NMSCL	5	0	3	96	144	0
NMHLD	5	0	5	384
NMSTR	6	0	7
NMSI_	6	0	7	96	144	4
EXTAP	6	288	6
EXTAP	7	0	6
NMTTP	7	96	4	B	0	M1
NMTTP	7	96	6	E	0	M1
NMTTP	7	288	2	E	0	M1
NMTTP	7	288	3	B	0	M1
NMTTP	8	96	4	B	0	M1
NMTTP	8	96	6	E	0	M1
EXTAP	8	192	0
EXTAP	8	192	7
BXTAP	8	288	0
BXTAP	8	288	7
NMTAP	9	0	1
NMTAP	9	96	2
NMTAP	9	96	3
NMTAP	9	192	3
NMTAP	9	240	2
NMHLD	9	288	1	96
NMTAP	10	0	2
NMTAP	10	96	2
NMTAP	10	96	3
NMTAP	10	192	1
NMTAP	10	240	2
NMTAP	10	288	3
EXTAP	10	288	5
NMTAP	11	0	6
NMTAP	11	96	4
NMTAP	11	96	5
NMTAP	11	192	4
NMTAP	11	240	5
NMHLD	11	288	6	96
NMTAP	12	0	5
NMTAP	12	96	4
NMTAP	12	96	5
NMTAP	12	192	4
NMTAP	12	192	5
EXTAP	12	240	6
NMTAP	12	288	4
NMTAP	12	288	5
BXTAP	13	0	7
NMTAP	13	96	7
NMTAP	13	144	6
NMTAP	13	192	3
NMTAP	13	192	5
NMTAP	13	288	2
NMTAP	13	288	3
NMTAP	14	0	3
NMTAP	14	48	2
NMHLD	14	96	1	96
NMTAP	14	192	0
NMTAP	14	288	0
NMTAP	14	288	1
EXHLD	15	0	6	96
NMTAP	15	96	7
NMTAP	15	144	6
NMTAP	15	192	5
NMTAP	15	288	4
NMTAP	15	288	6
NMTAP	16	0	5
NMTAP	16	48	6
NMHLD	16	96	7	96
NMTAP	16	192	0
BXTAP	16	288	1
NMSTR	16	288	6
NMSCR	16	288	6	96	96	1
NMSTR	17	96	2
NMSI_	17	96	2	96	96	6
BXTAP	17	288	7
NMTAP	18	0	5
NMTAP	18	96	4
NMTAP	18	144	4
NMTAP	18	192	3
NMTAP	18	192	5
NMSTR	18	288	2
NMSCL	18	288	2	96	96	7
NMTAP	18	288	4
NMSTR	19	96	6
NMSI_	19	96	6	96	96	2
NMTAP	19	288	1
NMTAP	20	0	3
NMTAP	20	96	4
NMTAP	20	144	4
NMTAP	20	192	3
NMTAP	20	192	5
NMTTP	20	288	0	C	0	M1
NMHLD	21	0	7	96
NMHLD	21	96	0	96
NMHLD	21	192	1	96
BXTAP	21	288	3
NMHLD	22	0	0	96
NMHLD	22	96	7	96
NMHLD	22	192	6	96
NMTAP	22	288	4
NMTAP	23	0	2
NMTAP	23	0	3
NMTAP	23	96	2
NMTAP	23	96	3
NMTAP	23	192	1
NMTAP	23	240	1
NMTAP	23	288	0
NMTAP	24	0	0
NMTAP	24	0	1
NMTAP	24	96	2
NMTAP	24	144	2
NMTAP	24	192	3
NMTAP	24	288	2
NMTAP	24	288	3
EXHLD	25	0	0	96
EXHLD	25	0	1	96
NMTAP	25	192	1
NMTAP	25	192	2
NMSTR	25	288	2
NMSSR	25	288	2	96	192	6
NMTAP	25	288	3
NMSTR	26	288	6
NMSSR	26	288	6	96	192	2
NMTAP	26	288	7
NMSTR	27	288	2
NMSSL	27	288	2	96	192	6
NMTAP	27	288	3
NMTAP	28	288	7
BRTAP	29	0	0
BRTAP	29	0	7
NMTAP	29	96	1
NMTAP	29	96	3
NMTAP	29	192	4
NMTAP	29	192	6
NMSTR	29	288	3
NMSI_	29	288	3	96	192	0
NMSTR	29	288	4
NMSI_	29	288	4	96	192	7
NMTAP	30	288	1
NMTAP	30	288	6
NMTAP	31	0	2
NMTAP	31	48	2
NMTAP	31	96	3
NMTAP	31	144	3
NMHLD	31	192	1	96
NMTAP	31	288	0
NMTAP	32	0	6
NMTAP	32	48	6
NMTAP	32	96	7
NMTAP	32	144	7
NMHLD	32	192	5	96
BRTAP	32	288	4
NMTAP	33	0	3
NMSTR	33	0	4
NMSI_	33	0	4	96	48	0
NMHLD	33	192	1	72
NMHLD	33	264	2	72
NMTAP	33	336	3
NMSTR	34	0	3
NMSI_	34	0	3	96	48	7
NMHLD	34	192	6	72
NMHLD	34	264	5	72
NMTAP	34	336	4
NMSTR	35	0	4
NMSI_	35	0	4	96	48	0
NMHLD	35	192	1	72
NMHLD	35	264	2	72
NMTAP	35	336	3
NMTAP	36	0	3
NMTAP	36	96	3
NMTAP	36	96	4
NMTAP	36	192	4
NMTAP	36	192	5
NMTAP	36	240	4
NMTAP	36	240	5
BRTAP	36	288	3
BRTAP	36	288	6
NMTTP	37	0	6	E	0	M1
NMTTP	37	96	0	C	0	M1
NMTTP	37	192	2	E	0	M1
NMHLD	37	288	0	96
NMTAP	38	0	7
NMTAP	38	48	7
NMTAP	38	96	7
NMTAP	38	144	7
NMTAP	38	192	0
NMTAP	38	240	0
NMSTR	38	288	0
NMSUL	38	288	0	96	192	7
CNSCL	39	192	7	0	192	1
EXHLD	40	0	0	192
NMSTR	40	288	2
NMSI_	40	288	2	96	48	4
NMSTR	40	288	6
NMSI_	40	288	6	96	48	0
NMSTR	41	96	1
NMSI_	41	96	1	96	48	7
NMSTR	41	96	5
NMSI_	41	96	5	96	48	3
NMSTR	41	288	2
NMSI_	41	288	2	96	48	4
NMSTR	41	288	6
NMSI_	41	288	6	96	48	0
NMTAP	42	96	1
NMTAP	42	96	5
BRTAP	42	192	3
BRTAP	42	192	4
BRTAP	42	288	1
BRTAP	42	288	7
NMTAP	43	0	6
NMTAP	43	48	6
NMTAP	43	96	4
NMTAP	43	144	5
NMTAP	43	192	3
NMTAP	43	240	2
NMTAP	43	288	4
NMTAP	43	336	5
NMTAP	44	0	0
NMTAP	44	96	2
NMTAP	44	144	1
NMTAP	44	192	3
NMTAP	44	192	4
NMTAP	44	240	2
NMTAP	44	240	5
BRSTR	44	288	1
NMSI_	44	288	1	96	48	4
BRSTR	44	288	6
NMSI_	44	288	6	96	48	0
NMSTR	45	96	1
NMSI_	45	96	1	96	48	7
NMSTR	45	96	6
NMSI_	45	96	6	96	48	3
NMSTR	45	288	1
NMSI_	45	288	1	96	48	4
NMSTR	45	288	6
NMSI_	45	288	6	96	48	0
NMTAP	46	96	1
NMTAP	46	96	6
BRTAP	46	192	2
BRTAP	46	192	4
BRTAP	46	288	0
BRTAP	46	288	7
NMTAP	47	0	1
NMTAP	47	48	1
NMTAP	47	96	3
NMTAP	47	144	2
BXTAP	47	192	4
NMTAP	47	240	5
NMTAP	47	288	0
NMTAP	47	336	1
NMTAP	48	0	7
NMTAP	48	48	7
NMTAP	48	96	0
NMTAP	48	144	0
BRTAP	48	192	1
BRTAP	48	192	7
BRTAP	48	240	2
BRTAP	48	240	6
BRTAP	48	288	3
BRTAP	48	288	5
NMHLD	49	0	6	96
NMTAP	49	96	7
NMTAP	49	192	0
NMTAP	49	240	1
NMTAP	49	288	2
NMTAP	49	288	7
NMHLD	50	0	1	96
NMHLD	50	96	3	96
NMTAP	50	192	4
BRTAP	50	288	0
BRTAP	50	288	6
NMHLD	51	0	1	96
NMTAP	51	96	0
NMTAP	51	192	7
NMTAP	51	240	6
NMTAP	51	288	0
NMTAP	51	288	5
NMHLD	52	0	6	96
NMHLD	52	96	4	96
BRTAP	52	192	5
BRTAP	52	240	3
BRTAP	52	240	6
BRTAP	52	288	3
BRTAP	52	288	6
NMHLD	53	0	1	96
NMTAP	53	96	0
NMTAP	53	192	7
NMTAP	53	240	6
NMTAP	53	288	0
NMTAP	53	288	5
NMHLD	54	0	6	96
NMHLD	54	96	4	96
NMTAP	54	192	3
BRTAP	54	288	1
BRTAP	54	288	7
NMHLD	55	0	6	96
NMTAP	55	96	7
NMTAP	55	192	0
NMTAP	55	240	1
NMTAP	55	288	2
NMTAP	55	288	7
NMHLD	56	0	1	96
NMHLD	56	96	3	96
BRTAP	56	192	2
BRTAP	56	240	1
BRTAP	56	240	4
BRTAP	56	288	1
BRTAP	56	288	4
NMSTR	57	0	0
NMSCR	57	0	0	96	96	3
NMSTR	57	192	5
NMSCR	57	192	5	96	96	0
NMHLD	58	0	1	384
NMTAP	58	96	0
NMTAP	58	192	2
NMTAP	58	288	0
NMSTR	59	0	7
NMSCL	59	0	7	96	96	4
NMSTR	59	192	2
NMSCL	59	192	2	96	96	7
NMHLD	60	0	6	96
NMTAP	60	96	7
NMTAP	60	192	2
NMTAP	60	192	7
EXTAP	60	240	0
EXTAP	60	240	1
EXTAP	60	288	0
EXTAP	60	288	1
NMSTR	61	0	3
NMSCL	61	0	3	96	96	0
NMSTR	61	192	6
NMSCL	61	192	6	96	96	3
NMHLD	62	0	2	384
NMTAP	62	96	3
NMTAP	62	192	1
NMTAP	62	288	3
NMSTR	63	0	4
NMSCR	63	0	4	96	96	7
NMSTR	63	192	1
NMSCR	63	192	1	96	96	4
NMHLD	64	0	5	96
NMTAP	64	96	4
BXTAP	64	192	6
BXTAP	64	192	7
BXTAP	64	240	0
BXTAP	64	240	5
BXHLD	64	288	1	912
BXHLD	64	288	4	240
NMTHO	66	168	0	216	C	0	M1

T_REC_TAP	173
T_REC_BRK	33
T_REC_XTP	10
T_REC_BXX	11
T_REC_HLD	37
T_REC_XHO	4
T_REC_BHO	0
T_REC_BXH	2
T_REC_STR	34
T_REC_BST	2
T_REC_XST	0
T_REC_XBS	1
T_REC_TTP	10
T_REC_THO	1
T_REC_SLD	37
T_REC_BSL	0
T_REC_ALL	355
T_NUM_TAP	227
T_NUM_BRK	49
T_NUM_HLD	42
T_NUM_SLD	37
T_NUM_ALL	355
T_JUDGE_TAP	274
T_JUDGE_HLD	311
T_JUDGE_SLD	37
T_JUDGE_ALL	622
TTM_EACHPAIRS	71
TTM_SCR_TAP	113500
TTM_SCR_BRK	127400
TTM_SCR_HLD	42000
TTM_SCR_SLD	55500
TTM_SCR_ALL	338400
TTM_SCR_S	323500
TTM_SCR_SS	333500
TTM_RAT_ACV	10146

