VERSION	0.00.00	1.05.00
FES_MODE	0
BPM_DEF	100.000	188.000	188.000	 59.000
MET_DEF	4	4
RESOLUTION	384
CLK_DEF	384
COMPATIBLE_CODE	MA2

BPM	0	0	100.000
BPM	3	96	 98.000
BPM	3	288	 86.000
BPM	3	336	 70.000
BPM	4	0	 59.000
BPM	5	0	188.000
MET	0	0	4	4
MET	5	0	4	2
MET	5	192	4	4

NMHLD	1	0	3	192
NMTAP	1	192	5
NMTAP	1	240	4
NMTAP	1	288	3
NMTAP	2	0	2
NMTAP	2	48	3
NMTAP	2	96	4
NMTAP	2	192	4
NMTAP	2	240	3
NMHLD	2	288	2	96
NMTAP	3	0	3
NMTAP	3	48	4
NMHLD	3	96	5	96
NMTAP	3	192	4
NMTAP	3	240	3
NMSTR	3	288	2
NMSCL	3	288	2	96	288	4
NMTAP	3	336	3
NMTAP	4	0	4
NMHLD	5	192	3	48
NMHLD	5	192	5	48
NMHLD	5	288	3	48
NMHLD	5	288	5	48
NMHLD	6	0	2	48
NMHLD	6	0	4	48
NMHLD	6	96	2	48
NMHLD	6	96	4	48
NMHLD	6	192	3	48
NMHLD	6	192	5	48
NMHLD	6	288	3	48
NMHLD	6	288	5	48
NMTAP	7	0	2
NMTAP	7	24	4
NMTAP	7	48	2
NMTAP	7	72	4
BRTAP	7	96	0
NMHLD	7	192	1	48
NMHLD	7	192	3	48
NMHLD	7	288	1	48
NMHLD	7	288	3	48
NMHLD	8	0	3	48
NMHLD	8	0	4	48
NMHLD	8	96	3	48
NMHLD	8	96	4	48
NMHLD	8	192	4	48
NMHLD	8	192	6	48
NMSTR	8	288	5
NMSCL	8	288	5	96	48	2
NMSTR	9	0	1
NMSCL	9	0	1	96	48	6
NMHLD	9	192	4	48
NMHLD	9	192	5	48
NMHLD	9	288	4	48
NMHLD	9	288	5	48
NMHLD	10	0	2	48
NMHLD	10	0	3	48
NMHLD	10	96	2	48
NMHLD	10	96	3	48
NMSTR	10	192	1
NMSI_	10	192	1	96	48	6
NMSTR	11	0	0
NMSV_	11	0	0	96	48	3
NMSTR	11	0	4
NMSI_	11	0	4	96	48	7
NMTAP	11	192	6
NMTAP	11	240	6
NMTAP	11	288	4
NMTAP	11	336	5
NMTAP	12	0	1
NMTAP	12	48	1
NMTAP	12	96	3
NMTAP	12	144	2
NMHLD	12	192	3	96
NMHLD	12	192	4	96
NMTTP	13	0	3	E	0	M1
NMTTP	13	0	5	B	0	M1
NMTTP	13	0	5	E	0	M1
NMTTP	13	0	5	A	1	M1
NMTTP	13	0	6	E	0	M1
NMSTR	13	192	1
NMSI_	13	192	1	96	48	4
NMHLD	13	192	7	48
NMHLD	13	288	7	48
NMSTR	14	0	5
NMSI_	14	0	5	96	48	0
NMHLD	14	0	7	48
NMHLD	14	96	7	48
NMSTR	14	192	2
NMSXR	14	192	2	96	192	4
NMHLD	14	192	6	48
NMHLD	14	288	6	48
NMHLD	15	0	6	48
NMTAP	15	96	6
NMHLD	15	192	3	48
NMSTR	15	192	7
NMSI_	15	192	7	96	48	1
NMHLD	15	288	3	48
NMSTR	16	0	2
NMSI_	16	0	2	96	48	7
NMHLD	16	0	3	48
NMHLD	16	96	3	48
NMSTR	16	192	0
NMSLL	16	192	0	96	144	2
NMHLD	16	192	3	48
NMHLD	16	288	3	48
NMHLD	17	0	3	48
NMTAP	17	96	3
NMTTP	17	192	0	B	0	M1
NMTTP	17	192	0	C	1	M1
NMTTP	17	192	2	B	0	M1
NMTTP	17	192	4	B	0	M1
NMTTP	17	192	6	B	0	M1
NMTTP	18	0	2	A	0	M1
NMTTP	18	0	3	B	0	M1
NMTTP	18	0	3	E	0	M1
NMTTP	18	0	4	B	0	M1
NMTTP	18	0	5	E	0	M1
NMTTP	18	0	5	A	0	M1
NMTTP	18	96	0	B	0	M1
NMTTP	18	96	1	E	0	M1
NMTTP	18	96	1	A	0	M1
NMTTP	18	96	6	A	0	M1
NMTTP	18	96	7	B	0	M1
NMTTP	18	96	7	E	0	M1
NMSTR	18	192	2
NMSI_	18	192	2	96	48	5
NMTAP	18	288	2
NMSTR	19	0	0
NMSV_	19	0	0	96	48	3
NMSTR	19	0	7
NMSI_	19	0	7	96	48	4
NMTAP	19	192	6
NMTAP	19	240	6
NMTAP	19	288	5
NMTAP	19	288	7
NMTAP	20	0	1
NMTAP	20	48	1
NMTAP	20	96	0
NMTAP	20	96	2
BXTAP	20	192	4
BXTAP	20	192	6
BXTAP	20	288	1
BXTAP	20	288	3
BXSTR	21	0	2
NMSI_	21	0	2	96	48	7
BXSTR	21	0	5
NMSI_	21	0	5	96	48	0
BXTAP	21	96	2
BXTAP	21	96	5
NMTAP	21	192	6
NMTAP	21	240	5
NMTAP	21	288	4
NMTAP	21	336	3
EXTAP	22	0	5
NMTAP	22	48	4
EXTAP	22	96	3
NMTAP	22	144	2
NMTAP	22	192	1
NMTAP	22	240	2
NMTAP	22	288	4
NMTAP	22	336	5
EXTAP	23	0	2
EXTAP	23	48	3
EXTAP	23	96	5
NMTAP	23	144	6
EXTAP	23	192	3
NMTAP	23	240	2
EXTAP	23	288	1
NMTAP	23	336	0
EXTAP	24	0	7
NMTAP	24	48	6
EXHLD	24	96	1	384
EXTAP	24	96	5
NMTTP	24	192	7	E	1	M1
NMTTP	24	240	0	E	1	M1
NMTTP	24	288	1	E	1	M1
NMTTP	24	336	2	E	1	M1
NMTTP	25	0	3	E	1	M1
NMTTP	25	48	5	E	1	M1
NMTTP	25	96	6	E	1	M1
NMTAP	25	192	1
NMTAP	25	240	2
NMTAP	25	288	3
NMTAP	25	336	4
EXTAP	26	0	6
NMTAP	26	48	5
EXTAP	26	96	4
NMTAP	26	144	3
NMTAP	26	192	1
NMTAP	26	240	2
NMTAP	26	288	4
NMTAP	26	336	5
EXTAP	27	0	3
EXTAP	27	48	2
EXTAP	27	96	6
NMTAP	27	144	5
EXTAP	27	192	2
NMTAP	27	240	1
EXTAP	27	288	0
NMTAP	27	336	7
EXTAP	28	0	6
NMTAP	28	48	5
EXHLD	28	96	1	192
EXTAP	28	96	4
NMTTP	28	192	7	E	1	M1
NMTTP	28	240	0	E	1	M1
NMTTP	28	288	1	E	1	M1
NMTTP	28	336	2	E	1	M1
NMTTP	29	0	0	C	0	M1
NMTTP	29	0	3	E	1	M1
NMTTP	29	0	5	E	0	M1
NMTTP	29	0	6	E	0	M1
NMTAP	29	192	0
NMTAP	29	192	7
NMTAP	29	240	0
NMTAP	29	240	7
NMTAP	29	288	6
NMTAP	29	312	7
NMTAP	29	336	6
NMTAP	30	0	0
NMTAP	30	0	5
NMTAP	30	48	1
NMTAP	30	48	4
NMTAP	30	96	2
NMTAP	30	96	3
NMSTR	30	192	1
NMSI_	30	192	1	96	48	4
NMSTR	30	192	3
NMSI_	30	192	3	96	48	0
NMSTR	31	0	5
NMSI_	31	0	5	96	48	0
NMSTR	31	0	7
NMSI_	31	0	7	96	48	4
NMHLD	31	192	2	96
NMTAP	31	288	0
NMTAP	31	312	1
NMTAP	31	336	0
NMTAP	31	360	1
NMTAP	32	0	0
NMTAP	32	48	2
NMTAP	32	48	7
EXTAP	32	96	2
EXTAP	32	96	7
NMHLD	32	192	5	96
NMTAP	32	288	7
NMTAP	32	312	6
NMTAP	32	336	7
NMTAP	32	360	6
NMTAP	33	0	7
NMTAP	33	48	0
NMTAP	33	48	5
EXTAP	33	96	0
EXTAP	33	96	5
NMTAP	33	192	2
NMTAP	33	192	7
NMTAP	33	240	6
NMTAP	33	288	0
NMTAP	33	288	5
NMTAP	33	336	1
NMTAP	34	0	2
NMTAP	34	0	4
NMTAP	34	48	5
NMTAP	34	96	3
NMTAP	34	96	6
NMSTR	34	192	4
NMSI_	34	192	4	96	48	2
NMSTR	34	192	5
NMSI_	34	192	5	96	48	0
NMTAP	34	288	4
NMTAP	34	288	5
EXSTR	35	0	1
NMSXR	35	0	1	96	144	4
EXTAP	35	24	1
EXTAP	35	48	1
EXTAP	35	72	1
EXTAP	35	96	1
NMTAP	35	192	5
NMTAP	35	240	5
NMTAP	35	288	6
NMTAP	35	336	6
NMSTR	36	0	4
NMSI_	36	0	4	96	48	0
NMTAP	36	48	7
NMTAP	36	96	4
NMTAP	36	192	1
NMTAP	36	240	1
NMSTR	36	288	3
NMSI_	36	288	3	96	48	7
NMTAP	36	336	2
NMTAP	37	0	3
BRTAP	37	96	0
BRTAP	37	96	6
NMTAP	37	192	2
NMTAP	37	192	7
NMTAP	37	240	2
NMTAP	37	240	7
NMTAP	37	288	1
NMTAP	37	312	0
NMTAP	37	336	1
NMTAP	38	0	2
NMTAP	38	0	7
NMTAP	38	48	3
NMTAP	38	48	6
NMTAP	38	96	4
NMTAP	38	96	5
NMSTR	38	192	4
NMSI_	38	192	4	96	48	7
NMSTR	38	192	6
NMSI_	38	192	6	96	48	3
NMSTR	39	0	0
NMSI_	39	0	0	96	48	3
NMSTR	39	0	2
NMSI_	39	0	2	96	48	7
NMHLD	39	192	5	96
NMTAP	39	288	7
NMTAP	39	312	6
NMTAP	39	336	7
NMTAP	39	360	6
NMTAP	40	0	7
NMTAP	40	48	0
NMTAP	40	48	1
EXTAP	40	96	0
EXTAP	40	96	1
NMHLD	40	192	2	96
NMTAP	40	288	0
NMTAP	40	312	1
NMTAP	40	336	0
NMTAP	40	360	1
NMTAP	41	0	0
NMTAP	41	48	6
NMTAP	41	48	7
EXTAP	41	96	6
EXTAP	41	96	7
NMTAP	41	192	0
NMTAP	41	192	5
NMTAP	41	240	1
NMTAP	41	288	2
NMTAP	41	288	6
NMTAP	41	336	5
NMSTR	42	0	2
NMSI_	42	0	2	96	48	7
NMSTR	42	0	3
NMSI_	42	0	3	96	48	7
NMTAP	42	96	2
NMTAP	42	96	3
NMSTR	42	192	4
NMSI_	42	192	4	96	48	0
NMSTR	42	192	5
NMSI_	42	192	5	96	48	0
NMTAP	42	288	4
NMTAP	42	288	5
EXSTR	43	0	1
NMSXR	43	0	1	96	144	4
EXTAP	43	24	1
EXTAP	43	48	1
EXTAP	43	72	1
EXTAP	43	96	1
NMTAP	43	192	5
NMTAP	43	240	5
NMTAP	43	288	3
NMTAP	43	288	6
NMTAP	43	336	7
NMTAP	44	0	1
NMTAP	44	24	0
NMTAP	44	48	1
NMTAP	44	72	0
EXTAP	44	96	2
EXTAP	44	96	7
NMTAP	44	192	1
NMTAP	44	192	3
NMTAP	44	240	0
NMTAP	44	288	4
NMTAP	44	288	6
NMTAP	44	336	7
NMTAP	45	0	1
NMTAP	45	24	0
NMTAP	45	48	1
NMTAP	45	72	0
BXTAP	45	96	2
BXTAP	45	96	7
NMTAP	45	192	4
NMHLD	45	192	6	96
NMTAP	45	288	4
NMHLD	46	0	3	96
NMTAP	46	0	5
NMTAP	46	96	5
NMTAP	46	192	2
NMHLD	46	192	4	96
NMTAP	46	288	2
NMTAP	47	0	1
NMTAP	47	0	3
NMTAP	47	96	1
NMTAP	47	96	3
NMTAP	47	144	0
NMTAP	47	192	0
NMTAP	47	240	6
NMTAP	47	288	6
NMTAP	47	336	1
NMTAP	48	0	1
NMTAP	48	48	7
NMTAP	48	96	7
NMTAP	48	144	4
NMTAP	48	144	6
NMTTP	48	192	3	E	0	M1
NMTTP	48	240	1	E	0	M1
NMTTP	48	288	7	E	0	M1
NMTTP	48	336	5	E	0	M1
NMTAP	49	0	2
NMTAP	49	0	3
NMTAP	49	96	0
NMTAP	49	96	6
BRTAP	49	192	1
BRTAP	49	192	5
NMSTR	49	288	4
NMSCR	49	288	4	96	48	7
NMTAP	49	336	4
NMSTR	50	0	1
NMSI_	50	0	1	96	48	5
NMTAP	50	48	1
NMSTR	50	96	0
NMSI_	50	96	0	96	48	4
NMTAP	50	144	0
NMSTR	50	192	4
BRSLR	50	192	4	96	96	3
NMTAP	50	288	7
NMTAP	50	336	7
NMTAP	51	48	0
NMTAP	51	48	4
NMSTR	51	96	0
NMSI_	51	96	0	96	48	4
NMSTR	51	96	4
NMSI_	51	96	4	96	48	6
NMTAP	51	192	0
NMTAP	51	192	4
NMTAP	51	288	7
NMTAP	51	336	7
NMTAP	52	0	4
NMTAP	52	48	5
NMSTR	52	96	2
NMSCL	52	96	2	96	48	7
NMTAP	52	144	2
NMSTR	52	192	4
NMSUR	52	192	4	96	48	1
NMTAP	52	240	4
NMSTR	52	288	3
NMSUL	52	288	3	96	48	6
NMTAP	52	336	3
NMSTR	53	0	5
NMSCR	53	0	5	96	48	0
NMTAP	53	48	5
NMTAP	53	96	1
BRTAP	53	192	2
BRTAP	53	192	6
NMSTR	53	288	7
NMSI_	53	288	7	96	48	3
NMTAP	53	336	7
NMSTR	54	0	4
NMSI_	54	0	4	96	48	0
NMTAP	54	48	4
EXSTR	54	96	5
NMSCR	54	96	5	96	72	1
NMTAP	54	144	5
EXSTR	54	192	1
BRSLR	54	192	1	96	96	7
NMTAP	54	288	4
NMTAP	54	336	4
NMTAP	55	48	3
NMTAP	55	48	6
NMSTR	55	96	3
NMSCL	55	96	3	96	48	0
NMSTR	55	96	6
NMSCL	55	96	6	96	48	3
NMTAP	55	192	3
NMTAP	55	192	6
NMTAP	55	288	7
NMTAP	55	336	7
NMTAP	56	0	0
NMTAP	56	0	6
NMTAP	56	48	3
NMTAP	56	48	4
NMSTR	56	96	3
NMSCL	56	96	3	96	48	1
NMSTR	56	96	4
NMSI_	56	96	4	96	48	1
NMSTR	56	192	3
NMSI_	56	192	3	96	48	6
NMSTR	56	192	4
NMSCR	56	192	4	96	48	6
NMSTR	56	288	3
NMSCL	56	288	3	96	48	1
NMSTR	56	288	4
NMSI_	56	288	4	96	48	1
NMSTR	57	0	3
NMSI_	57	0	3	96	48	6
NMSTR	57	0	4
NMSCR	57	0	4	96	48	6
NMTAP	57	96	3
NMTAP	57	96	4
BXTAP	57	192	1
BXTAP	57	192	7
NMSTR	57	288	1
NMSCL	57	288	1	96	48	6
NMTAP	57	336	1
NMSTR	58	0	5
NMSCL	58	0	5	96	48	2
NMTAP	58	48	5
NMSTR	58	96	1
BRSLR	58	96	1	96	96	7
NMTAP	58	144	1
NMSTR	58	192	7
BRSI_	58	192	7	96	48	5
NMTAP	58	288	4
NMSTR	58	336	4
NMSI_	58	336	4	96	48	0
NMTAP	59	48	3
NMTAP	59	48	4
NMSTR	59	96	2
NMSLR	59	96	2	96	96	6
NMSTR	59	192	6
NMSLR	59	192	6	96	96	2
NMTAP	59	288	2
NMTAP	60	0	6
NMTAP	60	48	6
NMSTR	60	96	5
NMSCR	60	96	5	96	48	0
NMTAP	60	144	5
BRSTR	60	192	3
NMSUL	60	192	3	96	48	6
NMTAP	60	240	3
BRSTR	60	288	4
NMSUR	60	288	4	96	48	1
NMTAP	60	336	4
BRSTR	61	0	2
NMSCL	61	0	2	96	48	7
NMTAP	61	48	2
NMTAP	61	96	6
BRTAP	61	192	0
BRTAP	61	192	5
NMTAP	61	288	3
NMTAP	61	336	2
NMTAP	62	0	0
NMTAP	62	0	1
NMTAP	62	48	7
NMSTR	62	96	6
NMSCL	62	96	6	96	48	4
NMTAP	62	144	6
BRSTR	62	192	0
NMSCR	62	192	0	96	48	2
CNSI_	62	240	4	0	48	0
BRTAP	62	288	6
CNSI_	62	336	2	0	48	6
NMTAP	63	0	7
NMTAP	63	48	7
NMSTR	63	96	7
NMSF_	63	96	7	96	48	3
NMTAP	63	192	7
NMTAP	63	288	1
NMTAP	63	288	5
NMTAP	63	336	3
NMTAP	64	0	2
NMTAP	64	0	6
NMTAP	64	48	4
NMSTR	64	96	1
BRSXL	64	96	1	96	192	0
NMSTR	64	96	5
BRSXL	64	96	5	96	192	4
NMTAP	64	144	7
NMSTR	65	96	1
NMSI_	65	96	1	96	48	6
NMSTR	65	96	5
NMSI_	65	96	5	96	48	2
BRTAP	65	192	1
BRTAP	65	192	5
NMTTP	65	216	0	C	1	M1
NMTTP	65	216	3	B	0	M1
NMTTP	65	216	7	B	0	M1
NMTAP	66	192	2
NMTAP	66	240	3
NMTAP	66	288	4
NMTAP	66	336	5
NMTAP	67	0	4
NMTAP	67	48	3
NMTAP	67	144	2
NMTAP	67	192	2
NMTAP	67	240	3
NMTAP	67	288	4
NMTAP	67	336	3
NMTAP	68	0	4
NMTAP	68	48	5
NMTAP	68	144	4
NMTAP	68	192	4
NMTAP	68	240	3
NMTAP	68	288	2
NMTAP	68	336	5
NMTAP	69	0	4
NMTAP	69	48	3
NMTAP	69	144	5
NMTAP	69	192	5
NMTAP	69	240	4
NMTAP	69	288	3
NMTAP	69	336	2
NMTAP	70	0	3
NMTAP	70	48	4
NMTAP	70	144	5
NMTAP	70	192	5
NMTAP	70	240	4
NMTAP	70	288	3
NMTAP	70	336	4
NMTAP	71	0	3
NMTAP	71	48	2
NMTAP	71	144	3
NMTAP	71	192	3
NMTAP	71	240	4
NMTAP	71	288	5
NMTAP	71	336	6
NMTAP	72	0	7
NMTAP	72	48	0
NMTAP	72	144	1
NMSTR	72	192	1
NMSCR	72	192	1	96	288	6
NMSTR	72	288	4
NMSSL	72	288	4	96	192	0

T_REC_TAP	302
T_REC_BRK	12
T_REC_XTP	36
T_REC_BXX	10
T_REC_HLD	56
T_REC_XHO	2
T_REC_BHO	0
T_REC_BXH	0
T_REC_STR	69
T_REC_BST	4
T_REC_XST	4
T_REC_XBS	2
T_REC_TTP	44
T_REC_THO	0
T_REC_SLD	73
T_REC_BSL	6
T_REC_ALL	620
T_NUM_TAP	455
T_NUM_BRK	34
T_NUM_HLD	58
T_NUM_SLD	73
T_NUM_ALL	620
T_JUDGE_TAP	483
T_JUDGE_HLD	90
T_JUDGE_SLD	79
T_JUDGE_ALL	652
TTM_EACHPAIRS	104
TTM_SCR_TAP	227500
TTM_SCR_BRK	88400
TTM_SCR_HLD	58000
TTM_SCR_SLD	109500
TTM_SCR_ALL	483400
TTM_SCR_S	465600
TTM_SCR_SS	480000
TTM_RAT_ACV	10070

