VERSION	0.00.00	1.05.00
FES_MODE	0
BPM_DEF	100.000	188.000	188.000	 59.000
MET_DEF	4	4
RESOLUTION	384
CLK_DEF	384
COMPATIBLE_CODE	MA2

BPM	0	0	100.000
BPM	3	96	 98.000
BPM	3	288	 86.000
BPM	3	336	 70.000
BPM	4	0	 59.000
BPM	5	0	188.000
MET	0	0	4	4
MET	5	0	4	2
MET	5	192	4	4

NMSTR	1	0	1
NMSCR	1	0	1	96	480	6
NMSTR	1	0	4
NMSSL	1	0	4	96	480	0
NMTAP	3	0	2
NMTAP	3	48	2
NMHLD	3	96	2	96
NMHLD	3	192	3	96
NMSTR	3	288	4
NMSCR	3	288	4	96	192	3
NMTAP	5	192	1
NMTAP	5	192	3
NMTAP	5	288	1
NMTAP	5	288	3
NMTAP	6	0	4
NMTAP	6	0	6
NMTAP	6	96	4
NMTAP	6	96	6
NMTAP	6	192	1
NMTAP	6	192	3
NMTAP	6	288	1
NMTAP	6	288	3
NMHLD	7	0	3	96
NMHLD	7	0	4	96
NMTAP	7	192	4
NMTAP	7	192	6
NMTAP	7	288	4
NMTAP	7	288	6
NMTAP	8	0	1
NMTAP	8	0	3
NMTAP	8	96	1
NMTAP	8	96	3
EXTAP	8	192	0
EXTAP	8	192	1
EXTAP	8	288	6
EXTAP	8	288	7
EXHLD	9	0	0	96
EXHLD	9	0	7	96
NMTAP	9	192	1
NMTAP	9	192	3
NMTAP	9	288	1
NMTAP	9	288	3
NMTAP	10	0	4
NMTAP	10	0	6
NMTAP	10	96	4
NMTAP	10	96	6
EXTAP	10	192	0
EXTAP	10	192	7
EXSTR	10	288	0
NMSV_	10	288	0	96	96	3
EXSTR	10	288	7
NMSI_	10	288	7	96	96	4
NMTAP	11	192	5
NMTAP	11	240	5
NMTAP	11	288	4
NMTAP	11	288	5
NMTAP	12	0	2
NMTAP	12	48	2
NMTAP	12	96	2
NMTAP	12	96	3
NMHLD	12	192	3	96
NMHLD	12	192	4	96
NMTTP	13	0	5	B	1	M1
EXHLD	13	192	1	96
NMTAP	13	288	3
NMHLD	14	0	6	96
NMTAP	14	96	4
NMHLD	14	192	2	96
NMSTR	14	288	0
NMSI_	14	288	0	96	96	5
NMHLD	15	192	6	96
NMTAP	15	288	4
NMHLD	16	0	1	96
NMTAP	16	96	3
NMTAP	16	192	5
NMSTR	16	288	6
NMSI_	16	288	6	96	96	3
NMSTR	16	288	7
NMSI_	16	288	7	96	96	2
NMHLD	17	192	1	96
NMTAP	17	288	0
NMHLD	18	0	6	96
NMTAP	18	96	7
NMTAP	18	192	1
NMTAP	18	192	6
EXSTR	18	288	0
NMSV_	18	288	0	96	96	3
EXSTR	18	288	7
NMSI_	18	288	7	96	96	4
NMTTP	19	192	2	E	0	M1
NMTTP	19	288	6	E	0	M1
BXTAP	20	0	1
BXTAP	20	0	7
BXTAP	20	72	1
BXTAP	20	72	7
BXTAP	20	144	1
BXSTR	20	144	7
BRSXL	20	144	7	96	240	4
NMTAP	21	192	2
NMHLD	21	288	1	480
NMTTP	22	0	3	E	0	M1
NMTTP	22	96	2	E	0	M1
NMTTP	22	192	1	E	0	M1
NMTTP	22	288	0	E	0	M1
NMTTP	23	0	7	E	0	M1
NMTAP	23	192	5
NMTAP	23	240	5
NMTAP	23	288	2
NMTAP	23	336	2
NMSTR	24	0	3
NMSI_	24	0	3	96	48	1
NMSTR	24	0	4
NMSI_	24	0	4	96	48	6
EXTAP	24	192	0
EXTAP	24	240	0
EXTAP	24	288	7
EXTAP	24	336	7
BXHLD	25	0	2	96
BXHLD	25	0	6	96
NMTAP	25	192	3
NMTAP	25	192	5
NMHLD	25	288	6	480
NMTTP	26	0	5	E	0	M1
NMTTP	26	96	6	E	0	M1
NMTTP	26	192	7	E	0	M1
NMTTP	26	288	0	E	0	M1
NMTTP	27	0	1	E	0	M1
NMTAP	27	192	2
NMTAP	27	240	2
NMTAP	27	288	5
NMTAP	27	336	5
NMSTR	28	0	3
NMSI_	28	0	3	96	48	1
NMSTR	28	0	4
NMSI_	28	0	4	96	48	0
EXTAP	28	192	7
EXTAP	28	240	7
EXTAP	28	288	1
EXTAP	28	336	1
BXTAP	29	0	2
BXTAP	29	0	5
NMTTP	29	96	5	E	1	M1
EXHLD	29	192	3	48
NMHLD	29	288	2	48
NMHLD	29	288	4	48
NMHLD	30	0	1	48
NMHLD	30	0	5	48
NMHLD	30	96	0	48
NMHLD	30	96	6	48
NMSTR	30	192	7
NMSI_	30	192	7	96	96	3
NMSTR	31	0	1
NMSI_	31	0	1	96	96	5
NMHLD	31	192	6	96
NMTAP	31	288	7
NMTAP	31	336	7
NMTAP	32	0	7
NMTAP	32	96	0
NMTAP	32	96	5
NMSTR	32	192	6
NMSCR	32	192	6	96	96	0
CNSV_	33	0	0	0	96	3
NMTAP	33	192	2
NMTAP	33	288	1
NMTAP	33	288	3
NMTAP	34	0	4
NMTAP	34	0	6
NMTAP	34	96	4
NMTAP	34	96	6
NMTAP	34	192	1
NMTAP	34	192	3
NMSTR	34	288	1
NMSXR	34	288	1	96	240	4
NMTAP	34	288	3
EXTAP	35	192	5
NMTAP	35	288	6
NMTAP	35	336	6
NMTAP	36	0	4
NMTAP	36	48	4
NMTAP	36	96	5
EXTAP	36	192	0
EXTAP	36	192	7
NMTAP	36	288	1
NMTAP	36	336	1
NMTAP	37	0	3
NMTAP	37	48	3
NMTAP	37	96	2
NMHLD	37	192	1	48
NMHLD	37	192	3	48
NMHLD	37	288	2	48
NMHLD	37	288	4	48
NMHLD	38	0	3	48
NMHLD	38	0	5	48
NMHLD	38	96	4	48
NMHLD	38	96	6	48
NMSTR	38	192	7
NMSI_	38	192	7	96	96	3
NMSTR	39	0	1
NMSI_	39	0	1	96	96	5
NMHLD	39	192	6	96
NMTAP	39	288	7
NMTAP	39	336	7
NMTAP	40	0	7
NMTAP	40	96	0
NMTAP	40	96	5
NMSTR	40	192	6
NMSCR	40	192	6	96	96	0
CNSV_	41	0	0	0	96	3
NMTAP	41	192	2
NMTAP	41	240	2
NMTAP	41	288	3
NMTAP	41	336	3
NMHLD	42	0	2	48
NMHLD	42	0	4	48
NMHLD	42	96	1	48
NMHLD	42	96	5	48
NMTAP	42	192	0
NMTAP	42	192	6
NMSTR	42	288	0
NMSXR	42	288	0	96	240	4
NMTAP	42	288	6
EXTAP	43	192	5
NMTAP	43	288	6
NMTAP	43	336	6
NMTAP	44	0	7
NMTAP	44	48	7
NMTAP	44	96	5
EXTAP	44	192	3
EXTAP	44	192	4
NMTAP	44	288	1
NMTAP	44	336	1
NMTAP	45	0	0
NMTAP	45	48	0
BRTAP	45	96	2
NMTAP	45	192	7
NMTAP	45	288	6
NMTAP	46	0	5
NMSTR	46	96	4
NMSCL	46	96	4	96	192	0
NMSCR	46	96	4	96	192	0
NMTAP	47	96	1
NMTAP	47	96	7
NMTAP	47	192	6
NMTAP	47	240	6
NMTAP	47	288	0
NMTAP	47	336	0
NMTAP	48	0	7
NMTAP	48	48	7
NMSTR	48	96	0
NMSI_	48	96	0	96	96	3
NMSI_	48	96	0	96	96	5
NMTTP	49	96	4	E	0	M1
EXTAP	49	192	0
EXTAP	49	192	5
NMTAP	49	288	6
NMTAP	49	336	6
NMTAP	50	0	7
NMTAP	50	48	7
NMTAP	50	96	5
NMHLD	50	192	2	96
NMTAP	50	192	4
NMTAP	50	288	3
NMTAP	50	336	3
NMTAP	51	48	1
NMTAP	51	48	2
NMSTR	51	96	1
NMSI_	51	96	1	96	96	6
NMSTR	51	96	2
NMSI_	51	96	2	96	96	5
NMTAP	52	0	7
NMTAP	52	48	7
NMTAP	52	96	4
NMTAP	52	192	3
NMTAP	52	192	5
NMTAP	52	288	1
NMTAP	52	288	3
NMTAP	52	336	1
NMTAP	52	336	3
NMTAP	53	48	4
NMTAP	53	48	6
NMTAP	53	96	4
NMTAP	53	96	6
EXTAP	53	192	2
EXTAP	53	192	7
NMTAP	53	288	1
NMTAP	53	336	1
NMTAP	54	0	0
NMTAP	54	48	0
NMTAP	54	96	2
NMTAP	54	192	3
NMHLD	54	192	5	96
NMTAP	54	288	4
NMTAP	54	336	4
NMTAP	55	48	6
NMTAP	55	48	7
NMTAP	55	96	6
NMSTR	55	96	7
NMSSR	55	96	7	96	144	3
EXTAP	56	0	7
EXSTR	56	96	7
NMSI_	56	96	7	96	48	3
NMTAP	56	288	2
NMTAP	56	288	4
BRTAP	56	336	2
BRTAP	56	336	4
NMTAP	57	48	1
NMTAP	57	48	3
NMTAP	57	96	1
NMTAP	57	96	3
EXTAP	57	192	0
EXTAP	57	192	5
NMTAP	57	288	6
NMTAP	57	336	6
NMTAP	58	0	7
NMTAP	58	48	7
NMSTR	58	96	0
NMSCL	58	96	0	96	144	4
NMHLD	58	96	5	240
NMTAP	59	48	2
NMTAP	59	48	6
NMTAP	59	96	2
NMTAP	59	96	6
NMSTR	59	192	1
NMSV_	59	192	1	96	96	7
NMSTR	59	192	5
NMSV_	59	192	5	96	96	3
NMTAP	60	96	2
NMTAP	60	96	6
NMSTR	60	192	0
NMSV_	60	192	0	96	96	2
NMSTR	60	192	4
NMSV_	60	192	4	96	96	6
BXTAP	61	96	1
BXTAP	61	96	5
EXTAP	61	192	2
EXTAP	61	192	7
NMTAP	61	288	1
NMTAP	61	336	1
NMTAP	62	0	0
NMTAP	62	48	0
NMSTR	62	96	1
NMSV_	62	96	1	96	96	0
NMTAP	62	96	7
NMSTR	62	288	6
NMSV_	62	288	6	96	96	7
EXTAP	63	96	1
NMHLD	63	192	0	96
NMSTR	63	288	6
NMSI_	63	288	6	96	48	4
NMTAP	64	0	1
NMSTR	64	96	0
NMSI_	64	96	0	96	48	4
NMTAP	64	288	7
BRTAP	64	336	7
EXHLD	65	192	3	768
NMTTP	66	192	4	E	0	M1
NMTTP	67	0	6	E	0	M1
NMTTP	67	192	0	E	0	M1
NMSTR	68	0	0
NMSCL	68	0	0	96	240	3
NMSTR	69	192	4
NMSCR	69	192	4	96	336	3
NMSTR	71	0	7
NMSLL	71	0	7	96	192	3
NMSTR	72	192	2
NMSXL	72	192	2	96	288	0
BXTAP	73	192	7

T_REC_TAP	172
T_REC_BRK	4
T_REC_XTP	30
T_REC_BXX	10
T_REC_HLD	38
T_REC_XHO	5
T_REC_BHO	0
T_REC_BXH	2
T_REC_STR	36
T_REC_BST	0
T_REC_XST	5
T_REC_XBS	1
T_REC_TTP	18
T_REC_THO	0
T_REC_SLD	43
T_REC_BSL	1
T_REC_ALL	365
T_NUM_TAP	261
T_NUM_BRK	18
T_NUM_HLD	43
T_NUM_SLD	43
T_NUM_ALL	365
T_JUDGE_TAP	276
T_JUDGE_HLD	108
T_JUDGE_SLD	44
T_JUDGE_ALL	428
TTM_EACHPAIRS	83
TTM_SCR_TAP	130500
TTM_SCR_BRK	46800
TTM_SCR_HLD	43000
TTM_SCR_SLD	64500
TTM_SCR_ALL	284800
TTM_SCR_S	274550
TTM_SCR_SS	283000
TTM_RAT_ACV	10063

