VERSION	0.00.00	1.04.00
FES_MODE	0
BPM_DEF	240.000	240.000	240.000	240.000
MET_DEF	4	4
RESOLUTION	384
CLK_DEF	384
COMPATIBLE_CODE	MA2

BPM	0	0	240.000
MET	0	0	4	4

NMHLD	2	0	3	384
NMHLD	2	0	4	288
NMTTP	3	0	7	E	0	M1
NMTAP	3	48	2
NMTAP	3	96	4
NMTAP	3	144	3
NMTAP	3	192	5
NMTAP	3	240	2
NMSTR	3	288	4
NMSI_	3	288	4	96	96	2
NMHLD	3	336	1	144
CNSI_	4	96	2	0	192	5
NMHLD	4	192	0	96
NMTTP	5	0	1	E	0	M1
NMTAP	5	48	5
NMTAP	5	96	3
NMTAP	5	144	4
NMTAP	5	192	2
NMTAP	5	240	5
NMSTR	5	288	3
NMSI_	5	288	3	96	96	5
NMHLD	5	336	6	144
CNSI_	6	96	5	0	192	2
NMHLD	6	192	7	96
NMTTP	7	0	7	E	0	M1
NMTAP	7	48	2
NMTAP	7	96	3
NMTAP	7	144	4
NMTAP	7	192	6
NMTAP	7	240	5
NMSTR	7	288	4
NMSI_	7	288	4	96	96	2
NMHLD	7	336	1	144
CNSI_	8	96	2	0	192	5
NMHLD	8	192	0	96
NMTTP	9	0	1	E	0	M1
NMTAP	9	48	5
NMTAP	9	96	4
NMTAP	9	144	3
NMTAP	9	192	1
NMTAP	9	240	2
NMSTR	9	288	3
NMSI_	9	288	3	96	96	5
NMHLD	9	336	6	144
CNSI_	10	96	5	0	192	2
NMHLD	10	192	7	96
NMTTP	11	0	7	E	0	M1
NMTAP	11	48	2
NMTAP	11	96	4
NMTTP	11	144	1	E	0	M1
NMTAP	11	192	5
NMTAP	11	240	3
NMTTP	11	288	6	B	0	M1
NMHLD	11	336	2	144
NMHLD	12	0	4	96
NMTAP	12	192	1
NMHLD	12	192	5	96
NMTAP	12	288	1
NMTTP	13	0	1	E	0	M1
NMTAP	13	48	5
NMTAP	13	96	3
NMTTP	13	144	7	E	0	M1
NMTAP	13	192	2
NMTAP	13	240	4
NMTTP	13	288	1	B	0	M1
NMHLD	13	336	5	144
NMHLD	14	0	3	96
NMHLD	14	192	2	96
NMTAP	14	192	6
NMTAP	14	288	6
NMTTP	15	0	7	E	0	M1
NMTAP	15	48	3
NMTAP	15	96	5
NMTTP	15	144	1	E	0	M1
NMTAP	15	192	4
NMTAP	15	240	3
NMTTP	15	288	6	B	0	M1
NMHLD	15	336	2	144
NMHLD	16	0	4	96
NMTAP	16	192	1
NMHLD	16	192	5	96
NMTAP	16	240	1
NMTAP	16	288	1
NMTAP	16	336	1
NMTTP	17	0	1	E	0	M1
NMTAP	17	48	4
NMTAP	17	96	2
NMTTP	17	144	7	E	0	M1
NMTAP	17	192	3
NMTAP	17	240	4
NMTTP	17	288	1	B	0	M1
NMTAP	17	336	5
NMHLD	18	0	3	192
NMTAP	18	48	6
NMTAP	18	96	6
NMTAP	18	192	5
NMTAP	18	224	3
NMTAP	18	256	4
NMTAP	18	288	2
NMTAP	19	0	1
NMTAP	19	0	5
NMSTR	19	48	1
NMSI_	19	48	1	96	48	3
NMSTR	19	48	5
NMSI_	19	48	5	96	48	7
NMTAP	19	96	1
NMTAP	19	96	5
NMTAP	19	144	1
NMTAP	19	144	5
NMTAP	19	288	3
NMTAP	19	288	7
NMTAP	19	336	3
NMTAP	19	336	7
NMTAP	20	48	1
NMTAP	20	48	5
NMTAP	20	144	0
NMTAP	20	144	7
NMTTP	20	192	1	E	0	M1
NMTTP	20	192	7	E	0	M1
NMTTP	20	264	2	E	0	M1
NMTTP	20	264	6	E	0	M1
NMTTP	20	336	3	E	0	M1
NMTTP	20	336	5	E	0	M1
EXTAP	21	48	3
EXTAP	21	48	4
EXHLD	21	96	3	48
EXHLD	21	96	4	48
NMTAP	21	192	4
NMTAP	21	216	3
NMTAP	21	240	4
NMTAP	21	288	2
NMTAP	21	288	5
NMTAP	21	336	2
NMTAP	21	336	5
NMTAP	22	48	0
NMTAP	22	48	6
NMTAP	22	96	0
NMTAP	22	96	6
NMTAP	22	192	1
NMTAP	22	224	3
NMTAP	22	256	2
NMTAP	22	288	6
NMTAP	22	320	4
EXTAP	22	352	5
EXTAP	23	0	5
NMTAP	23	48	5
NMTAP	23	96	3
NMTAP	23	96	5
NMTAP	23	144	5
EXTAP	23	192	2
NMTAP	23	240	2
NMTAP	23	288	2
NMTAP	23	288	4
NMTAP	23	336	2
EXTAP	24	0	6
NMTAP	24	48	6
NMTAP	24	96	4
NMTAP	24	96	6
NMTAP	24	144	6
EXTAP	24	192	1
NMTAP	24	240	1
NMTAP	24	288	1
NMTAP	24	288	3
NMTAP	24	336	1
EXTAP	25	0	7
NMTAP	25	24	0
NMTAP	25	48	7
NMTAP	25	72	0
NMTAP	25	96	6
NMTAP	25	120	1
NMTAP	25	144	6
NMTAP	25	168	1
NMTAP	25	192	5
NMTAP	25	216	2
NMTAP	25	240	5
NMTAP	25	264	2
NMTAP	25	288	4
NMTAP	25	312	3
NMTAP	25	336	4
NMTAP	25	360	3
NMHLD	26	0	5	288
NMTTP	26	288	4	E	0	M1
NMSTR	27	0	7
NMSI_	27	0	7	96	48	5
NMTAP	27	96	2
NMSTR	27	96	7
NMSI_	27	96	7	96	48	3
NMTAP	27	192	2
NMTAP	27	192	7
NMTAP	27	288	2
NMTAP	27	288	7
NMTAP	28	0	3
EXSTR	28	0	7
NMSI_	28	0	7	96	48	5
NMTAP	28	96	3
NMSTR	28	96	7
NMSI_	28	96	7	96	48	3
NMTAP	28	192	2
NMTAP	28	192	7
NMTAP	28	288	2
NMTAP	28	288	7
NMSTR	29	0	0
NMSI_	29	0	0	96	48	2
NMSTR	29	96	0
NMSI_	29	96	0	96	48	4
NMTAP	29	96	5
NMTAP	29	192	0
NMTAP	29	192	5
NMTAP	29	288	0
NMTAP	29	288	5
EXSTR	30	0	0
NMSI_	30	0	0	96	48	2
NMTAP	30	0	4
NMSTR	30	96	0
NMSI_	30	96	0	96	48	4
NMTAP	30	96	4
NMTAP	30	192	0
NMTAP	30	192	5
NMTAP	30	288	0
NMTAP	30	288	5
NMTAP	31	0	6
NMTAP	31	48	5
NMHLD	31	96	4	48
NMHLD	31	96	6	48
NMTAP	31	192	3
NMSTR	31	240	2
NMSI_	31	240	2	96	48	7
NMTAP	31	240	4
NMHLD	31	336	5	96
NMTAP	32	48	0
NMSTR	32	96	0
NMSI_	32	96	0	96	48	3
NMTAP	32	144	3
NMSTR	32	192	4
NMSI_	32	192	4	96	48	7
NMTAP	32	288	2
NMTAP	32	336	1
NMSTR	33	0	0
NMSI_	33	0	0	96	48	4
NMHLD	33	96	5	96
NMTAP	33	192	3
NMTAP	33	240	3
NMTAP	33	240	5
NMTAP	33	336	6
NMTAP	34	0	6
NMTAP	34	32	4
NMTAP	34	64	5
NMTAP	34	96	1
NMTAP	34	128	3
NMTAP	34	160	2
NMTAP	34	192	4
NMTAP	34	240	4
BRTAP	34	288	3
BRTAP	34	288	5
NMSTR	35	0	6
NMSI_	35	0	6	96	48	4
NMTAP	35	96	3
NMSTR	35	96	6
NMSI_	35	96	6	96	48	0
NMTAP	35	192	3
NMSTR	35	192	6
NMSI_	35	192	6	96	48	3
NMTAP	35	288	2
NMTAP	35	288	6
NMTAP	36	0	2
NMSTR	36	0	5
NMSI_	36	0	5	96	48	0
NMTAP	36	96	1
NMSTR	36	96	5
NMSI_	36	96	5	96	48	3
NMTAP	36	192	1
NMSTR	36	192	5
NMSI_	36	192	5	96	48	7
NMTAP	36	288	2
NMTAP	36	288	5
NMSTR	37	0	1
NMSI_	37	0	1	96	48	3
NMSTR	37	96	1
NMSI_	37	96	1	96	48	7
NMTAP	37	96	4
NMSTR	37	192	1
NMSI_	37	192	1	96	48	4
NMTAP	37	192	4
NMTAP	37	288	1
NMTAP	37	288	5
NMSTR	38	0	2
NMSI_	38	0	2	96	48	7
NMTAP	38	0	5
NMSTR	38	96	2
NMSI_	38	96	2	96	48	4
NMTAP	38	96	6
NMSTR	38	192	2
NMSI_	38	192	2	96	48	0
NMTAP	38	192	6
NMTAP	38	288	2
NMSTR	38	288	5
NMSUL	38	288	5	96	288	3
CNSCL	39	288	3	0	48	2
CNSLL	39	336	2	0	192	6
CNSI_	40	144	6	0	48	4
NMTAP	41	0	4
NMTAP	41	48	4
NMTAP	41	96	3
NMTAP	41	144	3
NMTAP	41	192	5
NMTAP	41	240	5
NMTAP	41	288	2
NMTAP	41	336	2
NMTAP	42	0	2
NMTAP	42	24	4
NMTAP	42	48	2
NMTAP	42	72	4
NMTAP	42	96	2
NMTAP	42	120	4
NMTAP	42	144	2
NMTAP	42	168	4
NMTAP	42	192	2
NMTAP	42	216	4
NMTAP	42	240	2
NMTAP	42	264	4
BRSTR	42	288	1
NMSI_	42	288	1	96	48	4
NMSTR	43	0	5
NMSI_	43	0	5	96	48	7
NMTAP	43	48	5
NMTAP	43	96	2
NMTAP	43	144	1
NMSTR	43	192	0
NMSI_	43	192	0	96	48	2
NMSI_	43	192	0	96	48	3
NMSTR	43	288	0
NMSI_	43	288	0	96	48	5
NMSI_	43	288	0	96	48	6
NMSTR	44	0	0
NMSI_	44	0	0	96	48	4
NMTAP	44	96	0
NMTAP	44	144	5
NMTAP	44	168	6
NMTAP	44	192	7
NMTAP	44	240	4
NMSTR	44	288	4
NMSI_	44	288	4	96	48	1
NMSTR	45	0	0
NMSI_	45	0	0	96	48	5
NMTAP	45	96	2
NMTAP	45	144	3
NMHLD	45	192	4	48
NMHLD	45	192	6	48
NMHLD	45	264	0	48
NMHLD	45	264	7	48
NMTAP	45	336	1
NMTAP	45	336	3
NMSTR	46	0	4
NMSCR	46	0	4	96	48	7
NMTAP	46	48	3
NMTAP	46	96	2
NMTAP	46	144	1
NMSTR	46	192	0
NMSCR	46	192	0	96	48	3
NMTAP	46	240	7
NMTAP	46	288	6
NMTAP	46	336	5
NMTAP	47	0	4
NMTAP	47	0	6
NMTAP	47	48	3
NMTAP	47	96	2
NMTAP	47	96	4
NMTAP	47	144	5
NMHLD	47	192	4	48
NMHLD	47	192	6	48
NMHLD	47	264	3	48
NMHLD	47	264	4	48
NMTAP	47	336	2
NMTAP	48	0	1
NMTAP	48	0	3
NMTAP	48	48	0
NMTAP	48	96	4
NMTAP	48	96	6
NMTAP	48	144	7
NMTAP	48	192	1
NMTAP	48	192	3
NMTAP	48	240	5
NMTAP	48	264	6
NMSTR	48	288	7
NMSI_	48	288	7	96	48	3
NMTAP	48	312	0
NMTAP	48	336	1
NMTAP	48	360	2
NMTAP	49	0	3
NMTAP	49	144	4
NMTAP	49	192	3
NMTAP	49	192	5
NMTAP	49	240	3
NMTAP	49	240	5
NMTAP	49	288	2
NMTAP	49	288	6
NMTAP	49	336	2
NMTAP	49	336	6
NMTAP	50	0	7
NMTAP	50	24	6
NMTAP	50	48	5
NMTAP	50	72	4
NMTAP	50	96	0
NMTAP	50	120	1
NMTAP	50	144	2
NMTAP	50	168	3
NMTAP	50	192	4
NMTAP	50	240	4
BRTAP	50	288	3
BRTAP	50	288	5
NMSTR	51	0	6
NMSI_	51	0	6	96	48	2
NMTAP	51	48	6
NMTAP	51	96	0
NMTAP	51	144	0
NMSTR	51	192	1
NMSI_	51	192	1	96	48	4
NMTAP	51	240	1
NMTAP	51	288	5
NMTAP	51	336	5
NMTAP	51	360	6
NMSTR	52	0	7
NMSI_	52	0	7	96	48	3
NMTAP	52	48	7
NMTAP	52	96	1
NMTAP	52	144	1
NMSTR	52	192	0
NMSI_	52	192	0	96	48	3
NMTAP	52	240	0
NMTAP	52	288	4
NMTAP	52	336	4
NMTAP	52	360	5
NMHLD	53	0	6	48
BRTAP	53	48	4
NMHLD	53	96	2	48
BRTAP	53	144	3
NMHLD	53	192	5	48
BRTAP	53	240	7
NMHLD	53	288	1	48
BRTAP	53	336	0
NMTAP	54	0	7
NMTAP	54	48	7
NMTAP	54	72	6
NMTAP	54	96	5
NMTAP	54	120	4
NMTAP	54	144	3
NMTAP	54	168	2
NMTAP	54	192	7
NMTAP	54	216	6
NMTAP	54	240	5
NMTAP	54	264	4
NMTAP	54	288	3
NMTAP	54	312	2
NMTAP	54	336	1
NMTAP	54	360	0
NMSTR	55	0	7
NMSF_	55	0	7	96	48	3
NMSTR	55	192	1
NMSI_	55	192	1	96	48	5
NMTAP	55	240	1
NMSTR	55	288	7
NMSI_	55	288	7	96	48	3
NMTAP	55	336	7
NMHLD	56	0	4	96
NMSTR	56	96	6
NMSI_	56	96	6	96	48	2
NMTAP	56	144	6
NMSTR	56	192	0
NMSI_	56	192	0	96	48	4
NMTAP	56	240	0
NMHLD	56	288	3	96
NMTAP	57	0	5
NMTAP	57	48	6
NMTAP	57	96	4
NMTAP	57	96	7
NMTAP	57	192	2
NMTAP	57	240	1
NMTAP	57	288	0
NMTAP	57	288	6
NMTAP	58	0	7
NMTAP	58	24	6
NMTAP	58	48	5
NMTAP	58	72	4
NMTAP	58	96	0
NMTAP	58	120	1
NMTAP	58	144	2
NMTAP	58	168	3
NMSTR	58	192	5
NMSI_	58	192	5	96	48	1
NMTAP	58	216	3
NMTAP	58	240	5
NMTAP	58	264	3
BRTAP	58	288	5
BXHLD	59	0	2	2880
NMHLD	66	192	5	192
NMHLD	67	0	3	576
NMTTP	67	144	7	E	0	M1
NMTTP	67	288	5	E	0	M1
NMHLD	68	192	7	192
NMTTP	68	288	5	E	0	M1
NMTTP	68	336	1	E	0	M1
NMHLD	69	0	2	576
NMTTP	69	144	7	E	0	M1
NMTTP	69	288	5	E	0	M1
NMHLD	70	192	6	192
NMTTP	70	288	3	E	0	M1
NMHLD	71	0	3	384
NMTTP	71	144	7	E	0	M1
NMTTP	71	288	5	E	0	M1
NMHLD	72	0	5	192
NMHLD	72	192	1	192
NMHLD	73	0	7	384
NMTTP	73	48	1	E	0	M1
NMTTP	73	96	0	E	0	M1
NMTTP	73	144	7	E	0	M1
NMTTP	73	192	6	E	0	M1
NMTTP	73	240	5	E	0	M1
NMTTP	73	288	4	E	0	M1
NMTTP	73	336	3	E	0	M1
EXHLD	74	0	2	192
NMTTP	74	48	7	D	0	M1
NMTTP	74	96	6	D	0	M1
NMTTP	74	144	5	D	0	M1
EXHLD	74	192	4	192
NMTTP	75	0	1	E	0	M1
NMTAP	75	48	5
NMTAP	75	96	3
NMTAP	75	144	4
NMTAP	75	192	2
NMTAP	75	240	4
NMTAP	75	288	3
NMHLD	75	336	5	144
NMTAP	76	0	3
NMTAP	76	96	4
NMTAP	76	192	3
NMTAP	76	192	7
NMTAP	76	288	2
NMTAP	76	288	7
NMTTP	77	0	7	E	0	M1
NMTAP	77	48	2
NMTAP	77	96	4
NMTAP	77	144	3
NMTAP	77	192	5
NMTAP	77	240	3
NMTAP	77	288	4
NMHLD	77	336	2	144
NMTAP	78	0	4
NMTAP	78	96	3
NMTAP	78	192	0
NMTAP	78	192	4
NMTAP	78	288	0
NMTAP	78	288	5
NMTTP	79	0	1	E	0	M1
NMTAP	79	48	5
NMTAP	79	96	4
NMTAP	79	144	3
NMTAP	79	192	2
NMTAP	79	240	3
NMTAP	79	288	4
NMHLD	79	336	5	144
NMTAP	80	0	4
NMTAP	80	96	4
NMTAP	80	192	3
NMTAP	80	192	6
NMTAP	80	240	6
NMTAP	80	288	3
NMTAP	80	288	6
NMTAP	80	336	6
NMTTP	81	0	7	E	0	M1
NMTAP	81	48	2
NMTAP	81	96	3
NMTAP	81	144	4
NMTAP	81	192	5
NMTAP	81	240	4
NMTAP	81	288	3
NMHLD	81	336	2	144
NMTAP	82	0	3
NMTAP	82	96	3
NMHLD	82	192	1	96
NMTAP	82	192	4
NMTAP	82	288	4
NMTTP	83	0	1	E	0	M1
NMTAP	83	48	5
NMTAP	83	96	4
NMTTP	83	144	7	E	0	M1
NMTAP	83	192	2
NMTAP	83	240	3
NMTTP	83	288	1	B	0	M1
NMHLD	83	336	5	144
NMTAP	84	0	3
NMTAP	84	96	4
NMTAP	84	192	4
NMTAP	84	192	7
NMTAP	84	288	3
NMTAP	84	288	7
NMTTP	85	0	7	E	0	M1
NMTAP	85	48	2
NMTAP	85	96	3
NMTTP	85	144	1	E	0	M1
NMTAP	85	192	5
NMTAP	85	240	4
NMTTP	85	288	6	B	0	M1
NMHLD	85	336	2	144
NMTAP	86	0	4
NMTAP	86	96	3
NMTAP	86	192	0
NMTAP	86	192	3
NMTAP	86	288	0
NMTAP	86	288	4
NMTTP	87	0	1	E	0	M1
NMTAP	87	48	3
NMTAP	87	96	2
NMTTP	87	144	7	E	0	M1
NMTAP	87	192	3
NMTAP	87	240	4
NMTTP	87	288	1	B	0	M1
NMHLD	87	336	5	144
NMTAP	88	0	3
NMTAP	88	96	4
NMTAP	88	192	4
NMTAP	88	192	6
NMTAP	88	240	6
NMTAP	88	288	4
NMTAP	88	288	6
NMTAP	89	0	4
NMTAP	89	24	5
NMTAP	89	48	4
NMTAP	89	72	5
NMTAP	89	96	4
NMTAP	89	120	5
NMTAP	89	144	4
NMTAP	89	168	5
NMTAP	89	192	3
NMTAP	89	216	6
NMTAP	89	240	2
NMTAP	89	264	7
NMTAP	89	288	1
NMTAP	89	312	0
NMTAP	89	336	1
NMTAP	89	360	0
NMTAP	90	0	2
NMTAP	90	24	7
NMTAP	90	48	3
NMTAP	90	72	6
NMTAP	90	96	4
NMTAP	90	120	5
NMTAP	90	144	4
NMTAP	90	168	5
NMHLD	90	192	3	96
NMTAP	91	0	1
NMTAP	91	0	5
NMSTR	91	48	1
NMSI_	91	48	1	96	48	3
NMSTR	91	48	5
NMSI_	91	48	5	96	48	7
NMTAP	91	96	1
NMTAP	91	96	5
BRTAP	91	144	1
BRTAP	91	144	5
NMTAP	91	288	3
NMTAP	91	288	7
BRTAP	91	336	3
BRTAP	91	336	7
NMTAP	92	48	1
NMTAP	92	48	5
NMTAP	92	144	0
NMTAP	92	144	7
NMTTP	92	192	1	E	1	M1
NMTTP	92	192	7	E	0	M1
NMTTP	92	264	2	E	0	M1
NMTTP	92	264	6	E	1	M1
NMTTP	92	336	3	E	1	M1
NMTTP	92	336	5	E	0	M1
EXTAP	93	48	3
EXTAP	93	48	4
BXHLD	93	96	3	48
BXHLD	93	96	4	48
NMTAP	93	192	3
NMTAP	93	216	4
NMTAP	93	240	3
NMTAP	93	288	2
NMTAP	93	288	5
BRTAP	93	336	2
BRTAP	93	336	5
NMTAP	94	48	1
NMTAP	94	48	7
BRTAP	94	96	1
BRTAP	94	96	7
NMTAP	94	192	6
NMTAP	94	224	4
NMTAP	94	256	5
NMTAP	94	288	1
NMTAP	94	320	3
EXTAP	94	352	2
EXTAP	95	0	2
NMTAP	95	48	2
NMTAP	95	96	2
NMTAP	95	96	4
NMTAP	95	144	2
EXTAP	95	192	5
NMTAP	95	240	5
NMTAP	95	288	3
NMTAP	95	288	5
NMTAP	95	336	5
EXTAP	96	0	1
NMTAP	96	48	1
NMTAP	96	96	1
NMTAP	96	96	3
NMTAP	96	144	1
EXTAP	96	192	6
NMTAP	96	240	6
NMTAP	96	288	4
NMTAP	96	288	6
NMTAP	96	336	6
EXTAP	97	0	0
NMTAP	97	24	1
NMTAP	97	48	2
NMTAP	97	72	3
NMTAP	97	96	7
NMTAP	97	120	6
NMTAP	97	144	5
NMTAP	97	168	4
EXTAP	97	192	1
NMTAP	97	216	2
NMTAP	97	240	3
NMTAP	97	264	4
NMTAP	97	288	5
NMTAP	97	312	6
NMTAP	97	336	7
NMTAP	97	360	0
NMTAP	98	0	1
NMTAP	98	0	5
NMTAP	99	0	5
NMTAP	99	24	3
NMTAP	99	48	5
NMTAP	99	72	3
NMTAP	99	96	5
NMTAP	99	120	3
NMTAP	99	144	5
NMTAP	99	168	3
NMTAP	99	192	5
NMTAP	99	216	3
NMTAP	99	240	5
NMTAP	99	264	3
NMTAP	99	288	5
NMTAP	99	312	3
NMTAP	99	336	5
NMTAP	99	360	3
NMTAP	100	0	6
NMTAP	100	24	2
NMTAP	100	48	6
NMTAP	100	72	2
NMTAP	100	96	6
NMTAP	100	120	2
NMTAP	100	144	6
NMTAP	100	168	2
NMTAP	100	192	7
NMTAP	100	216	1
NMTAP	100	240	7
NMTAP	100	264	1
NMTAP	100	288	7
NMTAP	100	312	1
NMTAP	100	336	7
NMTAP	100	360	1
NMTAP	101	0	0
NMTAP	101	24	0
NMTAP	101	48	0
NMTAP	101	72	0
NMTAP	101	96	0
NMTAP	101	120	0
NMTAP	101	144	0
NMTAP	101	168	0
NMTAP	101	192	0
NMTAP	101	216	0
NMTAP	101	240	0
NMTAP	101	264	0
NMTAP	101	288	0
NMTAP	101	312	0
NMTAP	101	336	0
NMTAP	101	360	0
BRHLD	102	0	0	192
NMSTR	102	288	2
NMSV_	102	288	2	96	48	7
NMSTR	102	288	6
NMSI_	102	288	6	96	48	3
BRTAP	103	0	2
BRTAP	103	0	6
NMSTR	103	96	0
NMSI_	103	96	0	96	48	2
NMSTR	103	96	4
NMSI_	103	96	4	96	48	6
BRSTR	103	192	0
NMSUR	103	192	0	96	48	4
BRTAP	103	192	4
NMTAP	103	288	0
NMTAP	103	288	5
NMTAP	104	0	6
NMTAP	104	48	6
NMTAP	104	96	4
NMTAP	104	120	3
NMTAP	104	144	2
NMTAP	104	168	1
NMSTR	104	192	0
NMSI_	104	192	0	96	48	3
NMTAP	104	240	3
NMSTR	104	288	0
NMSI_	104	288	0	96	48	4
NMTAP	104	336	4
NMTAP	105	0	0
NMTAP	105	48	5
NMTAP	105	96	3
NMTAP	105	96	6
NMTAP	105	144	2
NMTAP	105	192	1
NMSTR	105	192	7
NMSI_	105	192	7	96	48	3
NMTAP	105	240	6
NMSTR	105	288	2
NMSI_	105	288	2	96	48	6
NMTAP	105	336	1
NMSTR	106	0	4
NMSI_	106	0	4	96	48	7
NMSTR	106	96	0
NMSI_	106	96	0	96	48	3
NMSTR	106	192	5
NMSI_	106	192	5	96	48	3
NMHLD	106	288	2	96
NMTAP	107	0	4
NMTAP	107	48	5
NMTAP	107	72	3
NMTAP	107	96	5
NMTAP	107	120	3
NMTAP	107	144	5
NMTAP	107	168	3
NMTAP	107	192	6
NMTAP	107	240	6
NMTAP	107	288	4
NMTAP	107	336	5
NMTAP	108	0	4
NMTAP	108	0	6
NMTAP	108	72	0
NMTAP	108	96	7
NMTAP	108	144	1
NMTAP	108	144	3
NMTAP	108	192	1
NMTAP	108	192	3
NMTAP	108	264	7
NMTAP	108	288	0
NMTAP	108	336	4
NMTAP	108	336	6
NMTAP	109	0	4
NMTAP	109	0	6
NMTAP	109	72	3
NMTAP	109	96	4
NMTAP	109	144	1
NMTAP	109	144	3
NMTAP	109	192	2
NMTAP	109	240	2
NMTAP	109	288	4
NMTAP	109	288	6
NMTAP	109	336	5
NMTAP	110	0	1
NMTAP	110	0	3
NMTAP	110	72	4
NMTAP	110	96	3
NMTAP	110	144	4
NMTAP	110	144	6
NMTAP	110	192	5
NMTAP	110	240	5
NMTAP	110	288	1
NMTAP	110	288	3
NMTAP	110	336	2
NMSTR	111	0	4
NMSLR	111	0	4	96	96	0
NMTAP	111	96	3
CNSV_	111	192	0	0	96	5
NMTAP	111	192	2
NMTAP	111	288	2
NMSTR	112	0	3
NMSLL	112	0	3	96	96	7
NMTAP	112	96	4
NMTAP	112	192	5
CNSV_	112	192	7	0	96	2
NMTAP	112	288	5
NMTAP	113	0	5
NMTAP	113	48	5
NMTAP	113	72	4
NMTAP	113	96	5
NMTAP	113	120	4
NMTAP	113	144	6
NMTAP	113	192	2
NMTAP	113	216	3
NMTAP	113	240	2
NMTAP	113	264	3
NMTAP	113	288	1
NMTAP	113	336	0
NMTAP	114	0	7
NMSTR	114	48	6
NMSCR	114	48	6	96	48	1
NMTAP	114	96	5
NMTAP	114	144	4
NMHLD	114	192	3	48
NMTAP	114	288	2
NMTAP	114	288	4
NMSTR	115	0	1
NMSI_	115	0	1	96	48	4
NMHLD	115	96	0	96
NMTAP	115	96	1
NMTAP	115	240	6
NMTAP	115	288	4
NMTAP	115	288	5
NMSTR	116	0	6
NMSI_	116	0	6	96	48	3
NMTAP	116	96	6
NMHLD	116	96	7	96
NMTAP	116	240	1
NMTAP	116	288	2
NMTAP	116	288	3
BXTAP	117	0	2
NMTAP	117	48	5
NMTAP	117	72	6
NMTAP	117	96	7
NMTAP	117	120	0
NMTAP	117	144	1
BXTAP	117	192	5
NMTAP	117	240	2
NMTAP	117	264	1
NMTAP	117	288	0
NMTAP	117	312	7
NMTAP	117	336	6
BXSTR	118	0	2
NMSLL	118	0	2	96	96	6
NMSTR	118	96	6
NMSLR	118	96	6	96	96	2
NMTAP	118	192	3
NMSTR	118	288	4
BRSF_	118	288	4	96	48	0
NMTTP	119	0	4	B	1	M1
NMTTP	119	0	4	E	0	M1
NMTTP	119	0	5	E	0	M1
NMTAP	120	0	1
NMTAP	120	24	7
NMTAP	120	48	1
NMTAP	120	72	7
NMTAP	120	96	1
NMTAP	120	144	5
NMTAP	120	168	4
NMTAP	120	216	2
NMTAP	120	240	3
NMSTR	120	288	1
NMSI_	120	288	1	96	48	5
NMTAP	120	288	4
NMTAP	120	336	0
NMTAP	120	336	5
BRTAP	121	0	1
BRTAP	121	96	4
BRTAP	121	96	7
NMHLD	121	192	3	72
NMHLD	121	264	1	72
NMTAP	121	336	0
NMSTR	122	0	0
NMSCR	122	0	0	96	48	3
NMSUR	122	0	0	96	48	4
BRTAP	122	96	0
NMSTR	122	192	7
NMSCL	122	192	7	96	48	4
NMSUL	122	192	7	96	48	3
BRTAP	122	288	7
NMTAP	123	0	0
NMTAP	123	48	1
NMTAP	123	72	3
NMSTR	123	96	1
NMSI_	123	96	1	96	48	7
NMTAP	123	120	3
NMTAP	123	144	1
NMTAP	123	168	3
NMSTR	123	192	1
NMSI_	123	192	1	96	48	4
NMTAP	123	288	1
NMTAP	123	288	5
NMTAP	124	0	6
NMTAP	124	48	6
NMTAP	124	72	4
NMTAP	124	96	5
NMTAP	124	144	5
NMTAP	124	192	1
NMTAP	124	240	1
NMTAP	124	264	3
NMTAP	124	288	2
NMTAP	124	336	2
NMHLD	125	0	7	72
NMHLD	125	72	5	72
NMTAP	125	144	4
NMSTR	125	192	4
NMSI_	125	192	4	96	48	7
NMTAP	125	240	3
BRTAP	125	288	2
NMHLD	126	0	0	72
NMHLD	126	72	2	72
NMTAP	126	144	3
NMSTR	126	192	3
NMSI_	126	192	3	96	48	0
NMTAP	126	240	4
BRTAP	126	288	5
BRSTR	127	0	7
NMSI_	127	0	7	96	48	3
BRSTR	127	96	2
NMSI_	127	96	2	96	48	6
BRTAP	127	96	7
BRTAP	127	192	2
BRSTR	127	192	4
NMSI_	127	192	4	96	48	0
BRTAP	127	288	4
BRSTR	127	288	7
NMSI_	127	288	7	96	48	2
BRSTR	128	0	5
NMSI_	128	0	5	96	48	1
BRTAP	128	0	7
BRSTR	128	96	3
NMSCR	128	96	3	96	48	6
BRTAP	128	96	5
BRSTR	128	192	0
NMSI_	128	192	0	96	48	4
BRTAP	128	192	3
BRTAP	128	288	0
NMTAP	129	0	3
NMTAP	129	0	5
BRTAP	129	48	2
NMTAP	129	72	1
NMTAP	129	96	0
NMTAP	129	120	7
NMTAP	129	144	6
NMTAP	129	168	5
BRTAP	129	192	2
NMTAP	129	216	1
NMTAP	129	240	0
NMTAP	129	264	7
NMTAP	129	288	6
NMTAP	129	312	5
BRTAP	129	336	2
BRTAP	130	0	2
NMTAP	130	96	0
NMTAP	130	96	3
NMTAP	130	144	0
NMTAP	130	144	3
NMTAP	130	240	4
NMTAP	130	240	7
NMTAP	130	288	4
NMTAP	130	288	7
NMSTR	131	0	2
NMSI_	131	0	2	96	48	7
NMTAP	131	96	2
NMHLD	131	96	3	96
NMTAP	131	240	4
NMTAP	131	288	4
NMSTR	132	0	5
NMSI_	132	0	5	96	48	0
NMHLD	132	96	4	96
NMTAP	132	96	5
NMTAP	132	240	3
NMTAP	132	288	3
NMHLD	133	0	2	48
NMHLD	133	0	4	48
NMHLD	133	96	1	48
NMHLD	133	96	3	48
NMHLD	133	192	0	48
NMHLD	133	192	2	48
NMHLD	133	288	1	48
NMHLD	133	288	7	48
BRTAP	134	0	6
NMTAP	134	24	5
NMTAP	134	48	4
NMTAP	134	72	3
BRTAP	134	96	7
NMTAP	134	120	6
NMTAP	134	144	5
NMTAP	134	168	4
BRTAP	134	192	0
NMTAP	134	216	7
NMTAP	134	240	6
NMTAP	134	264	5
BRTAP	134	288	1
NMTAP	134	312	0
NMTAP	134	336	7
NMTAP	134	360	6
BRHLD	135	0	2	192
NMTTP	135	192	0	E	1	M1
NMTAP	136	0	1
NMTAP	136	12	2
NMTAP	136	24	3
NMTAP	136	36	4
NMTAP	136	48	5
NMTAP	136	60	6
NMTAP	136	72	7
NMTAP	136	84	0
NMTAP	136	96	1
NMTAP	136	108	2
NMTAP	136	120	3
NMTAP	136	132	4
NMTAP	136	144	5
NMTAP	136	156	6
NMTAP	136	168	7
NMTAP	136	180	0
NMTAP	136	192	1
NMTAP	136	204	2
NMTAP	136	216	3
NMTAP	136	228	4
NMTAP	136	240	5
NMTAP	136	252	6
NMTAP	136	264	7
NMTAP	136	276	0
NMHLD	136	288	1	804
NMHLD	136	336	4	1392
NMTTP	138	336	2	E	0	M1
NMTTP	138	348	2	B	0	M1
NMTAP	140	192	3
NMTAP	140	216	4
NMTAP	140	240	3
NMTAP	140	264	4
NMTAP	140	288	3
NMTAP	140	312	4
NMTAP	140	336	3
NMTAP	140	360	4
NMTAP	141	0	3
NMTAP	141	24	4
NMTAP	141	48	3
NMTAP	141	72	4
NMTAP	141	96	3
NMTAP	141	120	4
NMTAP	141	144	3
NMTAP	141	168	4
NMTAP	141	192	2
NMTAP	141	216	4
NMTAP	141	240	2
NMTAP	141	264	4
NMTAP	141	288	1
NMTAP	141	312	4
NMTAP	141	336	1
NMTAP	141	360	4
NMTAP	142	0	0
NMTAP	142	24	4
NMTAP	142	48	0
NMTAP	142	72	4
NMTAP	142	96	0
NMTAP	142	120	4
NMTAP	142	144	0
NMTAP	142	168	4
NMTTP	142	192	1	A	0	M1
NMTTP	142	204	1	B	0	M1
NMTTP	142	216	0	C	0	M1
NMTTP	142	228	5	B	0	M1
NMTTP	142	240	5	A	0	M1

T_REC_TAP	740
T_REC_BRK	42
T_REC_XTP	17
T_REC_BXX	2
T_REC_HLD	79
T_REC_XHO	4
T_REC_BHO	2
T_REC_BXH	3
T_REC_STR	77
T_REC_BST	9
T_REC_XST	2
T_REC_XBS	1
T_REC_TTP	72
T_REC_THO	0
T_REC_SLD	92
T_REC_BSL	1
T_REC_ALL	1143
T_NUM_TAP	908
T_NUM_BRK	60
T_NUM_HLD	83
T_NUM_SLD	92
T_NUM_ALL	1143
T_JUDGE_TAP	962
T_JUDGE_HLD	186
T_JUDGE_SLD	93
T_JUDGE_ALL	1241
TTM_EACHPAIRS	146
TTM_SCR_TAP	454000
TTM_SCR_BRK	156000
TTM_SCR_HLD	83000
TTM_SCR_SLD	138000
TTM_SCR_ALL	831000
TTM_SCR_S	800250
TTM_SCR_SS	825000
TTM_RAT_ACV	10072

