VERSION	0.00.00	1.04.00
FES_MODE	0
BPM_DEF	240.000	240.000	240.000	240.000
MET_DEF	4	4
RESOLUTION	384
CLK_DEF	384
COMPATIBLE_CODE	MA2

BPM	0	0	240.000
MET	0	0	4	4

BRSTR	3	0	3
NMSCL	3	0	3	96	1056	4
BRTAP	3	0	4
NMTAP	7	0	3
NMSTR	7	0	4
BRSCR	7	0	4	96	1056	3
NMHLD	11	0	3	768
NMTTP	12	0	4	E	0	M1
NMTTP	12	192	5	E	0	M1
NMHLD	13	0	6	768
NMTTP	14	0	4	E	0	M1
NMTTP	14	192	3	E	0	M1
NMHLD	15	0	2	768
NMTTP	16	0	4	E	0	M1
NMTTP	16	192	6	E	0	M1
NMHLD	17	0	7	576
NMHLD	18	0	1	192
EXTAP	19	0	0
EXTAP	19	48	0
EXTAP	19	96	0
EXTAP	19	144	0
EXTAP	19	288	1
EXTAP	19	288	7
EXTAP	19	336	1
EXTAP	19	336	7
EXTAP	20	48	2
EXTAP	20	48	6
EXTAP	20	144	3
EXTAP	20	144	5
EXHLD	20	192	3	144
EXHLD	20	192	5	144
NMTAP	21	48	3
NMTAP	21	48	4
NMTAP	21	96	3
NMTAP	21	96	4
NMTAP	21	192	2
NMTAP	21	240	2
NMTAP	21	288	3
NMHLD	21	336	1	96
NMTAP	22	48	0
NMTAP	22	96	0
NMTAP	22	192	2
NMTAP	22	192	7
NMTAP	22	288	2
NMTAP	22	288	7
BXTAP	23	0	6
NMTAP	23	48	6
NMHLD	23	96	6	96
BXTAP	23	192	4
NMTAP	23	240	4
NMHLD	23	288	4	96
BXTAP	24	0	3
NMTAP	24	48	3
NMHLD	24	96	3	96
BXTAP	24	192	1
NMTAP	24	240	1
NMHLD	24	288	1	96
BXTAP	25	0	0
BXTAP	25	96	0
BXTAP	25	96	1
BXTAP	25	192	2
BXTAP	25	192	3
BXTAP	25	288	4
BXTAP	25	288	5
BXHLD	26	0	3	192
BXHLD	26	0	6	192
NMTAP	27	0	3
NMTAP	27	0	5
NMTAP	27	96	2
NMTAP	27	96	4
NMTAP	27	192	1
NMTAP	27	240	1
NMTAP	27	288	3
NMTAP	28	0	0
NMTAP	28	0	1
NMTAP	28	96	6
NMTAP	28	96	7
NMTAP	28	192	6
NMTAP	28	240	6
NMTAP	28	288	4
EXTAP	29	0	2
EXTAP	29	0	4
NMHLD	29	96	5	96
NMHLD	29	192	7	96
NMHLD	29	288	0	96
NMHLD	30	0	2	96
NMTAP	30	96	3
NMTAP	30	192	0
NMTAP	30	192	1
NMTAP	30	288	6
NMTAP	30	288	7
NMSTR	31	0	0
NMSCR	31	0	0	96	96	3
NMTAP	31	0	5
NMTTP	31	192	5	E	0	M1
NMTTP	31	288	6	E	0	M1
NMTTP	32	0	7	E	0	M1
NMTTP	32	96	0	C	0	M1
NMTTP	32	192	1	E	1	M1
NMTAP	33	0	1
NMSTR	33	0	7
NMSI_	33	0	7	96	96	4
NMTAP	33	192	2
NMTAP	33	288	2
NMSTR	33	288	3
NMSSL	33	288	3	96	288	7
EXTAP	34	288	0
NMTAP	35	0	1
NMTAP	35	0	7
NMTAP	35	96	1
NMTAP	35	96	7
NMTAP	35	192	6
NMTAP	35	240	6
NMTAP	35	288	4
NMTAP	36	0	0
NMTAP	36	0	6
NMTAP	36	96	0
NMTAP	36	96	6
NMTAP	36	192	1
NMTAP	36	240	1
NMTAP	36	288	3
EXTAP	37	0	3
EXTAP	37	0	5
NMHLD	37	96	2	96
NMHLD	37	192	0	96
NMHLD	37	288	7	96
NMHLD	38	0	5	96
NMTAP	38	96	4
NMTAP	38	192	5
NMTAP	38	240	5
NMTAP	38	288	4
NMSTR	39	0	3
NMSCL	39	0	3	96	96	0
NMTAP	39	0	6
NMTTP	39	192	7	E	0	M1
NMTTP	39	288	6	E	0	M1
NMTTP	40	0	5	E	0	M1
NMTTP	40	96	0	C	0	M1
NMTTP	40	192	3	E	1	M1
NMTAP	41	0	2
NMSTR	41	0	4
NMSI_	41	0	4	96	96	7
NMTAP	41	192	1
NMTAP	41	288	0
NMTAP	41	288	1
EXTAP	42	0	7
EXTAP	42	48	7
EXTAP	42	96	0
EXTAP	42	144	0
EXTAP	42	192	0
EXTAP	42	192	7
BXTAP	42	288	1
BXTAP	42	288	6
NMTAP	43	0	2
NMTAP	43	48	2
NMTAP	43	96	3
NMTAP	43	144	1
NMHLD	43	192	5	96
NMTAP	43	288	7
NMTAP	44	0	0
NMTAP	44	0	7
NMTAP	44	96	0
NMTAP	44	96	2
NMTAP	44	192	2
NMTAP	44	192	3
NMTAP	44	288	4
NMTAP	44	288	5
NMTAP	45	0	6
NMTAP	45	48	6
NMTAP	45	96	4
NMTAP	45	144	5
NMTAP	45	192	0
NMTAP	45	288	1
NMTAP	45	288	4
NMHLD	46	0	0	96
NMSTR	46	96	2
NMSCR	46	96	2	96	96	5
NMTAP	47	0	6
NMTAP	47	48	6
NMTAP	47	96	4
NMTAP	47	192	5
NMTAP	47	192	7
NMTAP	47	288	0
NMTAP	47	288	7
NMTAP	48	0	1
NMTAP	48	48	1
NMTAP	48	96	3
NMTAP	48	192	0
NMTAP	48	192	2
NMTAP	48	288	0
NMTAP	48	288	7
NMSTR	49	0	6
NMSCR	49	0	6	96	96	1
NMSTR	49	192	2
NMSCR	49	192	2	96	96	5
NMTAP	50	0	7
NMTAP	50	96	6
BRTAP	50	192	3
BRTAP	50	192	5
NMTAP	51	0	1
NMTAP	51	48	1
NMTAP	51	96	3
NMTAP	51	144	3
NMTAP	51	192	2
NMTAP	51	240	2
NMTAP	51	288	4
NMTAP	51	336	4
NMTAP	52	0	3
NMTAP	52	48	3
NMTAP	52	96	5
NMTAP	52	144	5
NMTAP	52	192	4
NMTAP	52	288	3
NMTAP	52	288	6
NMTAP	53	0	6
NMTAP	53	0	7
NMTAP	53	96	6
NMTAP	53	96	7
NMTAP	53	192	4
NMTAP	53	192	5
NMTAP	53	288	2
NMTAP	53	288	3
NMTAP	54	0	0
NMTAP	54	0	1
NMTAP	54	96	4
NMTAP	54	96	6
NMTAP	54	192	6
NMTAP	54	192	7
NMTAP	54	288	1
NMTAP	54	288	3
NMTAP	55	0	2
NMHLD	55	48	2	48
NMTAP	55	96	4
NMHLD	55	144	4	48
NMTAP	55	192	6
NMHLD	55	240	6	48
NMTAP	55	288	4
NMHLD	55	336	4	48
NMTAP	56	0	2
NMHLD	56	48	2	48
NMTAP	56	96	0
NMHLD	56	144	0	48
NMTAP	56	192	6
NMHLD	56	240	6	48
NMTAP	56	288	0
NMTAP	57	0	1
NMTAP	57	0	7
NMTAP	57	48	1
NMTAP	57	48	7
NMTAP	57	96	1
NMTAP	57	96	7
NMTAP	57	192	0
NMTAP	57	192	6
NMTAP	57	240	0
NMTAP	57	240	6
NMTAP	57	288	0
NMTAP	57	288	6
NMTAP	58	0	7
NMTAP	58	48	7
NMTAP	58	96	3
NMTAP	58	144	3
NMTAP	58	192	5
NMTAP	58	240	5
BRSTR	58	288	1
BRSI_	58	288	1	96	48	7
NMTTP	63	0	6	E	0	M1
NMTTP	63	192	5	E	0	M1
NMTTP	64	0	4	E	0	M1
NMTTP	64	192	3	E	0	M1
NMTTP	65	0	2	E	0	M1
NMTTP	65	192	1	E	0	M1
NMTTP	66	0	0	E	0	M1
NMTTP	66	192	7	E	0	M1
NMTHO	67	0	0	384	C	0	M1
NMTTP	67	0	6	E	0	M1
NMTTP	68	0	7	B	0	M1
NMTTP	68	0	7	E	0	M1
NMTHO	69	0	0	384	C	0	M1
NMTTP	69	0	2	E	0	M1
NMTTP	70	0	0	B	0	M1
NMTTP	70	0	1	E	0	M1
NMSTR	71	0	7
NMSCL	71	0	7	96	672	0
CNSCR	73	0	0	0	768	7
NMTAP	75	0	0
NMTAP	75	192	0
NMTAP	76	0	1
NMTAP	76	96	2
NMTAP	76	192	3
NMTAP	76	288	4
NMTAP	77	0	3
NMHLD	77	0	5	384
NMTAP	77	192	3
NMTAP	78	0	4
NMTAP	78	96	3
NMTAP	78	192	4
NMTAP	78	288	5
NMHLD	79	0	4	384
NMTAP	79	0	6
NMTAP	79	192	6
NMTAP	80	0	7
NMTAP	80	96	6
NMTAP	80	192	5
NMTAP	80	288	4
NMSTR	81	0	3
NMSCL	81	0	3	96	288	0
NMSTR	82	0	6
NMSCL	82	0	6	96	288	3
NMTAP	83	0	1
NMHLD	83	96	1	96
NMTAP	83	192	3
NMHLD	83	288	3	96
NMTTP	84	0	3	E	0	M1
NMTTP	84	192	0	B	0	M1
NMTTP	84	192	1	B	0	M1
NMTAP	85	0	6
NMHLD	85	96	6	96
NMTAP	85	192	4
NMHLD	85	288	4	96
NMTTP	86	0	5	E	0	M1
NMTTP	86	192	6	B	0	M1
NMTTP	86	192	7	B	0	M1
NMTAP	87	0	0
NMHLD	87	96	0	96
NMTAP	87	192	2
NMHLD	87	288	2	96
NMTAP	88	0	4
NMHLD	88	96	4	96
NMTAP	88	192	6
NMHLD	88	288	6	96
NMSTR	89	0	0
NMSI_	89	0	0	96	240	4
CNSI_	89	336	4	0	240	0
BXTAP	91	0	7
BXTAP	91	48	7
BXTAP	91	96	7
BXTAP	91	144	7
NMTAP	91	288	0
NMTAP	91	288	6
NMTAP	91	336	0
NMTAP	91	336	6
NMTAP	92	48	1
NMTAP	92	48	5
EXTAP	92	144	2
EXTAP	92	144	4
EXHLD	92	192	2	144
EXHLD	92	192	4	144
NMTAP	93	48	3
NMTAP	93	48	4
NMTAP	93	96	3
NMTAP	93	96	4
NMTAP	93	192	5
NMTAP	93	240	5
NMTAP	93	288	4
NMHLD	93	336	6	96
NMTAP	94	48	7
NMSTR	94	96	7
NMSV_	94	96	7	96	96	2
NMSV_	94	96	7	96	96	4
BXTAP	95	0	1
NMTAP	95	48	1
NMHLD	95	96	1	96
BXTAP	95	192	3
NMTAP	95	240	3
NMHLD	95	288	3	96
BXTAP	96	0	4
NMTAP	96	48	4
NMHLD	96	96	4	96
BXTAP	96	192	6
NMTAP	96	240	6
NMHLD	96	288	6	96
BXTAP	97	0	7
BXTAP	97	96	6
BXTAP	97	96	7
BXTAP	97	192	4
BXTAP	97	192	5
BXTAP	97	288	2
BXTAP	97	288	3
BXHLD	98	0	1	192
BXHLD	98	0	4	192
EXTAP	99	0	2
EXTAP	99	48	2
EXTAP	99	96	4
EXTAP	99	144	4
EXTAP	99	192	3
EXTAP	99	240	3
EXTAP	99	288	5
EXTAP	99	336	5
EXTAP	100	0	4
EXTAP	100	48	4
EXTAP	100	96	6
EXTAP	100	144	6
EXTAP	100	192	1
EXTAP	100	240	1
EXTAP	100	288	6
EXTAP	100	336	6
EXTAP	101	0	0
EXTAP	101	24	7
EXTAP	101	48	0
EXTAP	101	72	7
EXTAP	101	96	0
EXTAP	101	120	7
EXTAP	101	144	0
EXTAP	101	168	7
EXTAP	101	192	0
EXTAP	101	216	7
EXTAP	101	240	0
EXTAP	101	264	7
EXTAP	101	288	0
EXTAP	101	312	7
EXTAP	101	336	0
EXTAP	101	360	7
BXHLD	102	0	0	192
NMSTR	102	288	1
NMSI_	102	288	1	96	48	4
NMTAP	102	288	7
NMSTR	103	0	0
NMSI_	103	0	0	96	48	5
EXTAP	103	192	4
NMTAP	103	288	5
NMTAP	104	0	6
NMTAP	104	0	7
NMTAP	104	96	1
NMTAP	104	96	3
NMTAP	104	192	0
NMTAP	104	192	1
NMSTR	104	288	6
NMSI_	104	288	6	96	48	3
NMSTR	105	0	7
NMSI_	105	0	7	96	48	2
EXTAP	105	192	3
NMTAP	105	288	1
NMTAP	106	0	0
NMTAP	106	0	2
NMTAP	106	96	2
NMTAP	106	96	3
NMTAP	106	192	5
NMTAP	106	192	7
NMTAP	106	288	4
NMTAP	106	288	5
NMTAP	107	0	6
NMTAP	107	48	6
NMTAP	107	96	4
NMTAP	107	144	4
NMSTR	107	192	5
NMSI_	107	192	5	96	48	2
NMTAP	107	288	0
NMTAP	108	0	1
NMTAP	108	48	1
NMTAP	108	96	3
NMTAP	108	144	3
NMSTR	108	192	2
NMSI_	108	192	2	96	48	5
NMTAP	108	288	7
EXHLD	109	0	6	72
EXHLD	109	72	4	72
EXTAP	109	144	5
EXTAP	109	192	5
EXTAP	109	288	0
EXTAP	109	288	7
NMHLD	110	0	1	72
NMHLD	110	72	3	72
NMTAP	110	144	2
NMTAP	110	192	2
BRTAP	110	288	0
BRTAP	110	288	7
NMTAP	111	0	6
NMTAP	111	48	6
NMTAP	111	96	7
NMTAP	111	144	7
NMTAP	111	192	5
NMTAP	111	240	5
NMTAP	111	288	4
NMTAP	111	336	4
NMTAP	112	0	6
NMSTR	112	96	7
NMSI_	112	96	7	96	48	3
NMTAP	112	288	0
NMTAP	112	288	2
NMTAP	113	0	1
NMTAP	113	48	1
NMTAP	113	96	0
NMTAP	113	144	0
NMTAP	113	192	2
NMTAP	113	240	2
NMTAP	113	288	3
NMTAP	113	336	3
NMTAP	114	0	1
NMSTR	114	96	0
NMSI_	114	96	0	96	48	4
BXTAP	114	288	3
BXTAP	114	288	5
NMTAP	115	0	2
NMTAP	115	0	4
BRTAP	115	96	0
EXTAP	115	240	2
EXTAP	115	240	6
EXTAP	115	288	3
EXTAP	115	288	5
NMTAP	116	0	3
NMTAP	116	0	5
BRTAP	116	96	7
EXTAP	116	240	1
EXTAP	116	240	5
EXTAP	116	288	2
EXTAP	116	288	4
NMTAP	117	0	2
NMTAP	117	0	4
NMTAP	117	96	5
NMTAP	117	192	3
NMTAP	117	192	5
NMTAP	117	288	2
NMHLD	118	0	1	96
NMHLD	118	96	3	96
NMHLD	118	192	5	96
NMSTR	118	288	7
NMSCL	118	288	7	96	384	0
NMTTP	120	0	0	C	1	M1
BXTAP	120	288	0
BXTAP	120	288	7
NMSTR	121	0	1
NMSI_	121	0	1	96	48	3
NMSTR	121	96	0
NMSI_	121	96	0	96	48	4
NMSTR	121	192	1
NMSI_	121	192	1	96	48	5
EXTAP	121	288	7
NMTAP	122	0	6
NMTAP	122	48	6
NMTAP	122	96	4
NMTAP	122	144	7
NMHLD	122	192	3	96
BRTAP	122	288	0
NMSTR	123	0	6
NMSI_	123	0	6	96	48	4
NMSTR	123	96	7
NMSI_	123	96	7	96	48	3
NMSTR	123	192	6
NMSI_	123	192	6	96	48	2
EXTAP	123	288	0
NMTAP	124	0	1
NMTAP	124	48	1
NMTAP	124	96	3
NMTAP	124	144	0
NMHLD	124	192	4	96
BRTAP	124	288	7
EXHLD	125	0	1	72
EXHLD	125	72	2	72
EXTAP	125	144	3
EXTAP	125	192	3
BXSTR	125	288	1
BRSV_	125	288	1	96	144	3
BXSTR	125	288	5
BRSV_	125	288	5	96	144	7
BXTAP	126	288	1
BXTAP	126	288	5
NMTAP	127	0	6
NMTAP	127	0	7
NMTAP	127	96	6
NMTAP	127	96	7
NMTAP	127	192	2
NMTAP	127	192	4
NMTAP	127	288	2
NMTAP	127	288	4
NMTAP	128	0	1
NMTAP	128	48	3
NMTAP	128	96	5
NMTAP	128	144	3
NMHLD	128	192	1	96
NMTAP	128	288	0
NMTAP	129	0	0
NMTAP	129	0	1
NMTAP	129	96	0
NMTAP	129	96	1
NMTAP	129	192	3
NMTAP	129	192	5
NMTAP	129	288	3
NMTAP	129	288	5
NMTAP	130	0	6
NMTAP	130	48	4
NMTAP	130	96	2
NMTAP	130	144	4
NMHLD	130	192	6	96
NMTAP	130	288	7
NMSTR	131	0	0
NMSI_	131	0	0	96	96	4
NMSTR	131	192	7
NMSI_	131	192	7	96	96	3
NMSTR	132	0	2
NMSI_	132	0	2	96	96	7
NMTAP	132	192	6
NMTAP	133	0	0
NMTAP	133	0	5
NMTAP	133	48	0
NMTAP	133	48	5
NMTAP	133	96	0
NMTAP	133	96	5
NMTAP	133	192	2
NMTAP	133	192	7
NMTAP	133	240	2
NMTAP	133	240	7
NMTAP	133	288	2
NMTAP	133	288	7
NMTAP	134	0	1
NMTAP	134	0	4
NMTAP	134	48	1
NMTAP	134	48	4
NMTAP	134	96	1
NMTAP	134	96	4
NMTAP	134	192	3
NMTAP	134	192	6
NMTAP	134	240	3
NMTAP	134	240	6
NMTAP	134	288	3
NMTAP	134	288	6
BXHLD	135	0	5	96
BXHLD	135	0	7	96
BXHLD	135	192	0	96
BXHLD	135	192	2	96
NMTAP	136	0	3
NMSTR	136	0	7
NMSI_	136	0	7	96	96	5
CNSI_	136	192	5	0	96	3
CNSI_	136	288	3	0	96	1
NMTHO	136	336	0	1104	C	0	M1
NMTTP	136	336	7	B	1	M1
EXTAP	140	192	0
EXTAP	140	216	7
EXTAP	140	240	0
EXTAP	140	264	7
EXTAP	140	288	0
EXTAP	140	312	7
EXTAP	140	336	0
EXTAP	140	360	7
EXTAP	141	0	0
EXTAP	141	24	7
EXTAP	141	48	0
EXTAP	141	72	7
EXTAP	141	96	0
EXTAP	141	120	7
EXTAP	141	144	0
EXTAP	141	168	7
EXTAP	141	192	0
EXTAP	141	216	1
EXTAP	141	240	2
EXTAP	141	264	3
EXTAP	141	288	4
EXTAP	141	312	5
EXTAP	141	336	6
EXTAP	141	360	7
EXTAP	142	0	0
EXTAP	142	24	1
EXTAP	142	48	2
EXTAP	142	72	3
EXTAP	142	96	4
EXTAP	142	120	5
EXTAP	142	144	6
EXTAP	142	168	7
BXTAP	142	192	0
NMTHO	142	192	0	48	C	0	M1

T_REC_TAP	320
T_REC_BRK	9
T_REC_XTP	107
T_REC_BXX	35
T_REC_HLD	51
T_REC_XHO	8
T_REC_BHO	0
T_REC_BXH	9
T_REC_STR	33
T_REC_BST	2
T_REC_XST	0
T_REC_XBS	2
T_REC_TTP	38
T_REC_THO	4
T_REC_SLD	34
T_REC_BSL	4
T_REC_ALL	656
T_NUM_TAP	498
T_NUM_BRK	61
T_NUM_HLD	63
T_NUM_SLD	34
T_NUM_ALL	656
T_JUDGE_TAP	546
T_JUDGE_HLD	131
T_JUDGE_SLD	38
T_JUDGE_ALL	715
TTM_EACHPAIRS	119
TTM_SCR_TAP	249000
TTM_SCR_BRK	158600
TTM_SCR_HLD	63000
TTM_SCR_SLD	51000
TTM_SCR_ALL	521600
TTM_SCR_S	500050
TTM_SCR_SS	515500
TTM_RAT_ACV	10118

