VERSION	0.00.00	1.04.00
FES_MODE	0
BPM_DEF	240.000	240.000	240.000	240.000
MET_DEF	4	4
RESOLUTION	384
CLK_DEF	384
COMPATIBLE_CODE	MA2

BPM	0	0	240.000
MET	0	0	4	4

NMHLD	3	0	2	384
NMHLD	4	0	3	384
NMHLD	5	0	4	384
NMTAP	6	0	5
NMHLD	7	0	5	384
NMHLD	8	0	4	384
NMHLD	9	0	3	384
NMTAP	10	0	2
NMHLD	11	0	1	384
NMHLD	12	0	2	384
NMHLD	13	0	3	384
NMTAP	14	0	4
NMHLD	15	0	6	384
NMHLD	16	0	5	384
NMHLD	17	0	4	384
NMTAP	18	0	3
EXSTR	19	0	2
NMSXR	19	0	2	96	864	4
EXSTR	23	0	5
NMSXL	23	0	5	96	864	3
NMTAP	27	0	3
NMTAP	27	96	3
NMTAP	27	192	2
NMTAP	28	0	1
NMTAP	28	96	1
NMTAP	28	192	0
NMTAP	29	0	7
NMTAP	29	96	7
NMTAP	29	192	6
NMTAP	30	0	4
NMTAP	30	0	5
NMTAP	30	96	4
NMTAP	30	96	5
NMTAP	30	192	4
NMTAP	30	192	5
NMTAP	31	0	4
NMTAP	31	96	4
NMTAP	31	192	5
NMTAP	32	0	6
NMTAP	32	96	6
NMTAP	32	192	7
NMTAP	33	0	0
NMTAP	33	96	0
NMTAP	33	192	1
NMTAP	34	0	2
NMTAP	34	0	3
NMTAP	34	96	2
NMTAP	34	96	3
NMTAP	34	192	2
NMTAP	34	192	3
NMHLD	35	0	2	192
NMTAP	35	192	3
NMTAP	36	0	2
NMTAP	36	96	2
NMTAP	36	192	2
NMTAP	36	192	3
NMHLD	37	0	1	192
NMTAP	37	192	0
NMTAP	38	0	1
NMTAP	38	96	1
NMTAP	38	192	0
NMTAP	38	192	1
NMHLD	39	0	6	192
NMTAP	39	192	7
NMTAP	40	0	6
NMTAP	40	96	6
NMTAP	40	192	6
NMTAP	40	192	7
NMHLD	41	0	5	192
NMTAP	41	192	4
NMTAP	42	0	5
NMTAP	42	96	5
EXTAP	42	192	4
EXTAP	42	192	5
NMTAP	43	0	5
NMTAP	43	96	5
NMTAP	43	192	6
NMTAP	43	288	6
NMTAP	44	0	7
NMTAP	44	96	7
NMTAP	44	192	0
NMTAP	44	192	1
NMTAP	45	0	2
NMTAP	45	96	2
NMTAP	45	192	1
NMTAP	45	288	1
NMTAP	46	0	0
NMTAP	46	96	0
NMTAP	46	192	6
NMTAP	46	192	7
NMTAP	47	0	6
NMTAP	47	96	6
NMTAP	47	192	5
NMTAP	47	288	5
NMTAP	48	0	4
NMTAP	48	96	4
NMTAP	48	192	2
NMTAP	48	192	3
NMTAP	49	0	1
NMTAP	49	96	1
NMTAP	49	192	2
NMTAP	49	288	2
NMTAP	50	0	3
NMTAP	50	96	3
BXTAP	50	192	4
BXTAP	50	192	5
NMTAP	51	0	5
NMTAP	51	96	5
NMTAP	51	192	6
NMTAP	51	288	6
NMTAP	52	0	7
NMTAP	52	96	7
NMTAP	52	192	0
NMTAP	52	192	1
NMTAP	53	0	2
NMTAP	53	96	2
NMTAP	53	192	1
NMTAP	53	288	1
NMTAP	54	0	0
NMTAP	54	96	0
NMTAP	54	192	6
NMTAP	54	192	7
NMTAP	55	0	6
NMTAP	55	96	6
NMTAP	55	192	5
NMTAP	55	288	5
NMTAP	56	0	4
NMTAP	56	96	4
NMTAP	56	192	2
NMTAP	56	192	3
NMTAP	57	0	1
NMTAP	57	96	1
NMTAP	57	192	2
NMTAP	57	288	2
NMTAP	58	0	3
NMTAP	58	96	3
BXTAP	58	192	4
BXTAP	58	192	5
NMSTR	59	0	6
NMSI_	59	0	6	96	288	3
NMSTR	61	0	1
NMSI_	61	0	1	96	288	5
NMSTR	63	0	7
NMSI_	63	0	7	96	288	3
NMSTR	65	0	2
NMSI_	65	0	2	96	288	7
NMSTR	67	0	6
NMSI_	67	0	6	96	288	3
NMSTR	69	0	1
NMSV_	69	0	1	96	288	4
NMSTR	71	0	5
NMSXL	71	0	5	96	864	3
NMTAP	75	0	2
NMTAP	75	0	3
NMTAP	75	192	2
NMTAP	75	192	3
NMTAP	76	0	1
NMTAP	76	192	1
NMTAP	77	0	0
NMTAP	77	0	7
NMTAP	77	192	0
NMTAP	77	192	7
NMTAP	78	0	6
NMTAP	78	192	6
NMTAP	79	0	4
NMTAP	79	0	5
NMTAP	79	192	4
NMTAP	79	192	5
NMTAP	80	0	6
NMTAP	80	192	6
NMTAP	81	0	0
NMTAP	81	0	7
NMTAP	81	192	0
NMTAP	81	192	7
NMTAP	82	0	1
NMTAP	82	0	6
NMTAP	83	0	6
NMTAP	83	0	7
NMTAP	83	192	6
NMTAP	83	192	7
NMTAP	84	0	5
NMTAP	84	192	5
NMTAP	85	0	3
NMTAP	85	0	4
NMTAP	85	192	3
NMTAP	85	192	4
NMTAP	86	0	2
NMTAP	86	192	2
NMTAP	87	0	0
NMTAP	87	0	1
NMTAP	87	192	0
NMTAP	87	192	1
NMTAP	88	0	2
NMTAP	88	192	2
NMTAP	89	0	3
NMTAP	89	0	4
NMTAP	89	192	3
NMTAP	89	192	4
BRTAP	90	0	2
BRTAP	90	0	5
NMTTP	91	0	2	B	0	L1
NMTTP	91	0	3	B	0	L1
NMTTP	92	0	0	B	0	L1
NMTTP	92	0	1	B	0	L1
NMTTP	93	0	6	B	0	L1
NMTTP	93	0	7	B	0	L1
NMTTP	94	0	4	B	0	L1
NMTTP	94	0	5	B	0	L1
NMTTP	95	0	2	B	0	L1
NMTTP	95	0	3	E	0	L1
NMTTP	96	0	0	B	0	L1
NMTTP	96	0	1	E	0	L1
NMTTP	97	0	6	B	0	L1
NMTTP	97	0	7	E	0	L1
NMTTP	98	0	4	B	0	L1
NMTTP	98	0	5	E	0	L1
NMTHO	99	0	0	1152	C	1	L1
EXTAP	103	0	7
EXTAP	103	96	7
EXTAP	103	192	0
EXTAP	103	192	7
EXTAP	103	288	0
EXTAP	103	288	7
EXTAP	104	0	1
EXTAP	104	96	1
EXTAP	104	192	0
EXTAP	104	192	1
NMTAP	105	0	2
NMTAP	105	96	2
NMTAP	105	192	0
NMTAP	105	192	1
NMTAP	105	288	0
NMTAP	105	288	1
NMTAP	106	0	7
NMTAP	106	96	7
NMTAP	106	192	6
NMTAP	106	192	7
NMTAP	107	0	6
NMTAP	107	96	6
NMTAP	107	192	4
NMTAP	107	192	5
NMTAP	107	288	4
NMTAP	107	288	5
NMTAP	108	0	3
NMTAP	108	96	3
NMTAP	108	192	2
NMTAP	108	192	3
NMTAP	109	0	1
NMTAP	109	96	1
NMTAP	109	192	2
NMTAP	109	192	3
NMTAP	109	288	2
NMTAP	109	288	3
NMTAP	110	0	4
NMTAP	110	96	4
NMTAP	110	192	4
NMTAP	110	192	5
NMTAP	111	0	6
NMTAP	111	96	6
NMTAP	111	192	6
NMTAP	111	192	7
NMTAP	111	288	6
NMTAP	111	288	7
NMTAP	112	0	5
NMTAP	112	96	5
NMTAP	112	192	4
NMTAP	112	192	5
NMTAP	112	288	4
NMTAP	112	288	5
NMTAP	113	0	2
NMTAP	113	96	2
NMTAP	113	192	2
NMTAP	113	192	3
NMTAP	113	288	2
NMTAP	113	288	3
NMTAP	114	0	1
NMTAP	114	96	1
NMTAP	114	192	0
NMTAP	114	192	1
NMTAP	115	0	1
NMTAP	115	96	1
NMTAP	115	192	0
NMTAP	115	192	1
NMTAP	115	288	0
NMTAP	115	288	1
NMTAP	116	0	2
NMTAP	116	96	2
NMTAP	116	192	2
NMTAP	116	192	3
NMTAP	116	288	2
NMTAP	116	288	3
NMTAP	117	0	5
NMTAP	117	96	5
NMTAP	117	192	4
NMTAP	117	192	5
NMTAP	117	288	4
NMTAP	117	288	5
NMTAP	118	0	6
NMTAP	118	96	6
NMTAP	118	192	6
NMTAP	118	192	7
NMSTR	119	0	0
NMSI_	119	0	0	96	288	3
NMSTR	119	0	7
NMSI_	119	0	7	96	288	4
NMTAP	121	0	4
NMTAP	121	0	5
NMTAP	121	96	4
NMTAP	121	96	5
NMTAP	121	192	4
NMTAP	121	192	5
NMTAP	122	0	2
NMTAP	122	0	3
NMTAP	122	96	2
NMTAP	122	96	3
NMTAP	122	192	2
NMTAP	122	192	3
NMTAP	123	0	4
NMTAP	123	96	4
NMTAP	123	192	5
NMTAP	123	288	5
NMTAP	124	0	6
NMTAP	124	96	6
NMTAP	124	192	7
NMTAP	124	288	7
NMTAP	125	0	0
NMTAP	125	96	0
NMTAP	125	192	1
NMTAP	125	288	1
NMTAP	126	0	2
NMTAP	126	96	2
NMTAP	126	192	3
NMTAP	126	192	4
NMTAP	127	0	2
NMTAP	127	96	2
NMTAP	127	192	0
NMTAP	127	192	1
NMTAP	127	288	0
NMTAP	127	288	1
NMTAP	128	0	2
NMTAP	128	0	7
NMTAP	128	96	3
NMTAP	128	96	6
NMTAP	128	192	4
NMTAP	128	192	5
NMTAP	129	0	5
NMTAP	129	96	5
NMTAP	129	192	6
NMTAP	129	192	7
NMTAP	129	288	6
NMTAP	129	288	7
NMTAP	130	0	0
NMTAP	130	0	5
NMTAP	130	96	1
NMTAP	130	96	4
NMTAP	130	192	2
NMTAP	130	192	3
NMTAP	131	0	1
NMTAP	131	96	1
NMTAP	131	192	2
NMTAP	131	192	3
NMTAP	131	288	2
NMTAP	131	288	3
NMTAP	132	0	1
NMTAP	132	0	4
NMTAP	132	96	0
NMTAP	132	96	5
NMTAP	132	192	6
NMTAP	132	192	7
NMTAP	133	0	6
NMTAP	133	96	6
NMTAP	133	192	4
NMTAP	133	192	5
NMTAP	133	288	4
NMTAP	133	288	5
NMTAP	134	0	3
NMTAP	134	0	6
NMTAP	134	96	2
NMTAP	134	96	7
BRTAP	134	192	0
BRTAP	134	192	1
NMTAP	135	0	7
NMTAP	135	96	6
NMTAP	135	192	5
NMTAP	135	288	4
NMTAP	136	0	3
NMTAP	136	96	2
NMTAP	136	192	1
EXSTR	136	288	0
NMSXL	136	288	0	96	960	3
EXSTR	136	288	7
NMSXR	136	288	7	96	960	4
NMTAP	140	192	3
NMTAP	140	192	4
NMTAP	140	288	3
NMTAP	140	288	4
NMTAP	141	0	2
NMTAP	141	0	5
NMTAP	141	96	2
NMTAP	141	96	5
NMTAP	141	192	1
NMTAP	141	192	6
NMTAP	141	288	1
NMTAP	141	288	6
NMTAP	142	0	0
NMTAP	142	0	7
NMTAP	142	96	0
NMTAP	142	96	7
BXTAP	142	192	0
BXTAP	142	192	7

T_REC_TAP	329
T_REC_BRK	4
T_REC_XTP	12
T_REC_BXX	6
T_REC_HLD	16
T_REC_XHO	0
T_REC_BHO	0
T_REC_BXH	0
T_REC_STR	9
T_REC_BST	0
T_REC_XST	4
T_REC_XBS	0
T_REC_TTP	16
T_REC_THO	1
T_REC_SLD	13
T_REC_BSL	0
T_REC_ALL	410
T_NUM_TAP	370
T_NUM_BRK	10
T_NUM_HLD	17
T_NUM_SLD	13
T_NUM_ALL	410
T_JUDGE_TAP	380
T_JUDGE_HLD	68
T_JUDGE_SLD	13
T_JUDGE_ALL	461
TTM_EACHPAIRS	100
TTM_SCR_TAP	185000
TTM_SCR_BRK	26000
TTM_SCR_HLD	17000
TTM_SCR_SLD	19500
TTM_SCR_ALL	247500
TTM_SCR_S	239150
TTM_SCR_SS	246500
TTM_RAT_ACV	10040

