VERSION	0.00.00	1.04.00
FES_MODE	0
BPM_DEF	180.000	180.000	180.000	180.000
MET_DEF	4	4
RESOLUTION	384
CLK_DEF	384
COMPATIBLE_CODE	MA2

BPM	0	0	180.000
MET	0	0	4	4

NMTAP	1	0	5
NMTAP	1	144	4
NMTAP	1	288	3
NMTTP	2	144	3	E	0	M1
NMTTP	2	168	2	E	0	M1
NMTTP	2	192	1	E	0	M1
NMTTP	2	288	0	B	0	M1
NMTTP	2	288	7	B	0	M1
NMTAP	3	0	2
NMTAP	3	144	3
NMTAP	3	288	4
NMTTP	4	144	5	E	0	M1
NMTTP	4	168	6	E	0	M1
NMTTP	4	192	7	E	0	M1
NMTTP	4	288	0	B	0	M1
NMTTP	4	288	7	B	0	M1
NMTAP	5	0	3
NMTAP	5	48	3
NMTAP	5	96	2
NMTAP	5	96	4
NMTAP	5	192	2
NMTAP	5	240	2
NMTAP	5	288	1
NMTAP	5	288	3
NMTAP	6	0	4
NMTAP	6	48	4
NMTAP	6	96	3
NMTAP	6	96	5
NMTAP	6	192	5
NMTAP	6	240	5
NMTAP	6	288	4
NMTAP	6	288	6
NMTAP	7	0	5
NMTAP	7	144	4
NMTAP	7	288	3
NMSTR	7	336	2
NMSCR	7	336	2	96	96	5
NMSTR	8	48	5
NMSCR	8	48	5	96	96	0
NMSTR	8	144	0
NMSCR	8	144	0	96	96	3
NMTAP	8	240	5
NMTAP	8	288	6
NMTAP	8	336	7
EXHLD	9	0	0	96
EXHLD	9	0	4	96
EXTAP	9	144	3
EXTAP	9	144	7
NMSTR	9	240	2
NMSI_	9	240	2	96	48	6
EXSTR	9	288	6
NMSCL	9	288	6	96	48	4
CNSI_	10	48	4	0	48	0
CNSCR	10	96	0	0	96	2
NMTAP	10	192	5
NMTAP	10	240	5
NMTAP	10	288	6
EXHLD	11	0	3	96
EXHLD	11	0	7	96
EXTAP	11	144	2
EXTAP	11	144	6
NMSTR	11	240	5
NMSI_	11	240	5	96	48	1
EXSTR	11	288	1
NMSCR	11	288	1	96	48	3
CNSI_	12	48	3	0	48	7
CNSCL	12	96	7	0	96	5
NMTAP	12	192	2
NMTAP	12	240	2
NMTAP	12	288	1
EXTAP	13	0	0
EXTAP	13	0	4
NMTAP	13	48	5
NMTAP	13	96	6
NMTAP	13	144	7
EXTAP	13	192	0
EXTAP	13	192	3
NMTAP	13	240	2
NMTAP	13	288	1
NMTAP	13	336	0
EXTAP	14	0	6
NMTAP	14	24	7
NMTAP	14	48	6
NMTAP	14	72	7
NMTAP	14	96	6
NMTAP	14	120	7
NMTAP	14	144	6
NMTAP	14	168	7
EXTAP	14	192	5
NMTAP	14	224	3
NMTAP	14	256	3
EXTAP	14	288	4
NMTAP	14	320	2
NMTAP	14	352	2
EXSTR	15	0	1
NMSXL	15	0	1	96	144	5
EXHLD	15	0	6	240
NMTAP	15	336	4
NMTAP	15	336	7
EXTAP	16	0	5
NMTAP	16	48	0
NMTAP	16	48	3
EXTAP	16	96	2
NMTAP	16	144	4
NMTAP	16	144	7
EXTAP	16	192	5
NMTAP	16	240	0
NMTAP	16	240	3
BRTAP	16	288	2
BRTAP	16	288	5
EXTAP	17	0	6
NMTAP	17	24	5
NMTAP	17	48	4
NMTAP	17	72	3
NMTAP	17	96	2
NMTAP	17	120	1
NMTAP	17	144	0
NMTAP	17	168	7
NMSTR	17	192	6
NMSI_	17	192	6	96	48	2
BRTAP	17	288	0
BRTAP	17	288	6
EXTAP	18	0	1
NMTAP	18	24	2
NMTAP	18	48	3
NMTAP	18	72	4
NMTAP	18	96	5
NMTAP	18	120	6
NMTAP	18	144	7
NMTAP	18	168	0
NMSTR	18	192	1
NMSI_	18	192	1	96	48	5
BRTAP	18	288	1
BRTAP	18	288	7
NMTAP	19	0	4
NMTAP	19	0	6
NMTAP	19	48	4
NMTAP	19	48	6
NMTAP	19	96	3
NMTAP	19	96	5
NMTAP	19	144	3
NMTAP	19	144	5
NMTAP	19	192	2
NMTAP	19	216	4
NMTAP	19	240	2
NMTAP	19	264	5
NMTAP	19	288	3
NMTAP	19	312	5
NMTAP	19	336	2
NMTAP	19	360	4
BRTAP	20	0	1
NMTTP	20	96	6	B	0	M1
NMTTP	20	144	7	B	0	M1
NMTTP	20	192	0	B	0	M1
NMTTP	20	240	1	B	0	M1
NMTAP	20	336	2
NMTAP	20	336	4
EXHLD	21	0	5	48
NMTAP	21	48	3
NMHLD	21	96	5	48
NMTAP	21	144	3
NMHLD	21	192	5	48
NMTAP	21	240	4
NMHLD	21	288	5	48
NMTAP	21	336	4
NMHLD	22	0	5	48
NMTAP	22	48	6
NMHLD	22	96	5	48
NMTAP	22	144	7
NMSTR	22	192	5
NMSV_	22	192	5	96	48	7
NMTAP	22	240	0
EXHLD	23	0	2	48
NMTAP	23	48	4
NMHLD	23	96	2	48
NMTAP	23	144	4
NMHLD	23	192	2	48
NMTAP	23	240	3
NMHLD	23	288	2	48
NMTAP	23	336	3
NMHLD	24	0	2	48
NMTAP	24	48	1
NMHLD	24	96	2	48
NMTAP	24	144	0
NMHLD	24	192	2	48
NMTAP	24	240	7
NMTAP	24	288	3
NMTAP	24	288	6
NMTAP	24	336	3
NMTAP	24	336	6
EXHLD	25	0	6	48
NMTAP	25	48	4
NMHLD	25	96	6	48
NMTAP	25	144	4
NMHLD	25	192	6	48
NMTAP	25	240	5
NMHLD	25	288	6	48
NMTAP	25	336	5
NMHLD	26	0	6	48
NMTAP	26	48	7
NMHLD	26	96	6	48
NMTAP	26	144	0
NMHLD	26	192	6	48
NMTAP	26	240	1
NMHLD	26	288	6	48
NMTAP	26	336	2
EXTAP	27	0	3
EXTAP	27	0	5
NMTAP	27	96	6
NMTAP	27	96	7
NMTAP	27	144	0
NMTAP	27	168	7
NMTAP	27	192	0
NMTAP	27	216	7
NMSTR	27	240	0
NMSI_	27	240	0	96	48	3
NMSTR	27	336	0
NMSI_	27	336	0	96	48	5
NMTAP	27	336	7
NMSTR	28	48	0
NMSI_	28	48	0	96	48	4
NMTAP	28	48	1
NMTAP	28	144	0
NMTAP	28	144	7
NMTAP	28	240	5
NMTAP	28	288	3
NMTAP	28	288	5
EXSTR	29	0	2
NMSCL	29	0	2	96	48	0
EXTAP	29	0	4
NMTAP	29	96	3
NMSTR	29	192	4
NMSCR	29	192	4	96	48	6
NMTAP	29	240	4
NMTAP	29	288	3
NMSTR	30	0	2
NMSCL	30	0	2	96	48	0
NMTAP	30	96	3
NMSTR	30	144	3
NMSUL	30	144	3	96	96	4
NMTAP	30	240	3
NMTAP	30	240	7
NMTAP	30	288	0
EXTAP	31	0	2
EXSTR	31	0	5
NMSCR	31	0	5	96	48	7
NMTAP	31	96	4
NMSTR	31	192	3
NMSCL	31	192	3	96	48	1
NMTAP	31	240	3
NMTAP	31	288	4
NMSTR	32	0	5
NMSCR	32	0	5	96	48	7
NMTAP	32	96	4
NMSTR	32	144	4
NMSCL	32	144	4	96	48	1
NMTAP	32	240	0
NMTAP	32	240	4
NMTAP	32	288	7
NMTAP	32	336	7
NMSTR	33	0	6
NMSI_	33	0	6	96	48	4
NMTAP	33	48	6
NMSTR	33	96	0
NMSI_	33	96	0	96	48	2
NMTAP	33	144	0
NMSTR	33	192	3
NMSI_	33	192	3	96	48	5
NMTAP	33	240	3
NMSTR	33	288	1
NMSI_	33	288	1	96	48	7
NMTAP	33	336	1
NMTAP	34	0	6
NMTAP	34	96	4
NMTAP	34	96	6
NMTAP	34	168	3
NMTAP	34	168	5
NMTAP	34	240	2
NMTAP	34	240	4
BRTAP	34	288	2
BRTAP	34	288	4
NMTAP	35	0	0
NMTAP	35	0	1
NMTAP	35	48	0
NMTAP	35	96	0
NMTAP	35	96	7
NMTAP	35	144	7
NMTAP	35	192	6
NMTAP	35	192	7
NMTAP	35	288	4
NMTAP	35	288	5
NMSTR	35	336	3
NMSI_	35	336	3	96	48	6
NMTAP	35	336	4
NMTAP	36	48	2
NMSTR	36	48	3
NMSI_	36	48	3	96	48	0
NMSTR	36	144	3
NMSLR	36	144	3	96	96	0
NMTAP	36	144	4
NMTAP	36	240	2
NMTAP	36	240	3
NMTAP	36	336	1
NMTAP	36	360	2
EXSTR	37	0	3
NMSXR	37	0	3	96	144	0
EXSTR	37	0	7
NMSXR	37	0	7	96	144	4
EXHLD	37	288	1	96
EXHLD	37	288	5	96
EXTAP	38	48	2
EXTAP	38	48	6
NMSTR	38	96	3
NMSV_	38	96	3	96	48	0
NMSTR	38	96	7
NMSV_	38	96	7	96	48	4
EXTAP	38	192	3
EXTAP	38	192	7
NMTAP	38	288	2
NMTAP	38	336	2
EXSTR	39	0	3
NMSI_	39	0	3	96	48	1
EXSTR	39	0	6
NMSI_	39	0	6	96	48	0
EXTAP	39	96	3
EXTAP	39	96	6
NMTAP	39	192	7
NMTAP	39	216	6
NMTAP	39	240	5
NMTAP	39	264	4
EXHLD	39	288	3	96
EXHLD	39	288	7	96
EXTAP	40	48	0
EXTAP	40	48	4
EXTAP	40	120	3
EXTAP	40	120	5
NMSTR	40	192	4
NMSI_	40	192	4	96	48	1
NMSI_	40	192	4	96	48	7
NMTAP	40	240	4
BRTAP	40	288	4
EXSTR	41	0	0
NMSXL	41	0	0	96	144	4
NMTAP	41	96	5
NMTAP	41	192	5
NMTAP	41	240	6
NMTAP	41	288	7
NMTAP	41	336	2
NMTAP	41	336	6
NMSTR	42	0	1
NMSSL	42	0	1	96	96	5
NMSTR	42	0	5
NMSSL	42	0	5	96	96	1
BRTAP	42	288	2
BRTAP	42	288	4
NMSTR	43	0	6
NMSCL	43	0	6	96	48	3
NMSTR	43	0	7
NMSCR	43	0	7	96	48	2
NMTAP	43	96	6
NMTAP	43	96	7
EXTAP	43	192	1
EXTAP	43	192	3
EXTAP	43	264	0
EXTAP	43	264	7
EXTAP	43	336	4
EXTAP	43	336	6
EXTAP	44	0	4
EXSTR	44	0	6
NMSF_	44	0	6	96	192	2
NMTAP	45	0	2
NMTAP	45	0	3
NMTAP	45	144	3
NMTAP	45	144	4
NMTAP	45	288	4
NMHLD	45	288	5	336
NMTAP	46	240	6
NMTAP	46	288	6
NMTAP	47	0	4
NMTAP	47	0	5
NMTAP	47	144	3
NMTAP	47	144	4
NMHLD	47	288	2	336
NMTAP	47	288	3
NMTAP	48	240	1
NMTAP	48	288	1
EXTAP	49	0	0
EXTAP	49	0	7
NMTAP	49	96	0
NMTAP	49	96	5
NMTAP	49	144	6
NMTAP	49	168	7
NMTAP	49	192	6
NMTAP	49	216	7
NMTAP	49	240	6
NMTAP	49	288	0
NMTAP	49	288	5
NMTAP	50	0	2
NMTAP	50	0	7
NMTAP	50	48	1
NMTAP	50	72	0
NMTAP	50	96	1
NMTAP	50	120	0
NMTAP	50	144	1
NMTAP	50	192	2
NMTAP	50	192	7
NMTAP	50	240	0
NMTAP	50	240	1
NMTAP	50	288	2
NMTAP	50	288	7
EXTAP	51	0	3
EXTAP	51	0	4
NMTAP	51	96	2
NMTAP	51	96	7
NMTAP	51	144	1
NMTAP	51	168	0
NMTAP	51	192	1
NMTAP	51	216	0
NMTAP	51	240	1
NMTAP	51	288	2
NMTAP	51	288	7
NMTAP	52	0	0
NMTAP	52	0	5
NMTAP	52	48	6
NMTAP	52	72	7
NMTAP	52	96	6
NMTAP	52	120	7
NMTAP	52	144	6
NMTAP	52	192	0
NMTAP	52	192	5
NMTAP	52	288	3
NMTAP	52	312	2
NMTAP	52	336	1
NMTAP	52	360	0
EXHLD	53	0	4	144
EXHLD	53	0	7	144
EXHLD	53	192	2	144
EXHLD	53	192	5	144
EXHLD	54	0	0	192
EXHLD	54	0	3	192
NMTAP	54	288	7
NMTAP	54	312	6
NMTAP	54	336	5
NMTAP	54	360	4
EXHLD	55	0	1	144
EXHLD	55	0	3	144
EXHLD	55	192	4	144
EXHLD	55	192	6	144
EXTAP	56	0	3
EXTAP	56	0	5
NMTAP	56	48	2
EXTAP	56	96	1
EXTAP	56	96	4
NMTAP	56	144	5
EXTAP	56	192	3
EXTAP	56	192	6
NMTAP	56	240	7
NMTAP	56	264	4
NMTAP	56	288	7
EXSTR	57	0	3
NMSCL	57	0	3	96	48	0
EXTAP	57	0	6
NMTAP	57	96	4
NMSTR	57	192	5
NMSCR	57	192	5	96	48	0
NMTAP	57	240	5
NMTAP	57	288	4
EXSTR	58	0	2
NMSCL	58	0	2	96	48	7
NMTAP	58	96	4
NMSTR	58	144	3
NMSCR	58	144	3	96	48	6
NMTAP	58	240	3
NMTAP	58	240	7
NMTAP	58	288	0
NMSTR	59	0	1
NMSI_	59	0	1	96	48	5
NMSTR	59	48	5
NMSI_	59	48	5	96	48	1
NMTAP	59	96	1
NMTAP	59	144	4
NMTAP	59	240	0
NMTAP	59	240	3
NMTAP	59	288	1
NMTAP	59	288	4
NMTAP	59	336	2
NMTAP	59	336	5
EXSTR	60	0	3
BRSXL	60	0	3	96	192	6
BRSXR	60	0	3	96	192	0
EXTAP	60	0	6
NMSTR	61	0	2
NMSUR	61	0	2	96	192	6
NMTTP	61	144	5	E	0	M1
NMTTP	61	240	7	E	0	M1
NMSTR	62	0	7
NMSUR	62	0	7	96	192	3
NMTTP	62	144	4	E	0	M1
NMTTP	62	240	2	E	0	M1
NMSTR	63	0	0
NMSUL	63	0	0	96	192	4
NMTTP	63	144	4	E	0	M1
NMTTP	63	240	6	E	0	M1
EXTAP	64	0	3
EXSTR	64	0	5
NMSI_	64	0	5	96	48	1
NMSTR	64	96	2
NMSI_	64	96	2	96	48	6
NMTAP	64	96	5
NMTAP	64	192	2
NMTAP	64	192	7
NMTAP	64	288	5
NMTAP	64	312	4
NMTAP	64	336	5
NMTAP	65	0	6
NMTAP	65	0	7
NMTAP	65	48	0
NMTAP	65	96	1
NMTAP	65	96	2
NMTAP	65	144	3
NMTAP	65	192	4
NMTAP	65	192	5
NMTAP	65	240	6
NMTAP	65	288	0
NMTAP	65	288	7
EXTAP	66	0	1
NMTAP	66	24	0
NMTAP	66	48	1
NMTAP	66	72	0
NMTAP	66	96	1
NMTAP	66	120	0
NMTAP	66	144	1
NMTAP	66	168	0
EXTAP	66	192	2
NMTAP	66	224	4
NMTAP	66	256	4
EXTAP	66	288	3
NMTAP	66	320	5
NMTAP	66	352	5
EXHLD	67	0	1	240
EXSTR	67	0	6
NMSXR	67	0	6	96	144	2
NMTAP	67	336	0
NMTAP	67	336	3
EXTAP	68	0	2
NMTAP	68	48	4
NMTAP	68	48	7
EXTAP	68	96	5
NMTAP	68	144	0
NMTAP	68	144	3
EXTAP	68	192	2
NMTAP	68	240	4
NMTAP	68	240	7
NMTAP	68	288	3
NMTAP	68	312	2
NMTAP	68	336	1
NMTAP	68	360	0
EXTAP	69	0	6
EXSTR	69	0	7
NMSI_	69	0	7	96	48	3
NMSTR	69	96	5
NMSXL	69	96	5	96	144	0
NMTAP	69	96	7
NMHLD	69	192	2	96
NMTAP	69	192	5
NMTAP	69	336	3
NMTAP	69	360	2
NMTAP	70	0	1
NMSTR	70	0	6
NMSI_	70	0	6	96	48	4
NMTAP	70	96	0
NMTAP	70	144	0
NMSTR	70	192	3
NMSI_	70	192	3	96	48	6
NMSTR	70	192	7
NMSI_	70	192	7	96	48	2
NMTAP	70	288	3
NMTAP	70	288	7
NMSTR	71	0	1
NMSI_	71	0	1	96	48	5
NMTAP	71	96	1
NMTAP	71	96	5
NMSTR	71	144	6
NMSXR	71	144	6	96	144	3
NMTAP	71	240	6
NMTAP	71	240	7
NMTAP	71	336	0
NMTAP	71	360	1
NMSTR	72	0	2
NMSCL	72	0	2	96	48	0
NMTAP	72	96	2
NMTAP	72	96	4
NMTAP	72	192	6
NMTAP	72	192	7
NMTAP	72	240	6
NMTAP	72	240	7
NMTAP	72	264	0
NMTAP	72	264	5
NMTAP	72	288	1
NMTAP	72	288	4
EXSTR	73	0	0
NMSI_	73	0	0	96	48	4
EXTAP	73	0	1
NMTAP	73	96	0
NMSTR	73	96	2
NMSXR	73	96	2	96	144	7
NMTAP	73	192	2
NMHLD	73	192	5	96
NMTAP	73	336	4
NMTAP	73	360	5
NMSTR	74	0	1
NMSCR	74	0	1	96	48	3
NMTAP	74	0	6
NMTAP	74	96	7
NMTAP	74	144	7
NMSTR	74	192	0
NMSI_	74	192	0	96	48	5
NMSTR	74	192	4
NMSI_	74	192	4	96	48	1
NMTAP	74	288	0
NMTAP	74	288	4
NMSTR	75	0	6
NMSI_	75	0	6	96	48	2
NMTAP	75	96	0
NMTAP	75	96	6
NMSTR	75	144	1
NMSI_	75	144	1	96	48	5
NMTAP	75	240	7
NMTAP	75	288	7
NMSTR	75	336	4
NMSI_	75	336	4	96	48	0
NMSTR	75	336	6
NMSI_	75	336	6	96	48	2
EXTAP	76	48	4
EXTAP	76	48	6
NMTAP	76	144	1
NMTAP	76	144	3
NMTAP	76	192	1
NMTAP	76	192	3
NMTAP	76	240	1
NMTAP	76	240	3
NMTAP	76	264	0
NMTAP	76	264	4
NMTAP	76	288	5
NMTAP	76	288	7
NMTAP	77	0	0
NMTAP	77	0	6
NMTAP	77	48	0
NMTAP	77	48	6
EXSTR	77	96	0
NMSI_	77	96	0	96	48	4
EXTAP	77	96	6
NMSTR	77	192	7
NMSI_	77	192	7	96	48	3
NMSTR	77	288	6
NMSI_	77	288	6	96	48	2
NMSTR	78	0	5
NMSI_	78	0	5	96	48	1
NMSTR	78	96	4
NMSI_	78	96	4	96	48	0
NMSTR	78	192	3
NMSCR	78	192	3	96	48	6
NMTAP	78	288	2
NMTAP	78	336	2
EXTAP	79	0	1
EXSTR	79	0	7
NMSI_	79	0	7	96	48	3
NMSTR	79	96	0
NMSI_	79	96	0	96	48	4
NMSTR	79	192	1
NMSI_	79	192	1	96	48	5
NMSTR	79	288	2
NMSI_	79	288	2	96	48	6
NMSTR	80	0	3
NMSI_	80	0	3	96	48	7
NMTAP	80	96	4
NMTAP	80	192	2
NMTAP	80	192	6
NMTAP	80	240	2
NMTAP	80	240	6
NMTAP	80	264	1
NMTAP	80	264	5
NMTAP	80	288	0
NMTAP	80	288	4
BXTAP	81	0	3
BXTAP	81	0	6
BRTAP	81	72	1
BRTAP	81	72	4
BRTAP	81	144	5
BRTAP	81	144	7
BRTAP	81	216	0
BRTAP	81	216	2
NMTAP	81	288	7
NMTAP	81	304	6
NMTAP	81	320	5
NMTAP	81	336	1
NMTAP	81	352	2
NMTAP	81	368	3
BXTAP	82	0	4
BXTAP	82	0	6
BRTAP	82	72	1
BRTAP	82	72	3
BRTAP	82	144	5
BRTAP	82	144	7
BRTAP	82	216	0
BRTAP	82	216	2
NMTAP	82	288	1
NMTAP	82	288	6
NMTAP	82	336	1
NMTAP	82	336	6
NMSTR	83	0	0
NMSI_	83	0	0	96	48	4
NMTAP	83	48	0
NMSTR	83	96	6
NMSI_	83	96	6	96	48	2
NMTAP	83	144	6
NMTAP	83	192	2
NMTAP	83	216	1
NMTAP	83	240	0
NMTAP	83	264	7
NMTAP	83	288	6
NMTAP	83	312	5
NMTAP	83	336	4
NMTAP	83	360	3
EXTAP	84	0	2
EXTAP	84	0	6
NMTAP	84	48	1
NMSTR	84	48	7
NMSI_	84	48	7	96	48	2
NMSI_	84	48	7	96	48	4
NMSTR	84	144	7
BRSI_	84	144	7	96	48	3
BRSI_	84	144	7	96	48	3
NMTAP	84	240	7
CNSI_	84	288	3	0	48	1
CNSI_	84	288	3	0	48	5
EXTAP	85	0	0
EXTAP	85	0	6
NMTAP	85	48	5
NMTAP	85	72	4
NMTAP	85	120	2
NMTAP	85	144	3
NMSTR	85	192	1
NMSXR	85	192	1	96	48	7
NMSTR	85	240	5
NMSXR	85	240	5	96	48	3
NMTAP	85	288	1
NMTAP	85	336	5
NMTAP	86	0	0
NMTAP	86	48	2
NMTAP	86	72	3
NMTAP	86	120	5
NMTAP	86	144	4
NMSTR	86	192	6
NMSXL	86	192	6	96	48	0
NMSTR	86	240	2
NMSXL	86	240	2	96	48	4
NMTAP	86	288	6
NMTAP	86	336	2
NMTAP	87	0	7
NMTAP	87	48	5
NMTAP	87	72	4
NMTAP	87	120	2
NMTAP	87	144	3
NMSTR	87	192	1
NMSXR	87	192	1	96	48	7
NMSTR	87	240	5
NMSXR	87	240	5	96	48	3
NMTAP	87	288	1
NMTAP	87	336	5
NMTAP	88	0	0
NMTAP	88	24	0
NMTAP	88	72	2
NMTAP	88	72	4
NMTAP	88	120	6
NMTAP	88	144	6
NMTAP	88	192	4
NMTAP	88	216	3
NMTAP	88	216	5
NMTAP	88	240	2
NMTAP	88	240	6
NMTAP	88	264	1
NMTAP	88	264	7
NMTAP	88	312	6
NMTAP	88	336	2
BRHLD	89	0	3	96
BRSTR	89	0	5
NMSUR	89	0	5	96	48	1
BRSTR	89	192	2
NMSUL	89	192	2	96	48	6
BRHLD	89	192	4	96
EXTAP	90	0	0
EXTAP	90	0	3
NMTAP	90	48	2
EXTAP	90	96	4
EXTAP	90	96	7
NMTAP	90	144	5
EXSTR	90	192	0
NMSI_	90	192	0	96	48	4
EXSTR	90	192	3
NMSI_	90	192	3	96	48	7
BRTAP	90	288	0
BRTAP	90	288	3
NMTAP	91	0	2
NMTAP	91	0	6
NMTAP	91	48	2
NMTAP	91	48	6
NMTAP	91	96	1
NMTAP	91	96	5
NMTAP	91	144	1
NMTAP	91	144	5
NMTAP	91	192	0
NMTAP	91	192	4
NMTAP	91	216	3
NMTAP	91	240	2
NMTAP	91	264	1
NMTAP	91	288	0
NMTAP	91	312	7
NMTAP	91	336	2
NMTAP	91	336	6
NMTAP	92	0	1
NMTAP	92	24	3
NMTAP	92	72	2
NMTAP	92	72	5
NMTAP	92	120	6
NMTAP	92	144	4
NMTAP	92	192	0
NMTAP	92	216	3
NMTAP	92	264	1
NMTAP	92	264	5
NMTAP	92	288	2
NMTAP	92	288	6
NMTAP	92	312	3
NMTAP	92	312	7
NMTAP	92	336	0
NMTAP	92	336	4
NMTAP	92	360	1
NMTAP	92	360	5

T_REC_TAP	467
T_REC_BRK	26
T_REC_XTP	70
T_REC_BXX	4
T_REC_HLD	22
T_REC_XHO	23
T_REC_BHO	2
T_REC_BXH	0
T_REC_STR	73
T_REC_BST	2
T_REC_XST	22
T_REC_XBS	0
T_REC_TTP	20
T_REC_THO	0
T_REC_SLD	97
T_REC_BSL	4
T_REC_ALL	832
T_NUM_TAP	652
T_NUM_BRK	38
T_NUM_HLD	45
T_NUM_SLD	97
T_NUM_ALL	832
T_JUDGE_TAP	684
T_JUDGE_HLD	101
T_JUDGE_SLD	101
T_JUDGE_ALL	886
TTM_EACHPAIRS	180
TTM_SCR_TAP	326000
TTM_SCR_BRK	98800
TTM_SCR_HLD	45000
TTM_SCR_SLD	145500
TTM_SCR_ALL	615300
TTM_SCR_S	593200
TTM_SCR_SS	611500
TTM_RAT_ACV	10062

