VERSION	0.00.00	1.04.00
FES_MODE	0
BPM_DEF	180.000	180.000	180.000	180.000
MET_DEF	4	4
RESOLUTION	384
CLK_DEF	384
COMPATIBLE_CODE	MA2

BPM	0	0	180.000
MET	0	0	4	4

NMTTP	1	0	5	E	0	M1
NMTTP	1	144	4	E	0	M1
NMTTP	1	288	3	E	0	M1
NMHLD	2	144	1	144
NMTTP	3	0	3	E	0	M1
NMTTP	3	144	4	E	0	M1
NMTTP	3	288	5	E	0	M1
NMHLD	4	144	6	144
NMTAP	4	288	4
NMHLD	5	0	3	96
NMHLD	5	0	5	96
NMHLD	5	144	2	96
NMHLD	5	144	4	96
NMHLD	5	288	1	384
NMTAP	6	0	3
NMTAP	6	96	3
NMTAP	6	192	3
NMTAP	6	288	3
NMHLD	7	0	2	96
NMHLD	7	0	4	96
NMHLD	7	144	3	96
NMHLD	7	144	5	96
NMHLD	7	288	6	384
NMTAP	8	0	4
NMTAP	8	96	4
NMTAP	8	192	4
NMTAP	8	288	4
NMHLD	9	0	6	96
NMHLD	9	0	7	96
NMHLD	9	144	0	96
NMHLD	9	144	7	96
NMSTR	9	288	0
NMSCL	9	288	0	96	96	5
NMSTR	9	288	1
NMSUL	9	288	1	96	96	4
NMTAP	10	192	4
NMTAP	10	192	6
NMTAP	10	288	1
NMTAP	10	288	3
NMHLD	11	0	0	96
NMHLD	11	0	1	96
NMHLD	11	144	0	96
NMHLD	11	144	7	96
NMSTR	11	288	6
NMSUR	11	288	6	96	96	3
NMSTR	11	288	7
NMSCR	11	288	7	96	96	2
NMTAP	12	192	1
NMTAP	12	192	3
NMTAP	12	288	4
NMTAP	12	288	6
NMTAP	13	0	3
NMTAP	13	48	3
NMTAP	13	96	5
NMTAP	13	144	5
NMTAP	13	192	2
NMTAP	13	240	2
NMTAP	13	288	4
NMTAP	13	336	4
NMSTR	14	0	1
NMSI_	14	0	1	96	96	4
NMSTR	14	192	5
NMSI_	14	192	5	96	96	0
NMTAP	15	0	1
NMTAP	15	96	2
NMTAP	15	96	3
NMHLD	15	192	4	96
NMHLD	15	192	5	96
NMTAP	16	0	5
NMTAP	16	0	7
NMTAP	16	96	2
NMTAP	16	96	3
NMTAP	16	192	0
NMTAP	16	192	2
BRTAP	16	288	4
BRTAP	16	288	5
NMSTR	17	0	2
NMSCL	17	0	2	96	96	7
NMSTR	17	0	6
NMSCL	17	0	6	96	96	3
EXTAP	17	288	0
EXTAP	17	288	4
NMSTR	18	0	1
NMSCR	18	0	1	96	96	4
NMSTR	18	0	5
NMSCR	18	0	5	96	96	0
EXTAP	18	288	3
EXTAP	18	288	7
NMHLD	19	0	6	96
NMHLD	19	96	4	96
NMHLD	19	192	3	96
NMTAP	19	288	1
NMTTP	20	0	4	E	0	M1
NMTTP	20	96	2	E	0	M1
NMTTP	20	192	0	E	0	M1
NMTTP	20	288	6	E	0	M1
NMTAP	21	0	6
NMTAP	21	96	6
NMTAP	21	192	4
NMTAP	21	192	6
NMTAP	21	288	4
NMTAP	21	288	6
NMTAP	22	0	2
NMTAP	22	96	2
NMHLD	22	192	0	96
NMHLD	22	192	2	96
NMTAP	23	0	1
NMTAP	23	96	1
NMTAP	23	192	1
NMTAP	23	192	3
NMTAP	23	288	1
NMTAP	23	288	3
NMTAP	24	0	5
NMTAP	24	96	5
NMTAP	24	192	5
NMTAP	24	192	7
NMTAP	24	288	5
NMTAP	24	288	7
NMTAP	25	0	0
NMTAP	25	96	1
NMTAP	25	96	3
NMTAP	25	192	7
NMTAP	25	288	4
NMTAP	25	288	6
NMTAP	26	0	0
NMTAP	26	96	2
NMTAP	26	96	3
NMTAP	26	192	7
NMTAP	26	288	4
NMTAP	26	288	5
NMTAP	27	0	1
NMTAP	27	48	1
NMTAP	27	96	3
NMTAP	27	144	2
NMTAP	27	192	6
NMTAP	27	240	6
NMTAP	27	288	4
NMHLD	27	336	5	96
NMHLD	28	48	7	96
NMHLD	28	144	0	96
NMTAP	28	240	2
NMTAP	28	288	2
NMTAP	29	0	0
NMTAP	29	0	1
NMTAP	29	96	4
NMTAP	29	96	6
NMTAP	29	192	6
NMTAP	29	192	7
NMTAP	29	288	1
NMTAP	29	288	3
NMTAP	30	0	0
NMTAP	30	0	1
NMSTR	30	96	0
NMSUR	30	96	0	96	96	5
NMSTR	30	96	1
NMSCR	30	96	1	96	96	4
NMTAP	31	0	6
NMTAP	31	48	6
NMTAP	31	96	4
NMTAP	31	144	4
NMTAP	31	192	5
NMTAP	31	288	6
NMTAP	31	288	7
NMTAP	31	336	6
NMTAP	31	336	7
NMTAP	32	48	0
NMTAP	32	48	1
NMTAP	32	96	0
NMTAP	32	96	1
NMTAP	32	192	2
NMTAP	32	192	3
NMTAP	32	288	1
NMTAP	32	288	4
NMTAP	33	0	2
NMTAP	33	0	3
NMTAP	33	96	0
NMTAP	33	192	4
NMTAP	33	192	5
NMHLD	33	288	6	96
NMSTR	34	0	0
NMSCR	34	0	0	96	96	3
NMSTR	34	192	7
NMSCL	34	192	7	96	96	4
NMTAP	35	0	1
NMTAP	35	48	1
NMTAP	35	96	3
NMTAP	35	144	3
NMTAP	35	192	2
NMTAP	35	240	2
NMTAP	35	288	6
NMHLD	35	336	6	96
NMHLD	36	48	4	96
NMHLD	36	144	3	96
EXTAP	36	240	1
EXTAP	36	288	1
NMHLD	37	0	0	144
NMHLD	37	0	1	144
NMTAP	37	192	0
NMTAP	37	192	1
NMHLD	37	288	4	96
NMHLD	37	288	5	96
NMTAP	38	48	4
NMTAP	38	48	5
NMSTR	38	96	3
NMSCL	38	96	3	96	96	0
NMSTR	38	96	6
NMSI_	38	96	6	96	96	4
NMTAP	39	0	1
NMTAP	39	0	3
NMTAP	39	96	3
NMTAP	39	96	4
NMTAP	39	192	4
NMTAP	39	192	6
NMHLD	39	288	6	96
NMHLD	39	288	7	96
NMSTR	40	48	6
NMSI_	40	48	6	96	96	2
NMSTR	40	48	7
NMSI_	40	48	7	96	96	3
NMTAP	41	0	1
NMTAP	41	0	3
NMTAP	41	96	2
NMTAP	41	192	4
NMTAP	41	192	6
NMTAP	41	288	5
NMTAP	42	0	0
NMTAP	42	0	3
NMTAP	42	96	2
NMTAP	42	192	4
NMTAP	42	192	7
NMTAP	42	288	5
NMTAP	43	0	1
NMTAP	43	0	3
NMTAP	43	96	0
NMTAP	43	192	4
NMTAP	43	192	6
EXSTR	43	288	7
NMSCL	43	288	7	96	384	0
NMTTP	45	0	0	C	1	M1
NMTTP	47	0	5	E	0	M1
NMTTP	47	144	4	E	0	M1
NMTTP	47	288	3	E	0	M1
NMTAP	48	96	2
NMTAP	48	192	3
NMTAP	48	288	4
NMTAP	49	0	5
NMTAP	49	96	4
NMTAP	49	96	5
NMTAP	49	192	2
NMTAP	49	288	2
NMTAP	49	288	3
NMTAP	50	0	6
NMTAP	50	96	4
NMTAP	50	96	5
NMTAP	50	192	1
NMTAP	50	288	2
NMTAP	50	288	3
NMTAP	51	0	5
NMTAP	51	48	5
NMTAP	51	96	3
NMTAP	51	144	3
NMTAP	51	192	4
NMTAP	51	240	4
NMTAP	51	288	2
NMTAP	51	336	2
NMSTR	52	0	3
NMSCR	52	0	3	96	144	7
BRSTR	53	0	6
NMSI_	53	0	6	96	48	3
BRSTR	53	0	7
NMSI_	53	0	7	96	48	3
BRSTR	53	192	0
NMSI_	53	192	0	96	48	4
BRSTR	53	192	1
NMSI_	53	192	1	96	48	4
NMHLD	54	0	6	96
NMHLD	54	96	4	96
NMTAP	54	192	3
NMTAP	54	288	2
NMTAP	54	288	3
BRSTR	55	0	0
NMSI_	55	0	0	96	48	4
BRSTR	55	0	1
NMSI_	55	0	1	96	48	4
BRSTR	55	192	6
NMSI_	55	192	6	96	48	3
BRSTR	55	192	7
NMSI_	55	192	7	96	48	3
NMHLD	56	0	1	96
NMHLD	56	96	3	96
NMTAP	56	192	4
NMTAP	56	288	4
NMTAP	56	288	5
NMSTR	57	0	6
NMSI_	57	0	6	96	48	3
NMSTR	57	0	7
NMSI_	57	0	7	96	48	3
NMTAP	57	192	1
NMTAP	57	240	1
NMTAP	57	288	3
NMSTR	58	0	0
NMSI_	58	0	0	96	48	4
NMSTR	58	0	1
NMSI_	58	0	1	96	48	4
NMTAP	58	192	6
NMTAP	58	240	6
NMTAP	58	288	4
NMSTR	59	0	6
NMSI_	59	0	6	96	48	3
NMSTR	59	0	7
NMSI_	59	0	7	96	48	3
NMSTR	59	192	0
NMSI_	59	192	0	96	48	4
NMSTR	59	192	1
NMSI_	59	192	1	96	48	4
BRTAP	60	0	6
BRTAP	60	0	7
NMHLD	61	0	6	384
NMTTP	61	192	4	B	0	M1
NMHLD	62	0	1	384
NMTTP	62	192	3	B	0	M1
NMHLD	63	0	6	384
NMTTP	63	192	4	E	0	M1
EXTAP	64	0	4
EXTAP	64	96	3
EXTAP	64	96	4
EXTAP	64	192	1
EXTAP	64	192	3
BRTAP	64	288	0
BRTAP	64	288	7
NMTAP	65	0	1
NMTAP	65	48	1
NMTAP	65	96	3
NMTAP	65	192	6
NMTAP	65	240	6
NMTAP	65	288	4
NMTAP	66	0	3
NMTAP	66	24	4
NMTAP	66	48	3
NMTAP	66	72	4
NMTAP	66	96	3
NMTAP	66	120	4
NMTAP	66	144	3
NMTAP	66	168	4
EXTAP	66	192	3
EXTAP	66	288	2
EXTAP	66	288	5
BXHLD	67	0	1	240
BXHLD	67	0	6	240
NMTAP	67	336	0
NMTAP	67	336	5
NMTAP	68	48	2
NMTAP	68	48	7
NMTAP	68	144	0
NMTAP	68	144	5
NMTAP	68	240	2
NMTAP	68	240	7
BRTAP	68	288	2
BRTAP	68	288	7
NMSTR	69	0	1
NMSI_	69	0	1	96	48	3
NMSTR	69	96	7
NMSI_	69	96	7	96	48	5
NMSTR	69	192	0
NMSI_	69	192	0	96	48	4
NMTAP	69	288	7
NMTAP	70	0	6
NMTAP	70	48	6
NMTAP	70	96	4
NMTAP	70	144	4
NMTAP	70	192	5
NMTAP	70	288	6
NMTAP	70	288	7
NMSTR	71	0	6
NMSI_	71	0	6	96	48	3
NMTAP	71	0	7
NMTAP	71	192	0
NMSTR	71	192	1
NMSI_	71	192	1	96	48	4
NMSTR	72	0	6
NMSI_	72	0	6	96	48	3
NMTAP	72	0	7
NMTAP	72	192	1
NMTAP	72	288	2
NMTAP	72	288	4
NMSTR	73	0	6
NMSI_	73	0	6	96	48	4
NMSTR	73	96	0
NMSI_	73	96	0	96	48	2
NMSTR	73	192	7
NMSI_	73	192	7	96	48	3
NMTAP	73	288	0
NMTAP	74	0	1
NMTAP	74	48	1
NMTAP	74	96	3
NMTAP	74	144	3
NMTAP	74	192	2
NMTAP	74	288	0
NMTAP	74	288	1
NMTAP	75	0	0
NMSTR	75	0	1
NMSI_	75	0	1	96	48	4
NMSTR	75	192	6
NMSI_	75	192	6	96	48	3
NMTAP	75	192	7
NMTAP	76	0	0
NMTAP	76	0	1
NMTAP	76	48	0
NMTAP	76	48	1
NMTAP	76	144	6
NMTAP	76	144	7
NMTAP	76	240	4
NMTAP	76	240	5
NMTAP	76	288	4
NMTAP	76	288	5
NMSTR	77	0	6
NMSI_	77	0	6	96	48	4
NMSTR	77	96	0
NMSI_	77	96	0	96	48	2
NMSTR	77	192	3
NMSI_	77	192	3	96	48	7
NMTAP	77	288	0
NMTAP	78	0	1
NMTAP	78	48	1
NMTAP	78	96	7
NMTAP	78	144	7
NMTAP	78	192	0
NMTAP	78	288	0
NMTAP	78	288	1
NMSTR	79	0	0
NMSI_	79	0	0	96	48	5
NMSTR	79	0	1
NMSI_	79	0	1	96	48	4
NMSTR	79	192	6
NMSI_	79	192	6	96	48	3
NMSTR	79	192	7
NMSI_	79	192	7	96	48	2
NMSTR	80	0	0
NMSI_	80	0	0	96	48	5
NMSTR	80	0	1
NMSI_	80	0	1	96	48	4
NMTAP	80	192	6
NMTAP	80	192	7
NMTAP	80	288	6
NMTAP	80	288	7
BXTAP	81	0	5
BXTAP	81	0	7
BXTAP	81	72	0
BXTAP	81	72	6
BXTAP	81	144	1
BXTAP	81	144	7
BXHLD	81	216	0	72
BXHLD	81	216	2	72
BXTAP	82	0	0
BXTAP	82	0	2
BXTAP	82	72	1
BXTAP	82	72	7
BXTAP	82	144	0
BXTAP	82	144	6
BXHLD	82	216	5	72
BXHLD	82	216	7	72
NMTAP	83	0	1
NMTAP	83	48	1
NMTAP	83	96	6
NMTAP	83	144	6
NMTAP	83	192	0
NMTAP	83	216	1
NMTAP	83	240	2
NMTAP	83	264	3
NMTAP	83	288	4
NMTAP	83	312	5
NMTAP	83	336	6
NMTAP	83	360	7
NMTAP	84	0	0
BRTAP	84	288	0
BRTAP	84	288	7
NMHLD	85	0	1	72
NMHLD	85	72	2	72
NMTAP	85	144	3
NMHLD	85	192	6	72
NMHLD	85	264	5	72
NMTAP	85	336	4
NMHLD	86	0	3	72
NMHLD	86	72	2	72
NMTAP	86	144	1
NMHLD	86	192	4	72
NMHLD	86	264	5	72
NMTAP	86	336	6
NMHLD	87	0	0	72
NMHLD	87	72	1	72
NMTAP	87	144	2
NMHLD	87	192	7	72
NMHLD	87	264	6	72
NMTAP	87	336	5
NMHLD	88	0	2	72
NMHLD	88	72	1	72
NMTAP	88	144	0
NMHLD	88	192	5	72
NMHLD	88	264	6	72
NMTAP	88	336	7
BRTAP	89	0	7
NMHLD	89	192	4	96
NMHLD	89	192	6	96
NMTAP	90	0	1
NMTAP	90	0	3
NMTAP	90	96	1
NMTAP	90	96	3
NMSTR	90	192	0
NMSI_	90	192	0	96	48	4
NMSTR	90	192	1
NMSI_	90	192	1	96	48	4
NMTAP	91	0	5
NMTAP	91	48	5
NMTAP	91	96	4
NMTAP	91	144	6
NMTAP	91	192	2
NMTAP	91	240	2
NMTAP	91	288	3
NMTAP	91	336	1
NMSTR	92	0	6
NMSI_	92	0	6	96	48	2
NMSTR	92	96	0
NMSI_	92	96	0	96	48	4
NMSTR	92	192	7
NMSI_	92	192	7	96	48	3
BRTAP	92	288	2

T_REC_TAP	278
T_REC_BRK	12
T_REC_XTP	14
T_REC_BXX	12
T_REC_HLD	65
T_REC_XHO	0
T_REC_BHO	0
T_REC_BXH	6
T_REC_STR	52
T_REC_BST	8
T_REC_XST	1
T_REC_XBS	0
T_REC_TTP	17
T_REC_THO	0
T_REC_SLD	61
T_REC_BSL	0
T_REC_ALL	526
T_NUM_TAP	362
T_NUM_BRK	38
T_NUM_HLD	65
T_NUM_SLD	61
T_NUM_ALL	526
T_JUDGE_TAP	394
T_JUDGE_HLD	182
T_JUDGE_SLD	61
T_JUDGE_ALL	637
TTM_EACHPAIRS	122
TTM_SCR_TAP	181000
TTM_SCR_BRK	98800
TTM_SCR_HLD	65000
TTM_SCR_SLD	91500
TTM_SCR_ALL	436300
TTM_SCR_S	419550
TTM_SCR_SS	432500
TTM_RAT_ACV	10087

