VERSION	0.00.00	1.04.00
FES_MODE	0
BPM_DEF	185.000	185.000	185.000	185.000
MET_DEF	4	4
RESOLUTION	384
CLK_DEF	384
COMPATIBLE_CODE	MA2

BPM	0	0	185.000
MET	0	0	4	4

BXTAP	2	0	1
BXTAP	2	0	6
EXHLD	3	0	4	96
NMTTP	3	0	5	E	0	M1
NMTTP	3	24	5	B	0	M1
NMTTP	3	48	6	B	0	M1
NMTTP	3	72	7	E	0	M1
EXHLD	3	192	0	96
NMTTP	3	192	1	E	0	M1
NMTTP	3	216	1	B	0	M1
NMTTP	3	240	2	B	0	M1
NMTTP	3	264	3	E	0	M1
NMTTP	5	0	7	E	0	M1
EXHLD	5	0	7	96
NMTTP	5	24	6	B	0	M1
NMTTP	5	48	5	B	0	M1
NMTTP	5	72	5	E	0	M1
NMTTP	5	240	3	E	0	M1
EXHLD	5	240	3	96
NMTTP	5	264	2	B	0	M1
NMTTP	5	288	1	B	0	M1
NMTTP	5	312	1	E	0	M1
EXHLD	6	336	4	72
NMTTP	6	336	5	E	0	M1
NMTTP	6	360	5	B	0	M1
NMTTP	7	0	6	B	0	M1
NMTTP	7	24	7	E	0	M1
NMTTP	7	96	3	E	0	M1
EXHLD	7	96	3	72
NMTTP	7	120	2	B	0	M1
NMTTP	7	144	1	B	0	M1
NMTTP	7	168	1	E	0	M1
EXHLD	7	240	4	72
NMTTP	7	240	5	E	0	M1
NMTTP	7	264	5	B	0	M1
NMTTP	7	288	6	B	0	M1
NMTTP	7	312	7	E	0	M1
EXHLD	9	0	0	96
NMTTP	9	0	1	E	0	M1
NMTTP	9	24	1	B	0	M1
NMTTP	9	48	2	B	0	M1
NMTTP	9	72	3	E	0	M1
EXHLD	9	192	4	96
NMTTP	9	192	5	E	0	M1
NMTTP	9	216	5	B	0	M1
NMTTP	9	240	6	B	0	M1
NMTTP	9	264	7	E	0	M1
NMTAP	10	0	2
NMTAP	10	96	1
NMTAP	10	192	1
NMTTP	10	192	3	B	0	M1
NMTTP	10	192	4	E	0	M1
NMTAP	10	288	0
NMTAP	10	336	0
NMTAP	11	0	2
NMTAP	11	48	2
NMTAP	11	96	1
NMTAP	11	192	2
NMTAP	11	192	3
NMTAP	11	288	3
NMTAP	11	288	4
NMTAP	12	0	5
NMTAP	12	96	6
NMTTP	12	192	4	B	0	M1
NMTTP	12	192	4	E	0	M1
NMTAP	12	192	6
NMTAP	12	288	7
NMTAP	12	336	7
NMTAP	13	0	5
NMTAP	13	48	5
NMSTR	13	96	6
NMSUL	13	96	6	96	96	2
NMTAP	14	0	1
NMTAP	14	96	2
NMTAP	14	192	2
NMTAP	14	192	3
NMTAP	14	288	1
NMTAP	14	336	1
NMTAP	15	0	0
NMTAP	15	48	0
NMTAP	15	96	2
NMTAP	15	192	3
NMTAP	15	192	7
NMTAP	15	288	4
NMTAP	15	288	5
NMTAP	16	0	6
NMTAP	16	96	7
NMTAP	16	192	4
NMTAP	16	192	7
NMTAP	16	288	4
NMSTR	16	288	7
NMSCL	16	288	7	96	288	0
NMTTP	17	0	0	C	1	M1
BRTAP	18	0	0
BRTAP	18	0	7
NMTAP	18	48	6
NMTAP	18	72	6
NMHLD	18	96	7	48
NMHLD	18	192	0	48
NMHLD	18	192	6	48
NMHLD	18	288	1	48
NMHLD	18	288	7	48
NMTAP	19	48	1
NMTAP	19	72	1
NMHLD	19	96	0	48
NMHLD	19	192	1	48
NMHLD	19	192	7	48
NMHLD	19	288	0	48
NMHLD	19	288	6	48
NMTAP	20	48	5
NMTAP	20	72	5
NMHLD	20	96	7	48
NMHLD	20	192	0	48
NMHLD	20	192	6	48
NMTAP	20	288	1
NMTAP	20	312	7
NMTAP	20	336	1
NMTAP	20	360	7
NMTAP	21	48	2
NMTAP	21	72	3
NMHLD	21	96	2	48
NMHLD	21	192	1	48
NMHLD	21	192	4	48
NMHLD	21	288	3	48
NMHLD	21	288	6	48
NMTAP	22	48	5
NMTAP	22	72	4
NMSTR	22	96	5
NMSXL	22	96	5	96	192	0
NMTAP	22	144	3
NMTAP	22	192	3
NMTAP	22	288	1
NMSTR	22	336	1
NMSXL	22	336	1	96	192	4
NMTAP	23	48	7
NMTAP	23	96	7
NMTAP	23	192	6
NMTAP	23	288	5
NMSTR	23	336	5
NMSXL	23	336	5	96	240	2
NMTAP	24	48	3
NMTAP	24	96	3
NMTAP	24	192	1
NMTAP	24	288	0
NMHLD	24	336	0	240
NMTAP	25	48	1
NMTAP	25	96	1
EXTAP	25	192	2
NMTAP	25	216	3
NMTAP	25	240	4
NMTAP	25	264	5
EXTAP	25	288	6
EXTAP	25	288	7
NMTAP	25	312	0
NMTAP	25	336	1
NMTAP	25	360	2
NMTTP	26	0	0	E	0	M1
EXTAP	26	0	3
NMTAP	26	96	3
NMTTP	26	192	1	E	0	M1
NMTAP	26	192	3
NMTAP	26	288	3
NMTTP	27	0	2	E	0	M1
NMTAP	27	0	3
NMTAP	27	96	3
NMTTP	27	192	0	C	0	M1
NMTAP	27	192	3
NMTAP	27	288	3
NMTAP	28	0	6
NMTAP	28	96	6
NMTTP	28	192	4	E	0	M1
NMTAP	28	192	6
NMTAP	28	288	6
NMTTP	29	0	5	E	0	M1
NMTAP	29	0	6
NMTAP	29	96	6
NMTTP	29	192	0	C	0	M1
NMTAP	29	192	6
NMTAP	29	288	6
NMTAP	30	0	2
NMTAP	30	48	2
NMTAP	30	96	3
NMTAP	30	144	3
NMTAP	30	192	0
NMTAP	30	240	0
NMTAP	30	288	7
NMTAP	30	336	7
NMTAP	31	0	4
NMTAP	31	48	4
NMTAP	31	96	5
NMTAP	31	144	5
NMTAP	31	192	1
NMTAP	31	240	1
NMTAP	31	288	3
NMTAP	31	336	3
NMTAP	32	0	0
NMTAP	32	24	1
NMTAP	32	48	2
NMTAP	32	72	3
NMTAP	32	96	4
NMTAP	32	120	5
NMTAP	32	144	6
NMTAP	32	168	7
NMTAP	32	192	0
NMTTP	32	192	4	E	0	M1
NMTTP	32	216	3	E	0	M1
NMTTP	32	240	2	E	0	M1
NMTTP	32	264	1	E	0	M1
NMTTP	32	288	0	E	0	M1
NMTTP	32	312	7	E	0	M1
NMTTP	32	336	6	E	0	M1
NMTTP	32	360	5	E	0	M1
NMTTP	33	0	0	C	1	M1
NMTTP	33	0	4	E	0	M1
NMTAP	34	0	0
NMTAP	34	0	7
NMTAP	34	48	1
NMTAP	34	72	3
NMTAP	34	96	2
NMTAP	34	144	6
NMTAP	34	168	4
NMSTR	34	192	5
NMSI_	34	192	5	96	48	0
NMSI_	34	192	5	96	48	1
NMTAP	35	0	2
NMTAP	35	0	7
NMTAP	35	48	1
NMTAP	35	72	0
NMTAP	35	96	2
NMTAP	35	120	7
NMTAP	35	144	3
NMTAP	35	168	6
BRSTR	35	192	4
NMSCL	35	192	4	96	48	1
BRSTR	35	192	5
NMSUL	35	192	5	96	48	0
NMTAP	36	0	6
NMTAP	36	0	7
NMTAP	36	48	5
NMTAP	36	72	4
NMTAP	36	96	6
NMTAP	36	144	1
NMTAP	36	168	0
NMSTR	36	192	2
NMSI_	36	192	2	96	48	4
NMSI_	36	192	2	96	48	6
NMTAP	37	0	3
NMTAP	37	0	7
NMTAP	37	48	6
NMTAP	37	72	4
NMTAP	37	96	5
NMTAP	37	120	3
NMTAP	37	144	4
NMTAP	37	168	2
NMTAP	37	192	3
NMTAP	37	240	0
NMTAP	37	240	1
NMTAP	37	288	2
NMTAP	37	288	7
NMTAP	38	0	1
NMTAP	38	24	0
NMTAP	38	72	2
NMSTR	38	96	3
NMSCL	38	96	3	96	48	0
NMTAP	38	144	5
NMTAP	38	168	5
NMTAP	38	192	3
EXSTR	38	288	6
NMSCL	38	288	6	96	48	3
EXTAP	38	288	7
NMTAP	38	336	0
NMTAP	38	360	0
NMTAP	39	0	6
EXSTR	39	96	1
NMSCL	39	96	1	96	48	6
EXTAP	39	96	2
NMTAP	39	144	3
NMTAP	39	168	3
NMTAP	39	192	1
EXTAP	39	288	4
EXTAP	39	288	5
NMTAP	40	0	6
NMTAP	40	0	7
NMTAP	40	48	5
NMTAP	40	72	4
NMTAP	40	96	6
NMTAP	40	144	2
NMTAP	40	168	3
NMTAP	40	192	1
NMTAP	40	240	6
NMTAP	40	264	0
NMSTR	40	288	1
NMSI_	40	288	1	96	48	4
NMSTR	40	288	5
NMSI_	40	288	5	96	48	0
BRTAP	41	0	1
BRTAP	41	0	5
BRTAP	41	96	2
BRTAP	41	96	6
NMTAP	42	0	0
NMTAP	42	0	1
NMTAP	42	48	6
NMTAP	42	48	7
NMSTR	42	96	4
NMSCR	42	96	4	96	48	7
NMTAP	42	96	5
NMTAP	42	192	2
NMSTR	42	192	4
NMSV_	42	192	4	96	48	1
NMSTR	42	288	4
NMSI_	42	288	4	96	48	7
NMTAP	42	288	6
NMTAP	43	0	2
NMSTR	43	0	4
NMSI_	43	0	4	96	48	2
NMSTR	43	96	4
NMSI_	43	96	4	96	48	6
NMTAP	43	96	6
NMTAP	43	192	3
NMSTR	43	192	4
NMSI_	43	192	4	96	48	1
NMSTR	43	288	4
NMSV_	43	288	4	96	48	7
BRHLD	43	288	5	48
NMTAP	44	0	2
NMSTR	44	0	4
NMSCL	44	0	4	96	48	1
NMTAP	44	96	4
NMSTR	44	96	6
NMSI_	44	96	6	96	48	3
NMSTR	44	192	0
NMSI_	44	192	0	96	48	4
NMTAP	44	192	6
NMTAP	44	288	0
NMSTR	44	288	7
NMSI_	44	288	7	96	48	3
NMTAP	45	0	0
NMTAP	45	0	7
NMTAP	45	96	1
NMTAP	45	96	5
NMTAP	45	192	3
NMTAP	45	192	7
NMTAP	45	216	2
NMTAP	45	240	1
NMTAP	45	264	0
NMTAP	45	288	4
NMSTR	45	288	7
NMSCR	45	288	7	96	48	2
NMTAP	46	0	5
NMSTR	46	0	7
NMSV_	46	0	7	96	48	4
NMTAP	46	96	1
NMSTR	46	96	7
NMSI_	46	96	7	96	48	2
NMTAP	46	192	5
NMSTR	46	192	7
NMSI_	46	192	7	96	48	5
NMTAP	46	288	0
NMSTR	46	288	7
NMSI_	46	288	7	96	48	1
NMTAP	47	0	6
NMSTR	47	0	7
NMSV_	47	0	7	96	48	2
NMSV_	47	0	7	96	48	4
NMTAP	47	96	7
NMTAP	47	192	0
NMTAP	47	192	6
NMSTR	47	288	1
NMSI_	47	288	1	96	48	5
NMTAP	47	336	0
NMTAP	47	336	2
NMTAP	48	0	1
NMTAP	48	96	3
NMSTR	48	96	7
NMSCL	48	96	7	96	48	4
NMTAP	48	192	1
NMSTR	48	192	7
NMSCR	48	192	7	96	48	2
NMTAP	48	288	5
NMSTR	48	288	7
NMSF_	48	288	7	96	48	3
BRTAP	49	0	7
NMTHO	49	192	0	96	C	0	M1
NMTTP	49	192	1	B	0	M1
NMTTP	49	192	1	E	0	M1
NMTTP	49	192	2	E	0	M1
NMTTP	49	192	5	B	0	M1
NMTTP	49	192	5	E	0	M1
NMTTP	49	192	6	E	0	M1
NMTAP	50	0	0
NMTAP	50	24	7
NMTAP	50	48	0
NMTAP	50	72	7
BRSTR	50	96	1
NMSI_	50	96	1	96	48	3
BRTAP	50	96	6
NMTAP	50	192	1
NMSTR	50	192	7
NMSI_	50	192	7	96	48	1
NMSTR	50	288	4
NMSI_	50	288	4	96	48	0
NMTAP	50	288	7
NMTAP	51	0	4
NMSTR	51	0	6
NMSUL	51	0	6	96	48	2
NMTAP	51	96	6
NMSTR	51	96	7
NMSUR	51	96	7	96	48	3
NMTAP	51	192	4
NMTAP	51	192	7
NMTAP	51	288	5
NMTAP	51	288	6
NMTAP	51	336	0
NMTAP	51	336	7
NMTAP	52	0	2
NMSTR	52	0	3
NMSI_	52	0	3	96	48	5
NMSTR	52	96	1
NMSI_	52	96	1	96	48	7
NMTAP	52	96	3
NMTAP	52	192	1
NMSTR	52	192	6
NMSI_	52	192	6	96	48	2
NMSTR	52	288	0
NMSI_	52	288	0	96	48	3
NMSI_	52	288	0	96	48	5
NMTAP	52	288	6
NMTAP	53	0	0
NMTAP	53	96	2
NMTAP	53	96	6
NMTAP	53	192	0
NMTAP	53	192	1
NMTAP	53	240	2
NMTAP	53	288	6
NMTAP	53	288	7
NMTAP	53	336	5
NMSTR	54	0	0
NMSV_	54	0	0	96	48	5
NMTAP	54	0	7
NMTAP	54	96	0
NMSTR	54	96	6
NMSI_	54	96	6	96	48	3
NMSTR	54	192	2
NMSI_	54	192	2	96	48	7
NMTAP	54	192	6
NMTAP	54	288	2
NMSTR	54	288	5
NMSI_	54	288	5	96	48	1
NMSTR	55	0	0
NMSCR	55	0	0	96	48	3
NMTAP	55	0	5
NMSTR	55	96	0
NMSUR	55	96	0	96	48	5
NMTAP	55	96	7
NMSTR	55	192	0
NMSV_	55	192	0	96	48	6
NMTAP	55	192	2
NMTAP	55	288	0
NMTAP	55	288	6
EXSTR	56	0	7
NMSCL	56	0	7	96	192	1
NMSTR	56	288	0
NMSI_	56	288	0	96	48	4
NMSTR	57	0	0
NMSI_	57	0	0	96	48	2
NMSI_	57	0	0	96	48	6
NMTAP	57	96	0
BRTAP	57	192	3
BRTAP	57	192	5
BRHLD	57	240	1	48
BRHLD	57	240	7	48
EXTAP	58	0	2
EXTAP	58	0	6
EXHLD	59	0	4	96
NMTTP	59	0	5	E	0	M1
NMTTP	59	24	5	B	0	M1
NMTTP	59	48	6	B	0	M1
NMTTP	59	72	7	E	0	M1
EXHLD	59	192	0	96
NMTTP	59	192	1	E	0	M1
NMTTP	59	216	1	B	0	M1
NMTTP	59	240	2	B	0	M1
NMTTP	59	264	3	E	0	M1
NMTTP	61	0	5	E	0	M1
EXHLD	61	0	5	96
NMTTP	61	24	4	B	0	M1
NMTTP	61	48	3	B	0	M1
NMTTP	61	72	3	E	0	M1
NMTTP	61	240	1	E	0	M1
EXHLD	61	240	1	96
NMTTP	61	264	0	B	0	M1
NMTTP	61	288	7	B	0	M1
NMTTP	61	312	7	E	0	M1
EXHLD	62	336	4	72
NMTTP	62	336	5	E	0	M1
NMTTP	62	360	5	B	0	M1
NMTTP	63	0	6	B	0	M1
NMTTP	63	24	7	E	0	M1
NMTTP	63	96	3	E	0	M1
EXHLD	63	96	3	72
NMTTP	63	120	2	B	0	M1
NMTTP	63	144	1	B	0	M1
NMTTP	63	168	1	E	0	M1
EXHLD	63	240	4	72
NMTTP	63	240	5	E	0	M1
NMTTP	63	264	5	B	0	M1
NMTTP	63	288	6	B	0	M1
NMTTP	63	312	7	E	0	M1
NMTTP	65	0	5	E	0	M1
EXHLD	65	0	5	96
NMTTP	65	24	4	B	0	M1
NMTTP	65	48	3	B	0	M1
NMTTP	65	72	3	E	0	M1
NMTTP	65	192	1	E	0	M1
EXHLD	65	192	1	96
NMTTP	65	216	0	B	0	M1
NMTTP	65	240	7	B	0	M1
NMTTP	65	264	7	E	0	M1
NMTAP	66	0	5
NMTAP	66	96	5
NMTTP	66	192	4	E	0	M1
NMTAP	66	192	5
NMTAP	66	288	5
NMTTP	66	288	7	E	0	M1
NMTTP	67	0	0	E	0	M1
NMTAP	67	0	5
NMTTP	67	96	1	E	0	M1
NMTAP	67	96	5
NMTTP	67	192	3	E	0	M1
NMTAP	67	192	5
NMTTP	67	288	4	E	0	M1
NMTAP	67	288	5
NMTAP	68	0	2
NMTAP	68	96	2
NMTAP	68	192	2
NMTTP	68	192	4	E	0	M1
NMTAP	68	288	2
NMTTP	68	288	3	E	0	M1
NMTTP	69	0	1	E	0	M1
NMTAP	69	0	2
NMTTP	69	96	0	E	0	M1
NMTAP	69	96	2
NMTAP	69	192	2
NMTTP	69	192	6	E	0	M1
NMTAP	69	288	2
NMTTP	69	288	5	E	0	M1
NMTHO	70	0	0	672	C	0	M1
NMTAP	70	0	6
NMTAP	70	96	7
NMTAP	70	192	0
NMTAP	70	288	1
NMTAP	71	0	0
NMTAP	71	96	7
NMTAP	71	192	6
NMTAP	71	288	5
NMSTR	72	0	4
NMSCR	72	0	4	96	48	7
NMTTP	72	96	5	B	0	M1
NMTTP	72	96	6	B	0	M1
NMSTR	72	192	3
NMSCL	72	192	3	96	48	0
NMTTP	72	288	1	B	0	M1
NMTTP	72	288	2	B	0	M1
NMSTR	73	0	4
NMSCR	73	0	4	96	192	3
NMTTP	73	96	0	B	0	M1
NMTTP	73	96	0	C	1	M1
NMTTP	73	96	7	B	0	M1
NMHLD	74	0	2	72
NMTAP	74	72	0
NMTAP	74	96	1
NMTAP	74	144	0
NMTAP	74	144	7
NMTAP	74	192	6
NMTAP	74	240	6
NMTAP	74	288	5
NMTAP	74	288	7
NMHLD	75	0	5	72
NMTAP	75	72	7
NMTAP	75	96	6
NMTAP	75	144	0
NMTAP	75	144	7
NMTAP	75	192	1
NMTAP	75	240	1
NMTAP	75	288	0
NMTAP	75	288	2
NMHLD	76	0	1	72
NMTAP	76	72	3
NMTAP	76	96	2
NMTAP	76	144	3
NMTAP	76	144	4
NMTAP	76	192	5
NMTAP	76	240	5
NMTAP	76	288	4
NMTAP	76	288	6
NMHLD	77	0	6	72
NMTAP	77	72	4
NMTAP	77	96	5
NMTAP	77	144	3
NMTAP	77	144	4
NMTAP	77	192	2
NMTAP	77	240	2
NMTAP	77	288	1
NMTAP	77	288	3
NMHLD	78	0	0	24
NMHLD	78	48	0	24
NMTAP	78	96	1
NMTAP	78	96	7
NMHLD	78	192	6	24
NMHLD	78	240	6	24
NMTAP	78	288	5
NMTAP	78	288	7
NMHLD	79	0	3	24
NMHLD	79	48	3	24
NMTAP	79	96	2
NMTAP	79	96	4
NMHLD	79	192	0	24
NMHLD	79	192	1	24
NMHLD	79	240	0	24
NMHLD	79	240	1	24
NMTAP	79	288	2
NMTAP	79	288	7
NMSTR	80	0	7
NMSI_	80	0	7	96	96	4
NMSSR	80	0	7	96	96	3
NMSTR	81	0	0
NMSI_	81	0	0	96	48	3
NMSI_	81	0	0	96	48	5
EXTAP	81	96	0
NMTTP	81	120	0	C	1	M1
NMTTP	81	120	2	B	0	M1
NMTTP	81	120	6	B	0	M1
NMTAP	82	0	3
NMTAP	82	0	4
NMTAP	82	48	5
NMTAP	82	72	4
EXSTR	82	96	6
NMSI_	82	96	6	96	48	3
EXSTR	82	144	2
NMSI_	82	144	2	96	48	7
NMTAP	82	192	6
NMTAP	82	240	2
NMTAP	82	288	4
NMTAP	82	336	0
NMTAP	83	0	1
NMTAP	83	0	5
NMTAP	83	48	6
NMTAP	83	72	6
EXSTR	83	96	0
NMSI_	83	96	0	96	48	4
NMTAP	83	144	7
BRSTR	83	192	6
NMSI_	83	192	6	96	48	3
NMTAP	83	240	7
BRTAP	83	288	0
NMTAP	83	336	7
NMTAP	84	0	1
NMTAP	84	0	5
NMTAP	84	48	6
NMTAP	84	72	7
NMSTR	84	96	5
NMSI_	84	96	5	96	48	2
NMSTR	84	144	0
NMSI_	84	144	0	96	48	4
NMTAP	84	192	5
NMTAP	84	240	0
BXTAP	84	288	5
NMTAP	84	336	6
NMTAP	85	0	3
NMTAP	85	0	7
NMTAP	85	48	6
NMTAP	85	72	6
NMSTR	85	96	4
NMSXL	85	96	4	96	96	2
NMTAP	85	144	2
NMTAP	85	192	1
NMTAP	85	240	0
BRTAP	85	288	0
NMTAP	86	0	1
NMTAP	86	0	4
NMTAP	86	48	2
NMTAP	86	72	3
EXSTR	86	96	1
NMSI_	86	96	1	96	48	5
EXSTR	86	144	4
NMSI_	86	144	4	96	48	7
NMTAP	86	192	1
NMTAP	86	240	4
NMTAP	86	288	0
NMTAP	86	336	1
NMTAP	87	0	2
NMTAP	87	0	6
NMTAP	87	48	1
NMTAP	87	72	1
EXSTR	87	96	7
NMSI_	87	96	7	96	48	3
NMTAP	87	144	0
BRSTR	87	192	1
NMSI_	87	192	1	96	48	4
NMTAP	87	240	0
BRTAP	87	288	7
NMTAP	87	336	0
NMTAP	88	0	3
NMTAP	88	0	7
NMTAP	88	48	6
NMTAP	88	72	4
NMSTR	88	96	5
NMSI_	88	96	5	96	48	1
NMSTR	88	144	3
NMSCL	88	144	3	96	48	0
NMTAP	88	192	5
NMTAP	88	240	3
BXSTR	88	288	7
NMSI_	88	288	7	96	48	4
NMSI_	88	288	7	96	48	5
NMSTR	89	0	7
NMSI_	89	0	7	96	48	1
NMSI_	89	0	7	96	48	2
NMSTR	89	96	7
NMSF_	89	96	7	96	48	3
NMTAP	89	192	7
BRTAP	89	288	1
BRTAP	89	288	5
NMTAP	90	0	6
NMTAP	90	24	0
NMTAP	90	48	7
NMTAP	90	72	0
NMTAP	90	96	6
NMTAP	90	192	1
EXTAP	90	192	5
NMTTP	90	240	2	E	0	M1
NMTTP	90	240	5	E	1	M1
EXTAP	90	288	2
NMTAP	90	288	6
NMTTP	90	336	3	E	1	M1
NMTTP	90	336	6	E	0	M1
NMSTR	91	0	1
NMSV_	91	0	1	96	48	4
NMSTR	91	0	7
NMSV_	91	0	7	96	48	4
NMSTR	91	96	1
NMSUL	91	96	1	96	48	5
NMSTR	91	96	7
NMSCL	91	96	7	96	48	5
NMSTR	91	192	1
NMSCR	91	192	1	96	48	3
NMSTR	91	192	7
NMSUR	91	192	7	96	48	3
NMTAP	91	288	1
NMTAP	91	288	7
NMTAP	92	0	0
NMTAP	92	0	6
NMTAP	92	48	1
NMTAP	92	72	3
NMTAP	92	96	2
NMTAP	92	144	5
NMTAP	92	168	4
NMHLD	92	192	6	48
NMHLD	92	240	0	48
NMTAP	92	288	7
NMTAP	92	312	1
NMTAP	92	336	6
NMTAP	92	360	0
NMSTR	93	0	5
NMSI_	93	0	5	96	48	0
NMTAP	93	48	7
NMTAP	93	72	7
NMTAP	93	96	5
NMHLD	93	144	1	48
EXTAP	93	192	0
NMTAP	93	240	2
NMTAP	93	240	3
NMTAP	93	288	4
NMTAP	93	288	5
NMTAP	93	336	6
NMTAP	93	336	7
EXSTR	94	0	0
NMSI_	94	0	0	96	48	6
EXTAP	94	0	1
NMTAP	94	48	2
NMTAP	94	72	2
NMSTR	94	96	0
NMSI_	94	96	0	96	48	5
NMTAP	94	144	3
NMSTR	94	192	0
NMSI_	94	192	0	96	48	4
NMTAP	94	240	2
NMTAP	94	288	0
NMTAP	94	336	1
EXTAP	95	0	6
EXSTR	95	0	7
NMSI_	95	0	7	96	48	1
NMTAP	95	48	5
NMTAP	95	72	5
NMSTR	95	96	7
NMSI_	95	96	7	96	48	2
NMTAP	95	144	4
NMSTR	95	192	7
NMSI_	95	192	7	96	48	3
NMTAP	95	240	5
NMTAP	95	288	7
NMTAP	95	336	6
BRTAP	96	0	2
NMTAP	96	0	7
NMTAP	96	48	1
NMTAP	96	72	0
NMTAP	96	96	2
NMTAP	96	120	7
NMTAP	96	144	3
BRTAP	96	192	0
NMTAP	96	192	5
NMTAP	96	240	6
NMTAP	96	264	7
NMTAP	96	288	5
NMTAP	96	312	0
NMTAP	96	336	4
BRTAP	97	0	2
NMTAP	97	0	3
NMTAP	97	48	1
NMTAP	97	72	0
NMSTR	97	96	1
NMSXL	97	96	1	96	96	7
NMTAP	97	144	7
BRSTR	97	192	7
BRSCL	97	192	7	96	96	0
BXTAP	98	0	4
EXHLD	99	0	4	96
NMTTP	99	0	5	E	0	M1
NMTTP	99	24	5	B	0	M1
NMTTP	99	48	6	B	0	M1
NMTTP	99	72	7	E	0	M1
EXHLD	99	192	0	96
NMTTP	99	192	1	E	0	M1
NMTTP	99	216	1	B	0	M1
NMTTP	99	240	2	B	0	M1
NMTTP	99	264	3	E	0	M1
NMTTP	101	0	7	E	0	M1
EXHLD	101	0	7	96
NMTTP	101	24	6	B	0	M1
NMTTP	101	48	5	B	0	M1
NMTTP	101	72	5	E	0	M1
NMTTP	101	240	3	E	0	M1
EXHLD	101	240	3	96
NMTTP	101	264	2	B	0	M1
NMTTP	101	288	1	B	0	M1
NMTTP	101	312	1	E	0	M1
EXHLD	102	336	4	72
NMTTP	102	336	5	E	0	M1
NMTTP	102	360	5	B	0	M1
NMTTP	103	0	6	B	0	M1
NMTTP	103	24	7	E	0	M1
NMTTP	103	96	3	E	0	M1
EXHLD	103	96	3	72
NMTTP	103	120	2	B	0	M1
NMTTP	103	144	1	B	0	M1
NMTTP	103	168	1	E	0	M1
EXHLD	103	240	4	72
NMTTP	103	240	5	E	0	M1
NMTTP	103	264	5	B	0	M1
NMTTP	103	288	6	B	0	M1
NMTTP	103	312	7	E	0	M1
EXHLD	105	0	0	96
NMTTP	105	0	1	E	0	M1
NMTTP	105	24	1	B	0	M1
NMTTP	105	48	2	B	0	M1
NMTTP	105	72	3	E	0	M1
EXHLD	105	192	4	96
NMTTP	105	192	5	E	0	M1
NMTTP	105	216	5	B	0	M1
NMTTP	105	240	6	B	0	M1
NMTTP	105	264	7	E	0	M1
EXTAP	106	0	0
NMTAP	106	96	2
NMTAP	106	144	3
NMTAP	106	240	5
NMTAP	106	288	4
NMTAP	106	336	3
NMTAP	107	0	2
NMTAP	107	96	5
NMTAP	107	144	3
NMTAP	107	288	5
NMTAP	107	312	4
NMTAP	107	336	5
NMHLD	108	0	2	96
NMTAP	108	96	3
NMTAP	108	144	3
NMTAP	108	240	2
NMTAP	108	288	3
NMTAP	108	336	4
NMTAP	109	0	5
NMTAP	109	96	2
NMTAP	109	144	4
NMTAP	109	288	2
NMTAP	109	312	3
NMTAP	109	336	2
NMHLD	110	0	5	96
NMTAP	110	96	4
NMTAP	110	144	4
NMTAP	110	240	5
NMTAP	110	288	4
NMTAP	110	336	3
NMTAP	111	0	2
NMTAP	111	96	5
NMTAP	111	144	3
NMTAP	111	288	5
NMTAP	111	312	4
NMTAP	111	336	5
NMHLD	112	0	2	96
NMTAP	112	96	3
NMTAP	112	144	3
NMTAP	112	240	4
NMTAP	112	288	4
NMTAP	113	0	3
NMTAP	113	0	5
NMTAP	113	96	6
NMTAP	113	144	6
NMTAP	113	240	5
NMTTP	113	288	5	E	0	M1
NMTTP	113	312	4	E	0	M1
NMTTP	113	336	3	E	0	M1

T_REC_TAP	456
T_REC_BRK	18
T_REC_XTP	17
T_REC_BXX	4
T_REC_HLD	39
T_REC_XHO	27
T_REC_BHO	3
T_REC_BXH	0
T_REC_STR	72
T_REC_BST	6
T_REC_XST	11
T_REC_XBS	1
T_REC_TTP	165
T_REC_THO	2
T_REC_SLD	98
T_REC_BSL	1
T_REC_ALL	920
T_NUM_TAP	721
T_NUM_BRK	33
T_NUM_HLD	68
T_NUM_SLD	98
T_NUM_ALL	920
T_JUDGE_TAP	750
T_JUDGE_HLD	123
T_JUDGE_SLD	99
T_JUDGE_ALL	972
TTM_EACHPAIRS	122
TTM_SCR_TAP	360500
TTM_SCR_BRK	85800
TTM_SCR_HLD	68000
TTM_SCR_SLD	147000
TTM_SCR_ALL	661300
TTM_SCR_S	638300
TTM_SCR_SS	658000
TTM_RAT_ACV	10050

