VERSION	0.00.00	1.04.00
FES_MODE	0
BPM_DEF	185.000	185.000	185.000	185.000
MET_DEF	4	4
RESOLUTION	384
CLK_DEF	384
COMPATIBLE_CODE	MA2

BPM	0	0	185.000
MET	0	0	4	4

NMSTR	2	0	2
NMSCR	2	0	2	96	480	5
NMSTR	4	0	6
NMSCL	4	0	6	96	480	3
NMSTR	6	0	1
NMSCR	6	0	1	96	480	5
NMSTR	8	0	6
NMSSR	8	0	6	96	384	2
NMTAP	9	192	1
NMTAP	10	0	2
NMTAP	10	0	4
NMTAP	10	96	2
NMTAP	10	96	4
NMHLD	10	192	1	480
NMTAP	11	0	3
NMTAP	11	48	3
NMTAP	11	144	4
NMTAP	11	192	4
NMTAP	11	288	3
NMTAP	12	0	2
NMTAP	12	0	3
NMTAP	12	96	2
NMTAP	12	96	3
NMHLD	12	192	4	480
NMTAP	13	0	1
NMTAP	13	48	1
NMTAP	13	144	0
NMTAP	13	192	0
NMTAP	13	288	1
NMTAP	14	0	2
NMTAP	14	0	3
NMTAP	14	96	0
NMTAP	14	96	1
NMHLD	14	192	6	336
NMTAP	15	0	7
NMTAP	15	48	7
NMTAP	15	144	0
NMTAP	15	192	0
NMTAP	15	288	1
NMTAP	15	288	7
NMHLD	16	0	2	96
NMHLD	16	0	6	96
NMTAP	16	192	3
NMTAP	16	192	5
NMSTR	16	288	3
NMSV_	16	288	3	96	192	1
NMSTR	16	288	5
NMSV_	16	288	5	96	192	7
BRTAP	18	0	0
BRTAP	18	0	1
NMTAP	18	96	7
NMTAP	18	144	6
NMHLD	18	192	5	96
NMTAP	18	288	4
NMTAP	19	0	3
NMTAP	19	48	3
NMTAP	19	96	4
NMHLD	19	192	2	96
NMTAP	19	288	3
NMTAP	20	0	5
NMTAP	20	48	5
NMTAP	20	96	4
NMHLD	20	192	6	96
NMTAP	20	288	7
NMTAP	21	0	0
NMTAP	21	48	0
NMTAP	21	96	7
NMTAP	21	192	0
NMTAP	21	192	1
NMTAP	21	288	2
NMTAP	21	288	3
NMTAP	22	0	1
NMTAP	22	48	1
NMTAP	22	96	0
NMTAP	22	192	2
NMTAP	22	192	3
NMTAP	22	288	1
NMTAP	22	288	4
NMTAP	23	0	5
NMTAP	23	48	5
NMTAP	23	96	4
NMTAP	23	192	6
NMTAP	23	192	7
NMTAP	23	288	0
NMTAP	23	288	5
NMTAP	24	0	1
NMTAP	24	48	1
NMTAP	24	96	0
NMTAP	24	192	2
NMTAP	24	192	3
NMTAP	24	288	1
NMHLD	24	288	4	1248
NMSTR	25	0	2
NMSUL	25	0	2	96	144	5
EXTAP	26	0	5
NMTAP	26	96	5
NMTAP	26	192	5
NMTAP	26	288	5
NMTAP	27	0	6
NMTAP	27	96	6
NMTAP	27	192	5
NMTAP	27	288	5
NMHLD	28	0	3	672
NMTAP	28	96	2
NMTAP	28	192	2
NMTAP	28	288	2
NMTAP	29	0	1
NMTAP	29	96	1
NMTAP	29	192	2
NMTAP	29	288	2
BXTAP	30	0	3
BXTAP	30	0	4
NMTAP	30	96	4
NMTAP	30	96	6
NMHLD	30	192	1	96
NMTAP	30	288	3
BXTAP	31	0	2
BXTAP	31	0	3
NMTAP	31	96	4
NMTAP	31	96	6
NMHLD	31	192	1	96
NMTAP	31	288	3
BXTAP	32	0	2
BXTAP	32	0	3
NMTAP	32	96	4
NMTAP	32	96	6
BXTAP	32	192	2
BXTAP	32	192	3
NMTAP	32	288	4
NMSTR	32	288	6
NMSUR	32	288	6	96	240	1
NMTAP	34	0	0
NMTAP	34	0	1
NMTAP	34	96	0
NMSTR	34	96	1
NMSLR	34	96	1	96	96	5
NMTAP	35	0	6
NMTAP	35	0	7
NMSTR	35	96	6
NMSI_	35	96	6	96	48	2
NMTAP	35	96	7
NMHLD	36	0	1	96
NMHLD	36	96	3	96
NMHLD	36	192	4	96
NMTAP	36	288	6
NMTAP	37	0	6
NMTAP	37	0	7
NMTAP	37	96	4
NMTAP	37	96	5
NMTAP	37	192	2
NMTAP	37	192	3
NMTAP	37	288	0
NMTAP	37	288	1
NMHLD	38	0	0	96
NMHLD	38	0	7	96
NMSTR	38	192	6
NMSI_	38	192	6	96	48	3
NMTAP	38	192	7
NMTAP	39	0	2
NMTAP	39	96	0
NMTAP	39	96	1
NMTAP	39	192	0
NMSTR	39	192	1
NMSI_	39	192	1	96	48	4
NMTAP	40	0	5
NMSTR	40	96	6
NMSCL	40	96	6	96	96	2
NMSTR	40	96	7
NMSUL	40	96	7	96	96	2
BRTAP	41	0	0
BRTAP	41	0	1
BRTAP	41	96	2
BRTAP	41	96	4
BRTAP	41	192	1
BRTAP	41	192	5
NMTAP	42	0	2
NMTAP	42	0	3
NMTAP	42	48	2
NMTAP	42	48	3
NMTAP	42	96	2
NMTAP	42	96	3
NMHLD	42	192	0	48
NMHLD	42	192	1	48
NMTAP	42	288	0
NMTAP	42	288	1
NMHLD	43	0	6	48
NMHLD	43	0	7	48
NMTAP	43	96	6
NMTAP	43	96	7
NMHLD	43	192	4	48
NMHLD	43	192	5	48
EXTAP	43	288	3
EXTAP	43	288	4
NMHLD	44	0	2	48
NMHLD	44	0	3	48
NMTAP	44	96	3
NMTAP	44	96	4
NMHLD	44	192	4	48
NMHLD	44	192	5	48
NMTAP	44	288	2
NMTAP	44	288	3
NMHLD	45	0	1	48
NMHLD	45	0	2	48
EXSTR	45	96	1
NMSI_	45	96	1	96	48	6
EXTAP	45	96	2
NMHLD	46	0	4	48
NMHLD	46	0	5	48
NMTAP	46	96	4
NMTAP	46	96	5
NMHLD	46	192	6	48
NMHLD	46	192	7	48
NMHLD	46	288	0	48
NMHLD	46	288	1	48
NMHLD	47	0	2	48
NMHLD	47	0	3	48
NMTAP	47	96	2
NMTAP	47	96	3
NMHLD	47	192	0	48
NMHLD	47	192	7	48
NMTAP	47	288	6
NMTAP	47	288	7
NMTAP	47	336	6
NMTAP	47	336	7
BXTAP	48	0	6
BXTAP	48	0	7
BXTAP	48	96	3
BXTAP	48	96	5
BXTAP	48	192	0
BXTAP	48	192	1
BXTAP	48	288	2
BXTAP	48	288	4
BXHLD	49	0	6	192
BXHLD	49	0	7	192
NMTAP	50	0	5
NMTAP	50	48	5
NMHLD	50	96	5	96
NMHLD	50	192	7	96
NMHLD	50	288	0	96
NMHLD	51	0	2	96
NMHLD	51	96	3	96
NMHLD	51	192	4	96
NMTAP	51	288	6
NMTAP	51	336	6
NMHLD	52	0	6	96
NMHLD	52	96	4	96
NMHLD	52	192	3	96
NMHLD	52	288	1	96
NMHLD	53	0	0	96
NMHLD	53	96	7	96
NMTAP	53	192	5
NMTAP	53	288	4
NMTAP	53	288	5
BRTAP	54	0	6
NMTAP	54	48	6
NMTAP	54	96	4
NMTAP	54	144	4
NMTAP	54	192	3
NMTAP	54	240	3
BRTAP	54	288	1
BXTAP	55	0	2
NMTAP	55	48	2
NMTAP	55	96	0
NMTAP	55	144	0
NMTAP	55	192	7
NMTAP	55	240	7
BRSTR	55	288	5
NMSCR	55	288	5	96	192	3
BXTAP	56	288	4
BXTAP	56	288	6
BXSTR	57	0	4
NMSI_	57	0	4	96	48	0
BXTAP	57	0	6
BRTAP	57	192	1
BRTAP	57	192	5
BRTAP	57	240	1
BRTAP	57	240	5
NMHLD	58	0	2	192
NMTAP	58	192	3
NMHLD	59	0	5	192
NMTTP	59	192	5	E	0	M1
NMHLD	60	0	6	192
NMTAP	60	192	4
NMHLD	61	0	1	192
NMTTP	61	192	3	E	0	M1
NMHLD	62	0	2	192
NMTAP	62	192	3
NMHLD	63	0	5	192
NMTTP	63	192	4	B	0	M1
NMHLD	64	0	6	192
NMTAP	64	192	4
NMTAP	65	0	3
NMTAP	65	96	3
NMTAP	65	192	2
NMTAP	65	192	4
NMTTP	66	0	5	E	0	M1
NMTTP	66	96	6	E	0	M1
NMTTP	66	192	7	E	0	M1
NMTTP	66	288	0	E	0	M1
NMTTP	67	0	1	E	0	M1
NMTTP	67	96	2	E	0	M1
NMTTP	67	192	2	A	0	M1
NMTTP	67	192	3	E	0	M1
NMTTP	68	0	1	E	0	M1
NMTTP	68	96	0	E	0	M1
NMTTP	68	192	7	E	0	M1
NMTTP	68	288	6	E	0	M1
NMTTP	69	0	5	E	0	M1
NMTTP	69	96	4	E	0	M1
NMTTP	69	192	3	E	0	M1
NMTTP	69	192	3	D	0	M1
NMTTP	70	0	4	A	0	M1
NMTTP	70	96	5	A	0	M1
NMTTP	70	192	6	A	0	M1
NMTTP	70	288	7	A	0	M1
NMTTP	71	0	0	A	0	M1
NMTTP	71	96	1	A	0	M1
NMTTP	71	192	2	A	0	M1
NMTTP	71	192	3	D	0	M1
NMTTP	72	0	0	A	0	M1
NMTTP	72	96	7	A	0	M1
NMTTP	72	192	6	A	0	M1
NMTTP	72	288	5	A	0	M1
NMTTP	73	0	3	A	0	M1
NMTTP	73	0	4	E	0	M1
NMTTP	73	0	4	A	0	M1
NMTTP	73	0	4	D	1	M1
NMTAP	74	0	4
NMTAP	74	0	5
NMTAP	74	96	4
NMTAP	74	96	5
NMTAP	74	192	6
NMTAP	74	288	6
NMTAP	75	0	4
NMTAP	75	0	5
NMTAP	75	96	4
NMTAP	75	96	5
NMTAP	75	192	3
NMTAP	75	288	2
NMTAP	76	0	2
NMTAP	76	0	3
NMTAP	76	96	2
NMTAP	76	96	3
NMTAP	76	192	1
NMTAP	76	288	1
NMTAP	77	0	2
NMTAP	77	0	3
NMTAP	77	96	2
NMTAP	77	96	3
NMTAP	77	192	4
NMTAP	77	288	5
NMTAP	78	0	6
NMTAP	78	48	6
NMTAP	78	96	4
NMTAP	78	144	4
NMTAP	78	192	5
NMTAP	78	240	5
EXTAP	78	288	3
EXTAP	78	288	5
NMTAP	79	0	1
NMTAP	79	48	1
NMTAP	79	96	3
NMTAP	79	144	3
NMTAP	79	192	0
NMTAP	79	240	0
EXTAP	79	288	0
EXTAP	79	288	4
BRHLD	80	0	2	192
BRHLD	80	0	6	192
NMTTP	81	0	0	C	1	M1
NMTTP	81	0	2	B	0	M1
NMTTP	81	0	3	B	0	M1
NMTTP	81	0	4	B	0	M1
NMTTP	81	0	5	B	0	M1
NMTAP	82	0	0
NMTAP	82	48	1
NMTAP	82	96	2
NMTAP	82	96	3
NMTAP	82	192	7
NMTAP	82	240	6
NMTAP	82	288	4
NMTAP	82	288	5
NMTAP	83	0	3
NMTAP	83	48	2
NMTAP	83	96	0
NMTAP	83	96	1
NMSTR	83	192	0
NMSI_	83	192	0	96	48	4
NMSTR	83	192	1
NMSI_	83	192	1	96	48	4
NMTAP	84	0	5
NMTAP	84	48	5
NMTAP	84	96	4
NMTAP	84	192	6
NMTAP	84	192	7
NMTAP	84	288	0
NMTAP	84	288	1
NMTAP	85	0	2
NMTAP	85	48	2
NMTAP	85	96	3
NMTAP	85	192	4
NMTAP	85	192	5
NMTAP	85	288	3
NMTAP	85	288	6
NMTAP	86	0	2
NMTAP	86	48	1
NMTAP	86	96	0
NMTAP	86	96	7
NMTAP	86	192	6
NMTAP	86	288	4
NMTAP	86	288	5
NMTAP	87	0	5
NMTAP	87	48	4
NMTAP	87	96	2
NMTAP	87	96	3
NMSTR	87	192	2
NMSI_	87	192	2	96	48	7
NMSTR	87	192	3
NMSI_	87	192	3	96	48	7
NMTAP	88	0	6
NMTAP	88	48	6
NMTAP	88	96	7
NMTAP	88	192	4
NMTAP	88	192	6
NMTAP	88	288	1
NMTAP	88	288	3
NMTAP	89	0	0
NMTAP	89	48	0
NMTAP	89	96	7
NMSTR	89	192	6
NMSI_	89	192	6	96	48	2
NMTAP	90	0	1
NMTAP	90	48	1
NMTAP	90	96	3
NMTAP	90	144	3
BXTAP	90	192	2
BXTAP	90	192	4
NMTAP	90	288	1
NMTAP	90	288	5
NMTAP	90	336	1
NMTAP	90	336	5
BRTAP	91	0	1
BRTAP	91	0	5
NMTAP	91	96	4
NMTAP	91	96	6
NMTAP	91	192	1
NMTAP	91	192	3
NMTAP	91	288	0
NMTAP	91	288	1
NMSTR	92	0	0
NMSI_	92	0	0	96	48	4
NMSTR	92	0	1
NMSI_	92	0	1	96	48	5
NMSTR	92	192	6
NMSI_	92	192	6	96	48	2
NMSTR	92	192	7
NMSI_	92	192	7	96	48	3
NMSTR	93	0	0
NMSI_	93	0	0	96	48	5
NMSTR	93	0	1
NMSI_	93	0	1	96	48	5
NMSTR	93	192	6
NMSI_	93	192	6	96	48	2
NMSTR	93	192	7
NMSI_	93	192	7	96	48	2
NMTAP	94	0	1
NMTAP	94	48	1
NMTAP	94	96	0
NMTAP	94	96	1
NMTAP	94	192	1
NMTAP	94	192	3
BXTAP	94	288	4
BXTAP	94	288	5
NMTAP	95	0	6
NMTAP	95	48	6
NMTAP	95	96	6
NMTAP	95	96	7
NMTAP	95	192	4
NMTAP	95	192	6
BXTAP	95	288	2
BXTAP	95	288	3
BRSTR	96	0	2
NMSI_	96	0	2	96	48	6
BRSTR	96	0	3
NMSI_	96	0	3	96	48	6
BRSTR	96	192	4
NMSI_	96	192	4	96	48	1
BRSTR	96	192	5
NMSI_	96	192	5	96	48	1
BRSTR	97	0	3
BRSI_	97	0	3	96	48	7
BRSTR	97	0	4
BRSI_	97	0	4	96	48	0
BRTAP	97	192	1
BRTAP	97	192	6
NMSTR	98	0	1
NMSCL	98	0	1	96	480	6
NMSTR	100	0	5
NMSCR	100	0	5	96	480	0
NMSTR	102	0	2
NMSCL	102	0	2	96	480	6
NMSTR	104	0	5
NMSSL	104	0	5	96	384	1
NMTTP	106	0	1	E	0	M1
NMTTP	106	96	2	B	0	M1
NMTTP	106	144	3	E	0	M1
NMTTP	107	0	5	B	0	M1
NMTTP	107	0	5	A	0	M1
NMTTP	107	192	4	B	0	M1
NMTTP	107	192	4	A	0	M1
NMTTP	108	0	7	E	0	M1
NMTTP	108	96	5	B	0	M1
NMTTP	108	144	5	E	0	M1
NMTTP	109	0	2	B	0	M1
NMTTP	109	0	2	A	0	M1
NMTTP	109	192	1	B	0	M1
NMTTP	109	192	1	A	0	M1
NMTTP	110	0	3	E	0	M1
NMTTP	110	96	1	B	0	M1
NMTTP	110	144	1	E	0	M1
NMTTP	111	0	5	B	0	M1
NMTTP	111	0	5	A	0	M1
NMTTP	111	192	6	B	0	M1
NMTTP	111	192	6	A	0	M1
NMTTP	112	0	5	E	0	M1
NMTTP	112	96	6	B	0	M1
NMTTP	112	144	7	E	0	M1
NMTTP	113	0	1	B	0	M1
NMTTP	113	0	1	A	0	M1
NMTTP	113	96	3	B	0	M1
NMTTP	113	96	3	A	0	M1
NMTTP	113	192	5	B	0	M1
NMTTP	113	192	5	A	0	M1
NMTTP	113	288	7	B	0	M1
NMTTP	113	288	7	A	0	M1

T_REC_TAP	269
T_REC_BRK	18
T_REC_XTP	8
T_REC_BXX	26
T_REC_HLD	58
T_REC_XHO	0
T_REC_BHO	2
T_REC_BXH	2
T_REC_STR	31
T_REC_BST	7
T_REC_XST	1
T_REC_XBS	1
T_REC_TTP	72
T_REC_THO	0
T_REC_SLD	38
T_REC_BSL	2
T_REC_ALL	535
T_NUM_TAP	381
T_NUM_BRK	58
T_NUM_HLD	58
T_NUM_SLD	38
T_NUM_ALL	535
T_JUDGE_TAP	433
T_JUDGE_HLD	181
T_JUDGE_SLD	40
T_JUDGE_ALL	654
TTM_EACHPAIRS	124
TTM_SCR_TAP	190500
TTM_SCR_BRK	150800
TTM_SCR_HLD	58000
TTM_SCR_SLD	57000
TTM_SCR_ALL	456300
TTM_SCR_S	437000
TTM_SCR_SS	450500
TTM_RAT_ACV	10128

