VERSION	0.00.00	1.04.00
FES_MODE	0
BPM_DEF	185.000	185.000	185.000	185.000
MET_DEF	4	4
RESOLUTION	384
CLK_DEF	384
COMPATIBLE_CODE	MA2

BPM	0	0	185.000
MET	0	0	4	4

NMTAP	2	0	4
NMTAP	2	192	4
NMTAP	3	0	5
NMTAP	3	192	5
NMTAP	4	0	6
NMTAP	4	192	6
NMTAP	5	0	0
NMTAP	5	0	7
NMTAP	5	192	0
NMTAP	5	192	7
NMTAP	6	0	0
NMTAP	6	192	0
NMTAP	7	0	1
NMTAP	7	192	1
NMTAP	8	0	2
NMTAP	8	192	2
NMTAP	9	0	3
NMTAP	9	0	4
NMTAP	10	0	3
NMTAP	10	96	3
NMTAP	10	192	2
NMTAP	11	0	1
NMTAP	11	96	1
NMTAP	11	192	0
NMTAP	12	0	7
NMTAP	12	96	7
NMTAP	12	192	6
NMTAP	13	0	5
NMTAP	13	96	5
NMTAP	13	192	4
NMTAP	13	192	5
NMTAP	14	0	4
NMTAP	14	96	4
NMTAP	14	192	5
NMTAP	15	0	6
NMTAP	15	96	6
NMTAP	15	192	7
NMTAP	16	0	0
NMTAP	16	96	0
NMTAP	16	192	1
EXTAP	17	0	2
EXTAP	17	0	3
NMSTR	18	0	2
NMSI_	18	0	2	96	192	5
NMSTR	19	0	6
NMSI_	19	0	6	96	192	3
NMSTR	20	0	1
NMSI_	20	0	1	96	192	5
NMTAP	21	0	6
NMSTR	22	0	6
NMSI_	22	0	6	96	192	3
NMSTR	23	0	2
NMSI_	23	0	2	96	192	7
NMSTR	24	0	6
NMSI_	24	0	6	96	192	2
NMTAP	25	0	1
NMTTP	26	0	1	B	0	L1
NMTTP	26	96	2	B	0	L1
NMTTP	26	192	3	B	0	L1
NMTTP	27	0	6	B	0	L1
NMTTP	27	96	5	B	0	L1
NMTTP	27	192	4	B	0	L1
NMTTP	28	0	1	B	0	L1
NMTTP	28	96	2	B	0	L1
NMTTP	28	192	3	B	0	L1
NMTTP	28	288	4	B	0	L1
NMTTP	29	0	0	C	0	L1
NMTTP	30	0	7	B	0	L1
NMTTP	30	96	6	B	0	L1
NMTTP	30	192	4	B	0	L1
NMTTP	30	192	5	B	0	L1
NMTTP	31	0	0	B	0	L1
NMTTP	31	96	1	B	0	L1
NMTTP	31	192	2	B	0	L1
NMTTP	31	192	3	B	0	L1
NMTTP	32	0	6	B	0	L1
NMTTP	32	96	5	B	0	L1
NMTTP	32	192	4	B	0	L1
NMTTP	32	288	3	B	0	L1
NMTTP	33	0	0	C	1	L1
NMTAP	34	0	6
NMTAP	34	96	6
NMTAP	34	192	7
NMTAP	34	288	7
NMTAP	35	0	0
NMTAP	35	96	0
NMTAP	35	192	0
NMTAP	35	192	1
NMTAP	36	0	2
NMTAP	36	96	2
NMTAP	36	192	1
NMTAP	36	288	1
NMTAP	37	0	0
NMTAP	37	96	0
NMTAP	37	192	6
NMTAP	37	192	7
NMTAP	38	0	6
NMTAP	38	96	6
NMTAP	38	192	5
NMTAP	38	288	5
NMTAP	39	0	4
NMTAP	39	96	4
NMTAP	39	192	2
NMTAP	39	192	3
NMTAP	40	0	1
NMTAP	40	96	1
NMTAP	40	192	2
NMTAP	40	288	2
NMTAP	41	0	3
NMTAP	41	96	3
BRTAP	41	192	4
BRTAP	41	192	5
NMTAP	42	0	5
NMTAP	42	96	5
NMTAP	42	192	6
NMTAP	42	288	6
NMTAP	43	0	7
NMTAP	43	96	7
NMTAP	43	192	0
NMTAP	43	192	1
NMTAP	43	288	0
NMTAP	43	288	1
NMTAP	44	0	2
NMTAP	44	96	2
NMTAP	44	192	1
NMTAP	44	288	1
NMTAP	45	0	0
NMTAP	45	96	0
NMTAP	45	192	6
NMTAP	45	192	7
NMTAP	46	0	6
NMTAP	46	96	6
NMTAP	46	192	5
NMTAP	46	288	5
NMTAP	47	0	4
NMTAP	47	96	4
NMTAP	47	192	2
NMTAP	47	192	3
NMTAP	47	288	2
NMTAP	47	288	3
NMTAP	48	0	1
NMTAP	48	96	1
NMTAP	48	192	2
NMTAP	48	288	2
NMTAP	49	0	3
NMTAP	49	96	3
BRTAP	49	192	4
BRTAP	49	192	5
NMTAP	50	0	6
NMTAP	50	96	6
NMTAP	50	192	6
NMTAP	50	288	6
NMTAP	50	288	7
NMTAP	51	0	5
NMTAP	51	96	5
NMTAP	51	192	5
NMTAP	51	288	4
NMTAP	51	288	5
NMTAP	52	0	3
NMTAP	52	96	3
NMTAP	52	192	3
NMTAP	52	288	2
NMTAP	52	288	3
NMTAP	53	0	1
NMTAP	53	96	1
NMTAP	53	192	0
NMTAP	53	192	1
NMTAP	54	0	1
NMTAP	54	96	1
NMTAP	54	192	1
NMTAP	54	288	0
NMTAP	54	288	1
NMTAP	55	0	2
NMTAP	55	96	2
NMTAP	55	192	2
NMTAP	55	288	2
NMTAP	55	288	3
NMTAP	56	0	4
NMTAP	56	96	4
NMTAP	56	192	4
NMTAP	56	288	4
NMTAP	56	288	5
NMTAP	57	0	6
NMTAP	57	96	6
NMTAP	57	192	6
NMTAP	57	192	7
NMHLD	58	0	5	192
NMHLD	58	192	4	192
NMHLD	59	0	3	192
NMTAP	59	192	2
NMHLD	60	0	2	192
NMHLD	60	192	3	192
NMHLD	61	0	4	192
NMTAP	61	192	5
NMHLD	62	0	6	192
NMHLD	62	192	5	192
NMHLD	63	0	4	192
NMTAP	63	192	3
NMHLD	64	0	1	192
NMHLD	64	192	2	192
NMHLD	65	0	3	192
NMTAP	65	192	4
NMTAP	66	0	2
NMTAP	66	96	2
NMTAP	66	192	2
NMTAP	66	192	3
NMTAP	67	0	1
NMTAP	67	96	1
NMTAP	67	192	0
NMTAP	67	192	1
NMTAP	68	0	7
NMTAP	68	96	7
NMTAP	68	192	6
NMTAP	68	192	7
NMTAP	69	0	4
NMTAP	69	0	5
NMTAP	69	96	4
NMTAP	69	96	5
NMTAP	69	192	4
NMTAP	69	192	5
NMTAP	70	0	5
NMTAP	70	96	5
NMTAP	70	192	4
NMTAP	70	192	5
NMTAP	71	0	6
NMTAP	71	96	6
NMTAP	71	192	6
NMTAP	71	192	7
NMTAP	72	0	0
NMTAP	72	96	0
NMTAP	72	192	0
NMTAP	72	192	1
NMTAP	73	0	2
NMTAP	73	0	3
NMTAP	73	96	2
NMTAP	73	96	3
NMTAP	73	192	2
NMTAP	73	192	3
NMTTP	74	0	1	B	0	L1
NMTTP	74	96	2	B	0	L1
NMTTP	74	192	3	B	0	L1
NMTTP	75	0	6	B	0	L1
NMTTP	75	96	5	B	0	L1
NMTTP	75	192	4	B	0	L1
NMTTP	76	0	1	B	0	L1
NMTTP	76	96	2	B	0	L1
NMTTP	76	192	3	B	0	L1
NMTTP	76	288	4	B	0	L1
NMTTP	77	0	5	B	0	L1
NMTTP	77	96	6	B	0	L1
NMTTP	77	192	0	C	0	L1
NMTTP	78	0	7	E	0	L1
NMTTP	78	96	6	E	0	L1
NMTTP	78	192	4	B	0	L1
NMTTP	78	192	5	E	0	L1
NMTTP	79	0	1	E	0	L1
NMTTP	79	96	2	E	0	L1
NMTTP	79	192	3	B	0	L1
NMTTP	79	192	3	E	0	L1
NMTHO	80	0	0	384	C	1	L1
NMTAP	82	0	6
NMTAP	82	96	6
NMTAP	82	192	6
NMTAP	82	192	7
NMTAP	82	288	6
NMTAP	82	288	7
NMTAP	83	0	0
NMTAP	83	96	0
NMTAP	83	192	0
NMTAP	83	192	1
NMTAP	84	0	2
NMTAP	84	96	2
NMTAP	84	192	0
NMTAP	84	192	1
NMTAP	84	288	0
NMTAP	84	288	1
NMTAP	85	0	7
NMTAP	85	96	7
NMTAP	85	192	6
NMTAP	85	192	7
NMTAP	86	0	6
NMTAP	86	96	6
NMTAP	86	192	4
NMTAP	86	192	5
NMTAP	86	288	4
NMTAP	86	288	5
NMTAP	87	0	3
NMTAP	87	96	3
NMTAP	87	192	2
NMTAP	87	192	3
NMTAP	88	0	1
NMTAP	88	96	1
NMTAP	88	192	2
NMTAP	88	192	3
NMTAP	88	288	2
NMTAP	88	288	3
NMTAP	89	0	4
NMTAP	89	96	4
BRTAP	89	192	4
BRTAP	89	192	5
NMTAP	90	0	6
NMTAP	90	0	7
NMTAP	90	96	6
NMTAP	90	96	7
NMTAP	90	192	5
NMTAP	90	288	5
NMTAP	91	0	3
NMTAP	91	0	4
NMTAP	91	96	3
NMTAP	91	96	4
NMTAP	91	192	2
NMTAP	91	288	2
NMTAP	92	0	0
NMTAP	92	0	1
NMTAP	92	96	0
NMTAP	92	96	1
NMTAP	92	192	2
NMTAP	92	288	2
NMTAP	93	0	3
NMTAP	93	0	4
NMTAP	93	96	3
NMTAP	93	96	4
NMTAP	93	192	2
NMTAP	93	192	5
NMTAP	94	0	2
NMTAP	94	0	3
NMTAP	94	96	2
NMTAP	94	96	3
NMTAP	94	192	1
NMTAP	94	288	1
NMTAP	95	0	0
NMTAP	95	0	7
NMTAP	95	96	0
NMTAP	95	96	7
NMTAP	95	192	6
NMTAP	95	288	6
NMTAP	96	0	4
NMTAP	96	0	5
NMTAP	96	96	4
NMTAP	96	96	5
NMTAP	96	192	6
NMTAP	96	288	6
NMTAP	97	0	0
NMTAP	97	0	7
NMTAP	97	96	0
NMTAP	97	96	7
BXTAP	97	192	1
BXTAP	97	192	6
NMTAP	98	0	0
NMTAP	98	96	0
NMTAP	98	192	1
NMTAP	99	0	2
NMTAP	99	0	3
NMTAP	99	192	2
NMTAP	99	192	3
NMTAP	100	0	4
NMTAP	100	96	4
NMTAP	100	192	5
EXTAP	101	0	6
EXTAP	101	0	7
EXTAP	101	192	6
EXTAP	101	192	7
NMTAP	102	0	7
NMTAP	102	96	7
NMTAP	102	192	6
EXTAP	103	0	4
EXTAP	103	0	5
EXTAP	103	192	4
EXTAP	103	192	5
NMTAP	104	0	3
NMTAP	104	96	3
NMTAP	104	192	2
NMTAP	105	0	0
NMTAP	105	0	1
NMTAP	105	192	0
NMTAP	105	192	1
NMSTR	106	0	1
NMSXR	106	0	1	96	480	4
NMSTR	108	0	6
NMSXL	108	0	6	96	480	3
NMSTR	110	0	2
NMSI_	110	0	2	96	192	7
NMTAP	111	0	6
NMTAP	111	192	0
NMTAP	111	192	7
NMSTR	112	0	0
NMSXL	112	0	0	96	624	3
NMSTR	112	0	7
NMSXR	112	0	7	96	624	4

T_REC_TAP	291
T_REC_BRK	6
T_REC_XTP	10
T_REC_BXX	2
T_REC_HLD	12
T_REC_XHO	0
T_REC_BHO	0
T_REC_BXH	0
T_REC_STR	11
T_REC_BST	0
T_REC_XST	0
T_REC_XBS	0
T_REC_TTP	45
T_REC_THO	1
T_REC_SLD	11
T_REC_BSL	0
T_REC_ALL	389
T_NUM_TAP	357
T_NUM_BRK	8
T_NUM_HLD	13
T_NUM_SLD	11
T_NUM_ALL	389
T_JUDGE_TAP	365
T_JUDGE_HLD	56
T_JUDGE_SLD	11
T_JUDGE_ALL	432
TTM_EACHPAIRS	75
TTM_SCR_TAP	178500
TTM_SCR_BRK	20800
TTM_SCR_HLD	13000
TTM_SCR_SLD	16500
TTM_SCR_ALL	228800
TTM_SCR_S	221200
TTM_SCR_SS	228000
TTM_RAT_ACV	10035

