VERSION	0.00.00	1.05.00
FES_MODE	0
BPM_DEF	150.000	150.000	150.000	150.000
MET_DEF	4	4
RESOLUTION	384
CLK_DEF	384
COMPATIBLE_CODE	MA2

BPM	0	0	150.000
MET	0	0	4	4

NMSTR	1	0	5
NMSI_	1	0	5	96	48	3
NMHLD	1	48	5	96
NMSTR	1	192	2
NMSCR	1	192	2	96	48	4
NMHLD	1	240	2	96
NMSTR	2	0	5
NMSV_	2	0	5	96	48	3
NMHLD	2	48	5	96
NMSTR	2	192	2
NMSCR	2	192	2	96	24	3
NMHLD	2	240	2	96
CNSI_	2	312	3	0	24	5
NMSTR	3	0	6
NMSI_	3	0	6	96	48	3
NMHLD	3	48	6	96
NMSTR	3	192	1
NMSV_	3	192	1	96	48	4
NMHLD	3	240	1	96
NMSTR	4	0	6
NMSCL	4	0	6	96	48	3
NMHLD	4	48	6	96
BXSTR	4	192	0
NMSI_	4	192	0	96	48	4
BXSTR	4	240	7
NMSI_	4	240	7	96	48	3
BXTAP	4	288	0
BXTAP	4	336	7
NMSTR	5	0	5
NMSI_	5	0	5	96	48	7
NMHLD	5	48	5	96
NMSTR	5	192	2
NMSCL	5	192	2	96	48	0
NMHLD	5	240	2	96
NMSTR	6	0	5
NMSV_	6	0	5	96	48	7
NMHLD	6	48	5	96
NMSTR	6	192	2
NMSCL	6	192	2	96	24	1
NMHLD	6	240	2	96
CNSI_	6	312	1	0	24	7
NMSTR	7	0	5
NMSI_	7	0	5	96	48	0
NMHLD	7	48	5	96
NMSTR	7	192	2
NMSI_	7	192	2	96	48	6
NMHLD	7	240	2	96
NMSTR	8	0	5
NMSCR	8	0	5	96	48	0
NMHLD	8	48	5	96
NMTAP	8	192	4
NMTAP	8	240	4
NMTAP	8	284	5
NMTAP	8	292	3
NMHLD	9	0	1	72
NMHLD	9	72	2	72
NMTAP	9	144	3
NMHLD	9	192	6	72
NMHLD	9	264	5	72
NMTAP	9	336	4
NMHLD	10	0	0	72
NMHLD	10	72	1	72
NMTAP	10	144	2
NMHLD	10	192	7	72
NMHLD	10	264	6	72
NMTAP	10	336	5
NMHLD	11	0	3	72
NMHLD	11	72	2	72
NMTAP	11	144	1
NMHLD	11	192	4	72
NMHLD	11	264	5	72
NMTAP	11	336	6
NMTAP	12	0	6
NMTAP	12	0	7
NMTAP	12	96	0
NMTAP	12	96	1
NMTAP	12	192	3
NMTAP	12	240	3
NMTAP	12	288	2
NMTAP	12	312	4
NMTAP	12	336	2
NMTAP	12	360	4
NMSTR	13	0	1
NMSI_	13	0	1	96	48	5
NMSTR	13	48	7
NMSI_	13	48	7	96	48	3
NMTAP	13	96	1
NMTAP	13	144	7
NMTAP	13	240	4
NMSTR	13	288	3
NMSCL	13	288	3	96	48	0
NMSTR	13	288	5
NMSCR	13	288	5	96	48	0
NMTAP	14	0	3
NMTAP	14	0	5
NMTAP	14	96	1
NMTAP	14	96	7
NMTAP	14	144	1
NMTAP	14	144	7
NMTTP	14	192	0	E	1	M1
NMTTP	14	240	2	E	1	M1
NMTTP	14	288	4	E	1	M1
NMTTP	14	336	6	E	1	M1
EXTAP	15	0	0
EXTAP	15	48	2
EXTAP	15	96	0
EXTAP	15	96	7
EXTAP	15	144	5
NMHLD	15	192	7	96
NMTAP	15	288	5
NMTAP	15	336	7
NMTAP	16	0	0
NMTAP	16	48	2
NMSTR	16	96	3
NMSXR	16	96	3	96	96	3
NMTAP	16	144	5
NMSTR	16	192	3
NMSI_	16	192	3	96	48	7
NMSTR	16	192	4
NMSI_	16	192	4	96	48	6
NMTAP	17	48	0
NMTAP	17	48	7
NMTAP	17	96	1
NMTAP	17	96	2
NMTAP	17	144	3
NMTAP	17	144	4
NMHLD	17	192	5	72
NMHLD	17	192	6	72
NMTAP	17	336	0
NMTAP	17	336	7
NMTAP	18	0	5
NMTAP	18	0	6
NMTAP	18	48	3
NMTAP	18	48	4
NMHLD	18	96	1	72
NMHLD	18	96	2	72
NMTAP	18	240	0
NMTAP	18	240	7
NMTAP	18	288	0
NMTAP	18	288	7
NMTAP	19	0	1
NMTAP	19	24	3
NMTAP	19	48	2
NMTAP	19	72	4
NMTAP	19	96	3
NMTAP	19	120	5
NMTAP	19	144	4
NMTAP	19	168	6
NMTAP	19	192	6
NMTAP	19	264	5
NMTAP	19	264	7
NMTAP	19	336	0
NMTAP	19	336	2
NMTAP	20	0	1
NMTAP	20	24	3
NMTAP	20	48	2
NMTAP	20	72	4
NMTAP	20	96	3
NMTAP	20	120	5
NMTAP	20	144	4
NMTAP	20	168	6
NMTAP	20	192	6
NMTAP	20	216	5
NMTAP	20	264	4
NMTAP	20	264	6
NMTAP	20	312	0
NMTAP	20	312	7
NMTAP	20	336	0
NMTAP	20	336	7
NMTAP	21	0	6
NMTAP	21	48	4
NMTAP	21	48	5
NMTAP	21	96	0
NMTAP	21	144	1
NMTAP	21	144	3
NMTAP	21	192	5
NMTAP	21	240	4
NMTAP	21	240	6
NMTAP	21	288	3
NMTAP	21	336	0
NMTAP	21	336	1
NMTAP	22	0	4
NMTAP	22	48	5
NMTAP	22	48	7
NMTAP	22	96	2
NMTAP	22	144	1
NMTAP	22	144	3
NMTAP	22	192	4
NMTAP	22	240	5
NMSTR	22	288	0
NMSI_	22	288	0	96	48	4
NMTAP	22	288	6
NMTAP	22	336	0
NMTAP	22	336	6
NMSTR	23	0	7
NMSI_	23	0	7	96	48	5
CNSXR	23	48	4	0	96	4
NMHLD	23	192	3	48
NMHLD	23	192	6	48
NMHLD	23	264	1	48
NMHLD	23	264	4	48
NMTAP	23	336	5
NMTAP	23	360	2
NMTAP	24	0	4
NMTAP	24	24	1
NMTAP	24	48	3
EXSTR	24	96	0
NMSI_	24	96	0	96	48	4
EXSTR	24	96	1
NMSI_	24	96	1	96	48	5
BXTAP	24	192	0
BXTAP	24	192	1
BRTAP	24	288	2
BRTAP	24	288	7
NMSTR	25	0	6
NMSI_	25	0	6	96	48	3
NMTAP	25	48	6
NMTAP	25	96	3
NMTAP	25	144	2
NMTAP	25	192	1
NMSTR	25	240	0
NMSI_	25	240	0	96	48	3
NMSTR	25	288	7
NMSI_	25	288	7	96	48	4
BRTAP	25	336	0
BRTAP	26	0	7
NMTAP	26	72	2
NMTAP	26	96	2
NMTAP	26	120	3
NMTAP	26	144	1
NMTAP	26	168	3
NMTAP	26	192	1
NMTAP	26	240	0
NMTAP	26	240	7
NMTAP	26	288	4
NMTAP	26	288	6
NMTAP	26	336	3
NMTAP	26	336	4
NMSTR	27	0	2
NMSI_	27	0	2	96	48	7
NMSTR	27	48	5
NMSI_	27	48	5	96	48	0
NMSTR	27	96	2
NMSXL	27	96	2	96	144	5
NMTAP	27	144	5
NMTAP	27	288	6
NMTAP	27	336	7
NMTAP	27	360	7
NMTAP	28	0	4
NMTAP	28	48	1
NMTAP	28	72	1
NMTAP	28	96	4
NMTAP	28	144	2
NMTAP	28	144	3
NMSTR	28	192	2
NMSI_	28	192	2	96	48	7
NMSTR	28	192	3
NMSI_	28	192	3	96	48	6
NMTAP	28	240	1
NMTAP	28	240	4
BRTAP	28	288	2
BRTAP	28	288	3
BXHLD	29	0	1	480
NMHLD	29	0	3	480
NMHLD	30	192	2	96
NMHLD	30	192	3	96
BXHLD	31	0	0	288
NMTAP	31	96	3
NMTAP	31	144	3
NMTAP	31	192	3
NMTAP	31	240	3
NMSTR	31	288	3
NMSI_	31	288	3	96	48	7
NMTAP	32	0	2
NMTAP	32	0	3
BRTAP	32	96	0
BRTAP	32	96	6
NMTAP	32	192	7
NMTAP	32	240	7
NMSTR	32	288	1
NMSI_	32	288	1	96	48	6
NMTAP	33	0	1
NMSTR	33	0	5
NMSI_	33	0	5	96	48	2
NMSTR	33	96	3
NMSCL	33	96	3	96	48	0
NMTAP	33	96	5
NMTAP	33	192	3
NMSTR	33	192	4
NMSCR	33	192	4	96	48	7
NMSTR	33	288	1
NMSI_	33	288	1	96	48	6
NMTAP	33	288	4
NMTAP	34	0	1
NMSTR	34	0	5
NMSI_	34	0	5	96	48	2
NMSTR	34	96	3
NMSCL	34	96	3	96	48	0
NMTAP	34	96	5
NMTAP	34	192	3
NMTAP	34	192	4
NMTAP	34	240	5
NMSTR	34	288	6
NMSI_	34	288	6	96	48	2
NMSTR	35	0	3
NMSCL	35	0	3	96	48	0
NMTAP	35	0	6
NMTAP	35	96	3
NMSTR	35	96	4
NMSCR	35	96	4	96	48	7
NMSTR	35	192	1
NMSI_	35	192	1	96	48	5
NMTAP	35	192	4
NMTAP	35	288	1
NMSTR	35	288	6
NMSI_	35	288	6	96	48	2
NMSTR	36	0	3
NMSCL	36	0	3	96	48	0
NMTAP	36	0	6
NMTAP	36	96	3
NMSTR	36	96	4
NMSCR	36	96	4	96	48	7
NMTAP	36	192	2
NMTAP	36	192	4
NMTAP	36	240	1
NMSTR	36	288	0
NMSI_	36	288	0	96	48	3
NMSI_	36	288	0	96	48	5
NMTAP	37	0	0
NMSTR	37	96	7
NMSCL	37	96	7	96	48	4
NMSCR	37	96	7	96	48	2
NMTAP	37	192	7
NMSTR	37	288	0
NMSV_	37	288	0	96	48	3
NMSV_	37	288	0	96	48	5
NMTAP	38	0	0
NMTAP	38	96	2
NMTAP	38	96	6
NMTAP	38	144	7
NMHLD	38	192	7	96
NMSTR	38	288	5
NMSI_	38	288	5	96	48	0
NMSI_	38	288	5	96	48	2
NMTAP	38	336	5
NMSTR	39	96	2
NMSV_	39	96	2	96	48	5
NMSV_	39	96	2	96	48	7
NMTAP	39	144	2
NMSTR	39	288	4
NMSLL	39	288	4	96	48	0
NMSLR	39	288	4	96	48	0
NMTAP	39	336	4
EXTAP	40	96	1
EXTAP	40	96	7
NMTAP	40	192	3
NMTAP	40	192	5
NMTAP	40	240	3
NMTAP	40	240	5
NMSTR	40	288	0
NMSCR	40	288	0	96	48	3
NMSTR	41	0	0
NMSCL	41	0	0	96	48	5
NMTAP	41	96	0
NMSTR	41	96	4
NMSCL	41	96	4	96	48	1
NMSTR	41	192	4
NMSCR	41	192	4	96	48	7
NMSTR	41	288	0
NMSI_	41	288	0	96	48	3
NMTAP	41	288	4
NMSTR	42	0	0
NMSI_	42	0	0	96	48	5
NMTAP	42	96	0
NMSTR	42	96	4
NMSI_	42	96	4	96	48	1
NMTAP	42	192	4
NMTAP	42	192	5
NMTAP	42	240	6
NMSTR	42	288	7
NMSCL	42	288	7	96	48	4
NMSTR	43	0	7
NMSCR	43	0	7	96	48	2
NMSTR	43	96	3
NMSCR	43	96	3	96	48	6
NMTAP	43	96	7
NMSTR	43	192	3
NMSCL	43	192	3	96	48	0
NMTAP	43	288	3
NMSTR	43	288	7
NMSI_	43	288	7	96	48	4
NMSTR	44	0	7
NMSI_	44	0	7	96	48	2
NMSTR	44	96	3
NMSI_	44	96	3	96	48	6
NMTAP	44	96	7
NMTAP	44	192	2
NMTAP	44	192	3
NMTAP	44	240	1
NMTAP	44	288	0
NMHLD	44	336	0	96
NMTAP	45	48	2
NMSTR	45	96	2
NMSI_	45	96	2	96	96	5
NMSTR	45	192	5
NMSI_	45	192	5	96	96	0
NMSTR	45	288	0
NMSI_	45	288	0	96	96	3
NMTAP	46	0	3
NMTAP	46	96	4
NMTAP	46	144	4
NMTAP	46	192	3
NMTAP	46	192	5
NMTAP	46	288	4
NMTAP	46	336	3
NMHLD	47	0	2	96
NMTAP	47	96	0
NMTAP	47	144	7
NMSTR	47	192	7
NMSXL	47	192	7	96	96	0
NMSXR	47	192	7	96	96	6
NMTAP	47	288	7
NMTAP	48	96	2
NMTAP	48	96	4
NMTAP	48	144	5
NMSTR	48	192	6
NMSCL	48	192	6	96	48	3
NMTAP	48	288	3
NMHLD	49	0	1	72
NMHLD	49	72	2	72
NMTAP	49	144	3
NMTAP	49	168	3
NMHLD	49	192	4	72
NMHLD	49	264	5	72
NMTAP	49	336	6
NMTAP	49	360	6
NMHLD	50	0	6	72
NMHLD	50	72	5	72
NMTAP	50	144	4
NMTAP	50	168	4
NMHLD	50	192	3	72
NMHLD	50	264	2	72
NMTAP	50	336	1
NMTAP	50	360	1
NMHLD	51	0	1	72
NMHLD	51	72	2	72
NMTAP	51	144	3
NMTAP	51	168	3
NMHLD	51	192	4	72
NMHLD	51	264	5	72
NMTAP	51	336	6
NMTAP	51	360	6
NMSTR	52	0	6
NMSI_	52	0	6	96	48	3
NMSTR	52	96	1
NMSI_	52	96	1	96	48	5
NMSTR	52	192	4
NMSI_	52	192	4	96	48	7
NMTAP	52	288	2
EXTAP	53	0	3
NMTAP	53	24	3
NMTAP	53	48	5
EXTAP	53	72	1
NMTAP	53	96	1
EXTAP	53	120	3
NMTAP	53	144	2
NMTAP	53	168	4
EXTAP	53	192	3
NMTAP	53	216	3
NMTAP	53	240	6
EXTAP	53	264	0
NMTAP	53	288	0
EXTAP	53	312	3
NMTAP	53	336	2
NMTAP	53	360	4
EXTAP	54	0	3
NMTAP	54	24	3
NMTAP	54	48	5
EXTAP	54	72	1
NMTAP	54	96	1
EXTAP	54	120	3
NMTAP	54	144	2
NMTAP	54	168	4
EXTAP	54	192	3
NMTAP	54	216	3
NMTAP	54	240	6
EXTAP	54	264	0
NMTAP	54	288	0
EXTAP	54	312	3
NMTAP	54	336	2
NMTAP	54	360	4
EXTAP	55	0	3
NMTAP	55	24	3
NMTAP	55	48	5
EXTAP	55	72	1
NMTAP	55	96	1
EXTAP	55	120	3
NMTAP	55	144	2
NMTAP	55	168	4
EXTAP	55	192	3
NMTAP	55	216	3
NMTAP	55	240	6
EXTAP	55	264	0
NMSTR	55	288	0
NMSI_	55	288	0	96	48	4
EXTAP	55	312	3
NMTAP	55	336	2
NMSTR	56	0	0
NMSI_	56	0	0	96	48	2
NMSI_	56	0	0	96	48	6
NMSTR	56	96	0
NMSV_	56	96	0	96	48	3
NMSV_	56	96	0	96	48	5
NMTAP	56	192	0
BRTAP	56	288	2
BRSTR	56	288	6
NMSI_	56	288	6	96	96	0
NMHLD	57	0	4	480
CNSI_	57	96	0	0	96	5
CNSI_	57	192	5	0	96	2
CNSLR	57	288	2	0	96	7
CNSLR	58	0	7	0	96	3
NMTAP	58	192	3
NMSTR	58	288	2
NMSI_	58	288	2	96	96	4
NMHLD	59	0	0	480
CNSI_	59	96	4	0	96	1
CNSI_	59	192	1	0	96	6
CNSLR	59	288	6	0	96	3
CNSLR	60	0	3	0	96	7
NMTAP	60	192	7
NMSTR	60	288	6
NMSCL	60	288	6	96	96	4
NMHLD	61	0	4	192
CNSUL	61	96	4	0	48	7
CNSUL	61	144	7	0	48	3
NMSTR	61	288	1
NMSCR	61	288	1	96	96	3
NMHLD	62	0	3	192
CNSUR	62	96	3	0	48	0
CNSUR	62	144	0	0	96	4
NMSTR	62	288	5
NMSCR	62	288	5	96	96	7
NMHLD	63	0	7	192
CNSUR	63	96	7	0	48	4
CNSUR	63	144	4	0	96	0
NMSTR	63	288	2
NMSCL	63	288	2	96	96	0
NMHLD	64	0	0	192
CNSUL	64	96	0	0	48	3
CNSUL	64	144	3	0	96	7
NMSTR	64	288	0
NMSCR	64	288	0	96	288	6
NMTAP	65	0	7
NMTAP	65	96	7
NMTAP	65	192	7
NMSTR	65	288	7
NMSLL	65	288	7	96	192	3
NMTAP	66	0	0
NMTAP	66	96	0
NMTAP	66	192	0
CNSI_	66	192	3	0	96	1
NMSTR	66	288	0
NMSCR	66	288	0	96	96	2
NMTAP	67	0	7
CNSI_	67	96	2	0	96	4
NMTAP	67	96	7
CNSCR	67	192	4	0	96	6
NMTAP	67	192	7
NMSTR	67	288	7
NMSI_	67	288	7	96	96	5
NMTAP	68	0	0
NMTAP	68	96	0
CNSCL	68	96	5	0	96	3
NMTAP	68	192	0
CNSI_	68	192	3	0	96	1
NMTAP	68	288	0
NMTAP	69	0	3
NMTAP	69	48	3
NMTAP	69	96	3
NMTAP	69	144	3
NMTAP	69	192	2
NMTAP	69	192	4
NMTAP	69	240	2
NMTAP	69	240	4
NMTAP	69	288	2
NMTAP	69	288	4
NMTAP	69	336	2
NMTAP	69	336	4
NMTAP	70	0	5
NMTAP	70	48	5
NMTAP	70	96	5
NMTAP	70	144	5
NMTAP	70	192	3
NMTAP	70	192	6
NMTAP	70	240	3
NMTAP	70	240	6
NMTAP	70	288	3
NMTAP	70	288	6
NMTAP	70	336	3
NMTAP	70	336	6
NMTAP	71	0	2
NMTAP	71	24	5
NMTAP	71	48	2
NMTAP	71	72	5
NMTAP	71	96	2
NMTAP	71	120	5
NMTAP	71	144	2
NMTAP	71	168	5
NMTAP	71	192	1
NMTAP	71	216	4
NMTAP	71	240	1
NMTAP	71	264	4
NMTAP	71	288	1
NMTAP	71	312	4
NMTAP	71	336	1
NMTAP	71	360	4
NMTAP	72	0	0
NMTAP	72	24	3
NMTAP	72	48	0
NMTAP	72	72	3
NMTAP	72	96	0
NMTAP	72	120	3
NMTAP	72	144	0
NMTAP	72	168	3
BRTAP	72	192	7
NMSTR	72	288	0
NMSI_	72	288	0	96	48	3
NMTAP	72	288	1
NMTAP	73	0	0
NMSTR	73	0	7
NMSI_	73	0	7	96	48	4
NMSTR	73	96	6
NMSLL	73	96	6	96	48	2
NMTAP	73	96	7
NMTAP	73	192	3
NMTAP	73	192	6
NMSTR	73	288	0
NMSI_	73	288	0	96	48	3
NMTAP	73	288	1
NMTAP	74	0	0
NMSTR	74	0	7
NMSI_	74	0	7	96	48	4
NMSTR	74	96	6
NMSI_	74	96	6	96	48	3
NMTAP	74	96	7
NMTAP	74	192	0
NMTAP	74	192	6
NMTAP	74	240	1
NMSTR	74	288	2
NMSCL	74	288	2	96	48	7
NMTAP	75	0	2
NMSTR	75	0	5
NMSCR	75	0	5	96	48	0
NMSTR	75	96	3
NMSV_	75	96	3	96	48	6
NMTAP	75	96	5
NMTAP	75	192	3
NMSTR	75	192	4
NMSV_	75	192	4	96	48	1
NMSTR	75	288	2
NMSCL	75	288	2	96	48	7
NMTAP	75	288	4
NMTAP	76	0	2
NMSTR	76	0	5
NMSCR	76	0	5	96	48	0
NMSTR	76	96	3
NMSV_	76	96	3	96	48	6
NMTAP	76	96	5
NMTAP	76	192	3
NMTAP	76	192	4
NMSTR	76	288	0
NMSI_	76	288	0	96	48	3
NMSTR	76	288	4
NMSI_	76	288	4	96	48	7
NMTAP	77	0	0
NMTAP	77	0	4
NMSTR	77	96	3
NMSCL	77	96	3	96	48	0
NMSTR	77	96	7
NMSCL	77	96	7	96	48	4
NMTAP	77	192	3
NMTAP	77	192	7
NMSTR	77	288	0
NMSI_	77	288	0	96	48	3
NMSTR	77	288	4
NMSV_	77	288	4	96	48	7
NMTAP	78	0	0
NMTAP	78	0	4
NMSTR	78	96	3
NMSUR	78	96	3	96	48	0
NMSTR	78	96	7
NMSCL	78	96	7	96	48	4
NMTAP	78	192	3
NMTAP	78	192	7
NMSTR	78	288	0
NMSCR	78	288	0	96	48	3
NMSTR	78	288	4
NMSCR	78	288	4	96	48	7
NMTAP	79	0	0
NMSTR	79	0	4
NMSUL	79	0	4	96	96	3
EXTAP	79	192	6
EXTAP	79	240	6
NMSTR	79	288	3
NMSCL	79	288	3	96	48	0
NMSTR	79	288	7
NMSCL	79	288	7	96	48	4
NMTAP	80	0	3
NMSTR	80	0	7
NMSUR	80	0	7	96	96	0
EXTAP	80	192	3
NMSTR	80	288	6
NMSI_	80	288	6	96	48	4
NMSTR	80	288	7
NMSI_	80	288	7	96	48	3
NMSTR	81	0	6
NMSI_	81	0	6	96	48	2
NMSTR	81	0	7
NMSI_	81	0	7	96	48	1
NMSTR	81	96	6
NMSI_	81	96	6	96	48	4
NMSTR	81	96	7
NMSI_	81	96	7	96	48	4
NMTAP	81	192	6
NMTAP	81	192	7
NMSTR	81	288	0
NMSUR	81	288	0	96	48	4
NMSTR	81	288	1
NMSCR	81	288	1	96	48	3
NMSTR	82	0	0
NMSI_	82	0	0	96	48	5
NMSTR	82	0	1
NMSLL	82	0	1	96	48	5
NMSTR	82	96	0
NMSI_	82	96	0	96	48	3
NMSTR	82	96	1
NMSCR	82	96	1	96	48	3
NMTAP	82	192	0
NMTAP	82	192	1
NMSTR	82	288	4
NMSI_	82	288	4	96	48	0
NMSTR	82	288	5
NMSI_	82	288	5	96	48	7
NMSTR	83	0	4
NMSI_	83	0	4	96	48	2
NMSTR	83	0	5
NMSI_	83	0	5	96	48	1
NMSTR	83	96	4
NMSI_	83	96	4	96	48	0
NMSTR	83	96	5
NMSI_	83	96	5	96	48	7
NMTAP	83	192	4
NMTAP	83	192	5
NMSTR	83	288	2
NMSI_	83	288	2	96	48	7
NMSTR	83	288	3
NMSCL	83	288	3	96	48	7
NMSTR	84	0	2
NMSI_	84	0	2	96	48	5
NMSTR	84	0	3
NMSCR	84	0	3	96	48	5
NMSTR	84	96	2
NMSI_	84	96	2	96	48	7
NMSTR	84	96	3
NMSI_	84	96	3	96	48	0
NMTAP	84	192	2
NMTAP	84	192	3
NMSTR	84	288	5
NMSCR	84	288	5	96	48	0
NMTAP	85	0	4
NMTAP	85	0	5
NMTAP	85	48	3
NMSTR	85	96	2
NMSCL	85	96	2	96	48	7
NMTAP	85	192	2
NMTAP	85	192	3
NMTAP	85	240	4
NMSTR	85	288	5
NMSCR	85	288	5	96	48	0
NMTAP	86	0	4
NMTAP	86	0	5
NMTAP	86	48	3
NMHLD	86	96	2	96
NMTAP	86	192	3
NMTAP	86	240	4
NMSTR	86	288	5
NMSCR	86	288	5	96	96	0
NMTAP	86	336	5
NMSTR	87	0	0
NMSCR	87	0	0	96	96	3
NMSTR	87	96	3
NMSCR	87	96	3	96	96	6
NMSTR	87	192	6
NMSCR	87	192	6	96	96	1
NMSTR	87	288	1
NMSCR	87	288	1	96	96	5
NMSTR	88	0	5
NMSCR	88	0	5	96	96	1
NMSTR	88	96	1
NMSCR	88	96	1	96	96	5
NMTAP	88	192	5
BRTAP	88	288	1
NMTAP	89	0	0
NMTAP	89	24	4
NMTAP	89	48	0
NMTAP	89	72	4
NMTAP	89	96	0
NMTAP	89	120	4
NMTAP	89	144	0
NMTAP	89	168	4
NMTAP	89	192	0
NMTAP	89	216	4
NMTAP	89	240	0
NMTAP	89	264	4
NMTAP	89	288	1
NMTAP	89	312	5
NMTAP	89	336	1
NMTAP	89	360	5
NMTAP	90	0	2
NMTAP	90	24	6
NMTAP	90	48	2
NMTAP	90	72	6
NMTAP	90	96	2
NMTAP	90	120	6
NMTAP	90	144	2
NMTAP	90	168	6
NMTAP	90	192	2
NMTAP	90	216	6
NMTAP	90	240	2
NMTAP	90	264	6
NMTAP	90	288	3
NMTAP	90	312	7
NMTAP	90	336	3
NMTAP	90	360	7
NMTAP	91	0	4
NMTAP	91	24	5
NMTAP	91	48	4
NMTAP	91	72	5
NMTAP	91	96	4
NMTAP	91	120	5
NMTAP	91	144	3
NMTAP	91	168	6
NMTAP	91	192	3
NMTAP	91	216	6
NMTAP	91	240	3
NMTAP	91	264	6
NMTAP	91	288	2
NMTAP	91	312	7
NMTAP	91	336	2
NMTAP	91	360	7
NMTAP	92	0	1
NMTAP	92	24	0
NMTAP	92	48	1
NMTAP	92	72	0
NMTAP	92	96	1
NMTAP	92	120	0
NMTAP	92	144	1
NMTAP	92	168	0
NMTAP	92	192	2
NMTAP	92	216	7
NMTAP	92	240	3
NMTAP	92	264	6
BRTAP	92	288	4
NMSTR	93	0	2
NMSI_	93	0	2	96	48	7
NMTAP	93	48	2
NMSTR	93	96	5
NMSI_	93	96	5	96	48	0
NMTAP	93	144	5
NMSTR	93	192	3
NMSI_	93	192	3	96	48	7
NMTAP	93	240	3
NMSTR	93	288	4
NMSI_	93	288	4	96	48	0
NMTAP	93	336	4
NMSTR	94	0	1
NMSI_	94	0	1	96	48	4
NMTAP	94	48	1
NMSTR	94	96	5
NMSI_	94	96	5	96	48	0
NMTAP	94	144	5
NMSTR	94	192	2
NMSI_	94	192	2	96	48	7
NMTAP	94	240	2
NMSTR	94	288	4
NMSCR	94	288	4	96	96	2
NMTAP	94	336	4
NMHLD	95	0	0	192
NMTAP	95	192	3
NMTAP	95	240	5
NMTAP	95	288	4
NMTAP	95	288	6
NMTAP	95	336	4
NMTAP	95	336	6
BXTAP	96	0	3
NMTAP	96	24	3
NMTAP	96	48	5
NMTAP	96	72	1
BXTAP	96	96	3
NMTAP	96	120	3
NMTAP	96	144	2
NMTAP	96	168	4
BXTAP	96	192	3
NMTAP	96	216	3
NMTAP	96	240	5
NMTAP	96	264	1
BRTAP	96	288	7
NMSTR	97	0	6
NMSI_	97	0	6	96	48	3
NMTAP	97	72	7
NMTAP	97	96	6
NMTAP	97	144	0
NMSTR	97	192	1
NMSI_	97	192	1	96	48	4
NMTAP	97	264	0
NMTAP	97	288	1
NMTAP	97	336	7
NMSTR	98	0	6
NMSI_	98	0	6	96	48	2
NMTAP	98	72	7
NMTAP	98	96	6
NMTAP	98	144	0
NMSTR	98	192	1
NMSI_	98	192	1	96	48	5
NMTAP	98	264	0
NMTAP	98	288	1
NMTAP	98	336	7
NMSTR	99	0	6
NMSI_	99	0	6	96	48	0
NMTAP	99	72	4
NMTAP	99	96	6
NMTAP	99	144	2
NMSTR	99	192	1
NMSI_	99	192	1	96	48	7
NMTAP	99	264	3
NMTAP	99	288	1
NMTAP	99	336	5
NMSTR	100	0	6
NMSI_	100	0	6	96	48	0
NMTAP	100	72	4
NMTAP	100	96	6
NMTAP	100	144	2
NMTAP	100	192	1
NMTAP	100	216	1
NMTAP	100	240	3
NMTAP	100	264	2
NMTAP	100	288	6
NMTAP	100	312	4
BRTAP	100	336	0

T_REC_TAP	467
T_REC_BRK	14
T_REC_XTP	28
T_REC_BXX	7
T_REC_HLD	61
T_REC_XHO	0
T_REC_BHO	0
T_REC_BXH	2
T_REC_STR	162
T_REC_BST	1
T_REC_XST	2
T_REC_XBS	2
T_REC_TTP	4
T_REC_THO	0
T_REC_SLD	176
T_REC_BSL	0
T_REC_ALL	926
T_NUM_TAP	663
T_NUM_BRK	26
T_NUM_HLD	61
T_NUM_SLD	176
T_NUM_ALL	926
T_JUDGE_TAP	687
T_JUDGE_HLD	168
T_JUDGE_SLD	176
T_JUDGE_ALL	1031
TTM_EACHPAIRS	132
TTM_SCR_TAP	331500
TTM_SCR_BRK	67600
TTM_SCR_HLD	61000
TTM_SCR_SLD	264000
TTM_SCR_ALL	724100
TTM_SCR_S	699900
TTM_SCR_SS	721500
TTM_RAT_ACV	10036

