VERSION	0.00.00	1.05.00
FES_MODE	0
BPM_DEF	150.000	150.000	150.000	150.000
MET_DEF	4	4
RESOLUTION	384
CLK_DEF	384
COMPATIBLE_CODE	MA2

BPM	0	0	150.000
MET	0	0	4	4

EXTAP	1	0	3
EXTAP	1	0	5
NMTAP	1	192	2
NMTAP	1	192	4
EXTAP	2	0	4
EXTAP	2	0	5
NMTAP	2	192	2
NMTAP	2	192	3
EXTAP	3	0	3
EXTAP	3	0	6
NMTAP	3	192	1
NMTAP	3	192	4
EXTAP	4	0	4
EXTAP	4	0	6
EXTAP	4	192	7
EXTAP	4	240	7
EXTAP	4	288	0
EXTAP	4	336	0
EXTAP	5	0	6
NMTAP	5	192	2
NMTAP	5	192	4
EXTAP	6	0	4
EXTAP	6	0	6
NMTAP	6	192	1
NMTAP	6	192	3
EXTAP	7	0	4
EXTAP	7	0	5
NMTAP	7	192	2
NMTAP	7	192	3
EXHLD	8	0	4	192
NMTAP	8	192	3
NMTAP	8	288	3
NMTAP	9	0	4
NMTAP	9	0	6
NMTAP	9	96	4
NMTAP	9	96	6
NMTAP	9	192	1
NMTAP	9	192	3
NMTAP	9	288	1
NMTAP	9	288	3
NMTAP	10	0	4
NMTAP	10	0	5
NMTAP	10	96	4
NMTAP	10	96	5
NMTAP	10	192	2
NMTAP	10	192	3
NMTAP	10	288	2
NMTAP	10	288	3
NMHLD	11	0	4	96
NMHLD	11	0	6	96
NMTAP	11	192	1
NMTAP	11	192	3
NMHLD	11	288	0	384
BXTAP	12	0	3
BXTAP	12	96	3
BXTAP	12	192	3
BXTAP	12	288	3
NMHLD	13	0	6	96
NMTAP	13	96	4
NMTAP	13	192	1
NMTAP	13	240	1
NMTAP	13	288	3
NMHLD	14	0	6	96
NMTAP	14	96	4
NMTAP	14	192	1
NMTAP	14	240	1
NMTAP	14	288	3
NMTAP	14	336	2
NMHLD	15	0	6	96
NMTAP	15	96	4
NMHLD	15	192	1	96
NMTAP	15	288	3
NMHLD	16	0	6	96
NMTAP	16	96	4
NMTAP	16	192	4
NMTAP	16	288	3
NMTAP	16	288	5
NMHLD	17	0	4	96
NMHLD	17	0	6	96
NMHLD	17	192	5	96
NMHLD	17	192	7	96
NMHLD	18	0	0	96
NMHLD	18	0	2	96
NMHLD	18	192	1	96
NMHLD	18	192	3	96
NMTAP	19	0	5
NMTAP	19	48	5
NMTAP	19	96	4
NMTAP	19	144	4
NMSTR	19	192	6
NMSI_	19	192	6	96	96	3
NMTAP	20	0	1
NMTAP	20	48	1
NMTAP	20	96	3
NMTAP	20	144	3
NMSTR	20	192	2
NMSI_	20	192	2	96	96	7
NMTAP	21	0	5
NMTAP	21	48	5
NMTAP	21	144	6
NMTAP	21	144	7
NMTAP	21	240	0
NMTAP	21	240	1
NMTAP	21	336	2
NMTAP	21	336	3
NMTAP	22	48	4
NMTAP	22	48	5
NMTAP	22	144	6
NMHLD	22	192	6	96
NMTAP	22	288	4
NMTAP	23	0	2
NMTAP	23	48	2
NMTAP	23	96	3
NMTAP	23	144	3
NMSTR	23	192	1
NMSI_	23	192	1	96	96	5
NMSTR	24	0	7
NMSI_	24	0	7	96	96	3
NMTAP	24	192	1
NMTTP	24	288	2	B	0	M1
NMTTP	24	288	3	B	0	M1
NMTTP	24	288	3	E	1	M1
NMHLD	25	0	4	96
NMHLD	25	0	6	96
NMHLD	25	192	1	96
NMHLD	25	192	3	96
BRTAP	26	0	2
BRTAP	26	0	3
NMTTP	26	96	3	E	0	M1
NMTTP	26	192	4	E	0	M1
NMTTP	26	288	5	E	0	M1
NMHLD	27	0	5	96
NMHLD	27	0	7	96
NMHLD	27	192	0	96
NMHLD	27	192	2	96
NMTAP	28	0	1
NMTAP	28	0	3
NMTAP	28	96	4
NMTAP	28	96	6
NMHLD	28	192	1	768
NMSTR	28	288	7
NMSI_	28	288	7	96	96	2
NMTAP	30	192	3
NMTAP	30	240	3
NMSTR	30	288	2
NMSCL	30	288	2	96	96	7
NMHLD	31	288	1	384
BXTAP	32	0	3
BXTAP	32	96	3
BXTAP	32	192	3
BXTAP	32	288	3
NMHLD	33	0	5	96
NMHLD	33	96	7	96
NMHLD	33	192	0	96
NMTAP	33	288	2
NMHLD	34	0	0	96
NMHLD	34	0	1	96
NMTAP	34	192	6
NMTAP	34	192	7
NMTAP	34	288	0
NMTAP	34	288	7
NMHLD	35	0	6	96
NMHLD	35	96	4	96
NMHLD	35	192	3	96
NMTAP	35	288	1
NMHLD	36	0	0	96
NMHLD	36	0	1	96
NMTAP	36	192	6
NMTAP	36	192	7
NMTAP	36	288	0
NMTAP	36	288	7
NMSTR	37	0	1
NMSCR	37	0	1	96	96	4
NMSTR	37	192	7
NMSCL	37	192	7	96	96	4
NMTAP	38	0	1
NMTAP	38	96	2
NMTAP	38	96	3
NMTAP	38	192	6
NMTAP	38	288	4
NMTAP	38	288	5
NMSTR	39	0	3
NMSCL	39	0	3	96	96	0
NMSTR	39	192	4
NMSCR	39	192	4	96	96	7
NMTAP	40	0	1
NMTAP	40	96	1
NMTAP	40	96	7
NMTAP	40	192	0
NMTAP	40	192	6
NMTAP	40	288	0
NMTAP	40	288	6
NMHLD	41	0	2	96
NMHLD	41	96	0	96
NMHLD	41	192	7	96
NMTAP	41	288	5
NMHLD	42	0	6	96
NMHLD	42	0	7	96
NMTAP	42	192	0
NMTAP	42	192	1
NMTAP	42	288	0
NMTAP	42	288	7
NMHLD	43	0	1	96
NMHLD	43	96	3	96
NMHLD	43	192	4	96
NMTAP	43	288	6
NMHLD	44	0	6	96
NMHLD	44	0	7	96
NMTAP	44	192	0
NMTAP	44	192	1
NMTAP	44	288	0
NMTAP	44	288	7
NMSTR	45	0	7
NMSCL	45	0	7	96	96	4
NMSTR	45	192	0
NMSCR	45	192	0	96	96	3
NMTAP	46	0	6
NMTAP	46	96	4
NMTAP	46	96	5
NMTAP	46	192	1
NMTAP	46	288	2
NMTAP	46	288	3
NMSTR	47	0	4
NMSCR	47	0	4	96	96	7
NMSTR	47	192	3
NMSCL	47	192	3	96	96	0
NMTAP	48	0	7
NMSTR	48	96	7
NMSLL	48	96	7	96	144	3
NMTAP	49	0	0
NMTAP	49	0	2
NMTAP	49	96	0
NMTAP	49	96	2
NMTAP	49	192	1
NMTAP	49	192	3
NMTAP	49	288	1
NMTAP	49	288	3
NMTAP	50	0	0
NMTAP	50	0	2
NMTAP	50	96	0
NMTAP	50	96	2
NMTAP	50	192	1
NMTAP	50	192	3
NMTAP	50	288	1
NMTAP	50	288	3
NMTAP	51	0	0
NMTAP	51	0	2
NMTAP	51	96	0
NMTAP	51	96	2
NMTAP	51	192	1
NMTAP	51	192	3
NMTAP	51	288	1
NMTAP	51	288	3
NMHLD	52	0	0	96
NMHLD	52	0	2	96
EXTAP	52	192	2
EXTAP	52	192	4
EXTAP	52	288	3
EXTAP	52	288	5
NMHLD	53	0	6	72
NMHLD	53	72	4	72
NMTAP	53	144	5
NMHLD	53	192	1	72
NMHLD	53	264	3	72
NMTAP	53	336	2
NMHLD	54	0	6	72
NMHLD	54	72	4	72
NMTAP	54	144	5
NMHLD	54	192	1	72
NMHLD	54	264	3	72
NMTAP	54	336	2
NMHLD	55	0	1	72
NMHLD	55	72	2	72
NMTAP	55	144	3
NMHLD	55	192	6	72
NMHLD	55	264	5	72
NMTAP	55	336	4
BXTAP	56	0	4
BXTAP	56	96	6
BXTAP	56	96	7
BXTAP	56	192	0
BXTAP	56	192	1
BXSTR	56	288	2
NMSCL	56	288	2	96	384	4
BXTAP	56	288	3
NMTAP	58	192	4
NMSTR	58	288	5
NMSCL	58	288	5	96	384	7
NMTAP	60	192	3
NMSTR	60	288	2
NMSCR	60	288	2	96	96	5
NMTAP	61	192	7
NMSTR	61	288	6
NMSCR	61	288	6	96	96	1
NMTAP	62	192	2
NMSTR	62	288	1
NMSLR	62	288	1	96	144	5
NMTAP	63	192	6
NMSTR	63	288	5
NMSLR	63	288	5	96	144	1
NMTAP	64	192	3
NMTAP	64	288	2
NMTAP	64	288	4
NMHLD	65	0	5	384
NMTAP	65	96	4
NMTAP	65	192	4
NMTAP	65	288	4
NMHLD	66	0	2	384
NMTAP	66	96	3
NMTAP	66	192	3
NMTAP	66	288	3
NMHLD	67	0	6	384
NMTAP	67	96	4
NMTAP	67	192	4
NMTAP	67	288	4
NMHLD	68	0	1	384
NMTAP	68	96	3
NMTAP	68	192	3
NMTAP	68	288	3
NMTAP	69	0	6
NMTAP	69	48	6
NMTAP	69	96	4
NMTAP	69	192	1
NMTAP	69	240	1
NMTAP	69	288	3
NMTAP	70	0	7
NMTAP	70	48	7
NMTAP	70	96	3
NMTAP	70	144	3
NMTAP	70	192	5
NMTAP	70	240	5
NMTAP	70	288	1
NMTAP	70	336	1
NMTAP	71	0	3
NMTAP	71	48	3
NMTAP	71	96	0
NMTAP	71	144	0
NMTAP	71	192	4
NMTAP	71	240	4
NMTAP	71	288	2
NMTAP	71	336	2
NMTAP	72	0	6
NMTAP	72	48	6
BRSTR	72	96	0
NMSF_	72	96	0	96	96	4
NMTAP	73	0	2
NMTAP	73	0	3
NMTAP	73	96	0
NMTAP	73	96	1
NMTAP	73	192	6
NMTAP	73	192	7
NMTAP	73	288	4
NMTAP	73	288	5
NMHLD	74	0	5	96
NMHLD	74	0	7	96
NMTAP	74	192	0
NMTAP	74	192	2
NMTAP	74	288	0
NMTAP	74	288	7
NMTAP	75	0	4
NMTAP	75	0	5
NMTAP	75	96	6
NMTAP	75	96	7
NMTAP	75	192	0
NMTAP	75	192	1
NMSTR	75	288	2
NMSSL	75	288	2	96	192	6
NMTAP	75	288	3
NMTAP	76	288	7
NMSTR	77	0	4
NMSUR	77	0	4	96	96	1
NMSTR	77	0	5
NMSCR	77	0	5	96	96	0
NMTAP	77	288	0
NMTAP	77	288	1
NMSTR	78	0	2
NMSCL	78	0	2	96	96	7
NMSTR	78	0	3
NMSUL	78	0	3	96	96	6
NMTAP	78	288	6
NMTAP	78	288	7
NMSTR	79	0	4
NMSLL	79	0	4	96	144	0
NMSLR	79	0	4	96	144	0
NMTAP	79	0	5
EXTAP	80	0	1
EXTAP	80	0	7
EXTAP	80	96	1
EXTAP	80	96	7
NMTAP	80	192	3
NMTAP	80	192	5
NMTAP	80	288	3
NMTAP	80	288	5
NMTAP	81	0	2
NMTAP	81	0	3
NMTAP	81	96	0
NMTAP	81	96	1
NMTAP	81	192	6
NMTAP	81	192	7
NMTAP	81	288	4
NMTAP	81	288	5
NMHLD	82	0	5	96
NMHLD	82	96	7	96
NMHLD	82	192	0	96
NMTAP	82	288	2
NMTAP	83	0	2
NMTAP	83	0	3
NMTAP	83	96	0
NMTAP	83	96	1
NMTAP	83	192	6
NMTAP	83	192	7
NMTAP	83	288	4
NMTAP	83	288	5
NMHLD	84	0	5	96
NMHLD	84	96	7	96
NMHLD	84	192	0	96
NMTAP	84	288	2
NMSTR	85	0	2
NMSUR	85	0	2	96	96	7
NMSTR	85	0	3
NMSCR	85	0	3	96	96	6
NMTAP	85	288	6
NMTAP	85	288	7
NMSTR	86	0	4
NMSCL	86	0	4	96	96	1
NMSTR	86	0	5
NMSUL	86	0	5	96	96	0
NMTAP	86	288	0
NMTAP	86	288	1
NMSTR	87	0	2
NMSI_	87	0	2	96	96	6
NMSTR	87	0	3
NMSI_	87	0	3	96	96	7
NMTAP	87	288	6
NMTAP	87	288	7
NMSTR	88	0	4
NMSI_	88	0	4	96	96	0
NMSTR	88	0	5
NMSI_	88	0	5	96	96	1
BRTAP	88	288	7
EXHLD	89	0	0	288
NMTAP	89	96	3
NMTAP	89	192	3
NMTAP	89	288	3
NMHLD	90	0	1	288
NMTAP	90	96	2
NMTAP	90	192	2
NMTAP	90	288	2
NMHLD	91	0	6	288
NMTAP	91	96	4
NMTAP	91	192	4
NMTAP	91	288	4
NMHLD	92	0	1	192
NMTAP	92	96	3
NMTAP	92	192	3
NMSTR	92	288	2
NMSCL	92	288	2	96	96	7
NMHLD	92	288	3	288
NMTAP	93	192	2
NMHLD	93	288	0	288
NMSTR	93	288	1
NMSCR	93	288	1	96	96	4
NMTAP	94	192	1
NMSTR	94	288	6
NMSXR	94	288	6	96	240	2
NMTAP	96	0	2
NMTAP	96	0	3
NMTAP	96	96	0
NMTAP	96	96	1
NMTAP	96	192	6
NMTAP	96	192	7
BRTAP	96	288	4
BRTAP	96	288	5
NMHLD	97	0	1	72
NMHLD	97	72	2	72
NMTAP	97	144	3
NMHLD	97	192	6	72
NMHLD	97	264	5	72
NMTAP	97	336	4
NMHLD	98	0	1	72
NMHLD	98	72	2	72
NMTAP	98	144	3
NMHLD	98	192	6	72
NMHLD	98	264	5	72
NMTAP	98	336	4
NMHLD	99	0	2	72
NMHLD	99	72	1	72
NMTAP	99	144	0
NMHLD	99	192	5	72
NMHLD	99	264	6	72
NMTAP	99	336	7
NMHLD	100	0	2	72
NMHLD	100	72	1	72
NMTAP	100	144	0
NMSTR	100	192	0
NMSSL	100	192	0	96	144	4

T_REC_TAP	271
T_REC_BRK	5
T_REC_XTP	25
T_REC_BXX	14
T_REC_HLD	92
T_REC_XHO	2
T_REC_BHO	0
T_REC_BXH	0
T_REC_STR	38
T_REC_BST	1
T_REC_XST	0
T_REC_XBS	1
T_REC_TTP	6
T_REC_THO	0
T_REC_SLD	41
T_REC_BSL	0
T_REC_ALL	496
T_NUM_TAP	340
T_NUM_BRK	21
T_NUM_HLD	94
T_NUM_SLD	41
T_NUM_ALL	496
T_JUDGE_TAP	361
T_JUDGE_HLD	262
T_JUDGE_SLD	41
T_JUDGE_ALL	664
TTM_EACHPAIRS	117
TTM_SCR_TAP	170000
TTM_SCR_BRK	54600
TTM_SCR_HLD	94000
TTM_SCR_SLD	61500
TTM_SCR_ALL	380100
TTM_SCR_S	366700
TTM_SCR_SS	378000
TTM_RAT_ACV	10055

