VERSION	0.00.00	1.05.00
FES_MODE	0
BPM_DEF	264.000	264.000	300.000	 75.000
MET_DEF	4	4
RESOLUTION	384
CLK_DEF	384
COMPATIBLE_CODE	MA2

BPM	0	0	264.000
BPM	22	0	200.000
BPM	34	96	100.000
BPM	35	96	 95.000
BPM	35	288	 90.000
BPM	36	96	175.000
BPM	37	96	174.000
BPM	47	96	116.000
BPM	49	96	232.000
BPM	67	288	222.000
BPM	68	96	212.000
BPM	68	288	202.000
BPM	69	96	 91.000
BPM	73	96	136.500
BPM	77	96	273.000
BPM	85	96	285.000
BPM	93	96	300.000
BPM	101	96	 75.000
BPM	101	288	300.000
MET	0	0	4	4
MET	22	0	4	1
MET	22	96	4	4
MET	101	96	4	2
MET	101	288	4	4

NMTAP	2	0	5
NMTAP	2	192	5
NMSTR	3	0	2
NMSCR	3	0	2	96	96	4
NMTAP	3	0	5
NMTAP	3	96	5
NMTAP	3	192	5
NMTAP	3	288	5
NMHLD	4	0	2	288
NMHLD	4	0	6	288
EXHLD	4	336	1	96
EXHLD	4	336	7	96
EXTAP	5	96	0
EXTAP	5	96	6
EXTAP	5	192	2
EXTAP	5	192	4
NMTAP	5	288	0
NMTAP	5	288	7
BXTAP	6	0	6
NMTAP	6	32	5
NMTAP	6	64	4
NMTAP	6	96	0
NMTAP	6	128	1
NMTAP	6	160	2
NMTAP	6	192	7
NMTAP	6	224	6
NMTAP	6	256	5
NMTAP	6	288	1
NMTAP	6	320	2
NMTAP	6	352	3
NMTAP	7	0	4
NMTAP	7	0	6
NMSTR	7	96	7
NMSI_	7	96	7	96	48	3
BRTAP	7	192	0
NMHLD	8	0	3	288
NMHLD	8	0	5	288
NMHLD	8	336	4	96
NMHLD	8	336	6	96
NMSTR	9	96	5
BRSI_	9	96	5	96	48	3
NMSTR	9	96	7
BRSI_	9	96	7	96	48	3
BRTAP	10	0	0
NMTAP	10	0	7
NMTAP	10	32	1
NMTAP	10	64	2
NMTAP	10	96	6
NMTAP	10	128	5
NMTAP	10	160	4
NMTAP	10	192	1
NMTAP	10	224	2
NMTAP	10	256	3
NMTAP	10	288	7
NMTAP	10	320	6
NMTAP	10	352	5
NMTAP	11	0	1
NMTAP	11	32	3
NMTAP	11	64	1
NMTAP	11	96	3
NMTAP	11	128	1
NMTAP	11	160	3
BXTAP	11	192	2
NMTAP	11	288	4
NMTAP	11	288	5
NMHLD	12	0	3	64
NMHLD	12	0	6	64
NMTAP	12	96	3
NMTAP	12	96	6
NMHLD	12	192	1	64
NMHLD	12	192	4	64
NMTAP	12	288	1
NMTAP	12	288	4
NMSTR	13	0	2
NMSI_	13	0	2	96	48	4
NMTAP	13	0	6
NMTAP	13	96	6
NMSTR	13	192	0
NMSI_	13	192	0	96	48	4
NMTAP	13	192	7
NMTAP	13	288	7
NMHLD	14	0	6	64
NMTAP	14	64	4
NMTAP	14	96	4
NMHLD	14	192	1	64
NMTAP	14	256	3
NMTAP	14	288	3
EXTAP	15	0	2
EXTAP	15	0	4
EXTAP	15	96	0
EXTAP	15	96	6
NMTTP	15	192	1	E	0	M1
NMTTP	15	216	2	E	0	M1
NMTTP	15	240	3	E	0	M1
NMTTP	15	264	4	E	0	M1
NMTTP	15	288	5	E	0	M1
NMTTP	15	312	6	E	0	M1
NMTTP	15	336	7	E	0	M1
NMTTP	15	360	0	E	0	M1
NMTHO	16	0	0	384	C	0	M1
NMTTP	17	0	0	B	0	M1
NMTAP	17	192	1
NMTAP	17	192	7
NMTAP	17	288	2
NMSTR	17	288	6
NMSI_	17	288	6	96	48	2
BXSTR	18	0	0
BRSCR	18	0	0	96	48	3
BXSTR	18	96	0
BRSCL	18	96	0	96	48	5
BXSTR	18	192	0
BRSI_	18	192	0	96	48	4
BXTAP	18	288	0
BXTAP	19	0	5
BXTAP	19	64	3
BXTAP	19	96	3
BXTAP	19	192	2
BXTAP	19	192	4
BXTAP	19	256	1
BXTAP	19	256	5
BXTAP	19	288	1
BXTAP	19	288	5
NMTAP	20	0	0
NMTAP	20	32	1
NMTAP	20	64	2
NMTAP	20	96	3
NMTAP	20	128	4
NMTAP	20	160	5
NMTAP	20	192	6
NMTAP	20	224	7
NMTAP	20	256	0
NMTAP	20	288	1
NMTAP	20	320	2
NMHLD	20	352	3	96
NMTAP	21	64	5
NMTAP	21	128	5
NMTAP	21	192	5
NMTAP	21	256	4
NMTAP	21	256	6
NMTAP	21	320	4
NMTAP	21	320	6
BRTAP	22	0	7
NMTAP	22	96	2
NMTAP	22	120	3
NMTAP	22	144	2
NMTAP	22	192	4
NMTAP	22	216	3
NMTAP	22	240	4
NMTAP	22	288	1
NMTAP	22	336	1
NMTAP	22	360	3
NMTAP	23	24	3
NMTAP	23	48	2
NMTAP	23	96	5
NMTAP	23	120	4
NMTAP	23	144	5
NMTAP	23	192	3
NMTAP	23	216	4
NMTAP	23	240	3
NMTAP	23	288	6
NMTAP	23	336	6
NMTAP	23	360	4
NMTAP	24	24	4
NMTAP	24	48	5
NMTAP	24	96	2
NMTAP	24	120	3
NMTAP	24	144	2
NMTAP	24	168	3
NMTAP	24	192	1
NMTAP	24	240	1
NMTAP	24	288	5
NMTAP	24	312	4
NMTAP	24	336	5
NMTAP	24	360	4
NMTAP	25	0	6
NMTAP	25	48	6
NMTTP	25	96	7	E	0	M1
NMTTP	25	120	6	B	0	M1
NMTTP	25	144	5	B	0	M1
NMTTP	25	168	5	E	0	M1
NMTTP	25	192	2	E	0	M1
NMTTP	25	216	2	B	0	M1
NMTTP	25	240	3	B	0	M1
NMTTP	25	264	4	E	0	M1
NMTAP	25	288	7
NMTAP	25	336	7
BRTAP	26	0	0
BRTAP	26	0	6
NMTAP	26	96	1
NMHLD	26	96	5	96
NMTAP	26	192	3
NMTAP	26	240	3
NMTAP	26	264	2
NMSTR	26	288	1
NMSCL	26	288	1	96	96	6
NMTAP	26	360	3
NMTAP	27	48	5
NMSTR	27	96	5
NMSCL	27	96	5	96	96	2
NMTAP	27	168	7
NMTAP	27	240	1
NMSTR	27	288	1
NMSCL	27	288	1	96	96	6
NMTAP	27	360	3
NMTAP	28	48	5
NMHLD	28	96	5	96
NMTAP	28	192	0
NMTAP	28	240	0
NMTAP	28	264	1
NMSTR	28	288	2
NMSCR	28	288	2	96	96	5
NMTAP	29	0	7
EXTAP	29	96	6
EXTAP	29	144	6
EXTAP	29	192	0
EXHLD	29	240	1	96
NMTAP	29	336	0
BXTAP	30	0	2
BXTAP	30	0	7
NMHLD	30	96	6	24
NMHLD	30	144	6	24
NMHLD	30	192	5	24
NMHLD	30	240	5	24
NMHLD	30	288	3	24
NMSTR	30	288	4
NMSCR	30	288	4	96	48	7
NMHLD	30	336	3	24
NMTAP	31	0	2
NMHLD	31	96	1	24
NMHLD	31	144	1	24
NMHLD	31	192	2	24
NMHLD	31	240	2	24
NMSTR	31	288	3
NMSCL	31	288	3	96	48	0
NMHLD	31	288	4	24
NMHLD	31	336	4	24
NMTAP	32	0	5
NMHLD	32	96	6	24
NMHLD	32	144	6	24
NMHLD	32	192	5	24
NMHLD	32	192	7	24
NMHLD	32	240	5	24
NMHLD	32	240	7	24
NMHLD	32	288	0	24
NMHLD	32	288	4	24
NMHLD	32	336	0	24
NMHLD	32	336	4	24
NMHLD	33	0	1	24
NMHLD	33	0	3	24
NMHLD	33	48	1	24
NMHLD	33	48	3	24
NMSTR	33	96	2
NMSI_	33	96	2	96	48	7
NMSTR	33	192	4
NMSI_	33	192	4	96	48	1
NMSTR	33	288	0
NMSI_	33	288	0	96	48	5
BRTAP	34	0	7
NMHLD	34	96	6	144
NMTTP	34	144	7	E	0	M1
NMTTP	34	160	6	E	0	M1
NMTTP	34	176	5	E	0	M1
NMTTP	34	192	4	E	0	M1
NMTTP	34	208	3	E	0	M1
NMTTP	34	224	2	E	0	M1
EXHLD	34	240	1	176
NMTTP	34	288	0	B	0	M1
NMTTP	34	288	1	E	0	M1
NMTTP	34	336	2	B	0	M1
NMTTP	34	336	3	E	0	M1
NMHLD	35	0	4	32
EXTAP	35	72	3
EXTAP	35	72	6
EXTAP	35	96	3
EXSTR	35	96	6
NMSLL	35	96	6	96	96	2
NMSTR	35	192	2
NMSLL	35	192	2	96	96	6
NMSTR	35	288	6
NMSCR	35	288	6	96	96	2
BRTAP	36	0	4
NMTTP	36	96	4	E	0	M1
NMTTP	36	108	3	B	0	M1
NMTTP	36	192	6	E	0	M1
NMTTP	36	204	5	B	0	M1
NMTTP	36	288	2	E	0	M1
NMTTP	36	300	2	B	0	M1
NMTAP	37	24	3
NMTAP	37	48	4
NMTAP	37	72	3
NMHLD	37	96	5	72
NMTAP	37	144	4
NMHLD	37	192	3	72
NMTAP	37	240	4
NMSTR	37	288	6
NMSLL	37	288	6	96	96	0
NMTAP	37	336	6
NMTAP	38	0	4
NMTAP	38	48	2
NMHLD	38	96	1	72
NMTAP	38	144	2
NMHLD	38	192	3	72
NMTAP	38	240	2
NMTAP	38	288	1
NMTAP	38	336	0
NMTAP	38	336	2
BRTAP	39	0	3
BRTAP	39	0	7
NMTAP	39	96	3
NMTAP	39	96	6
NMTAP	39	144	5
NMTAP	39	168	4
NMTAP	39	216	4
NMTAP	39	240	5
NMSTR	39	288	3
NMSCL	39	288	3	96	48	1
NMSTR	39	288	6
NMSCL	39	288	6	96	48	4
NMTAP	40	96	0
NMTAP	40	96	6
NMTAP	40	144	2
NMTAP	40	168	3
NMTAP	40	216	3
NMTAP	40	240	2
NMTAP	40	288	2
NMTAP	40	312	4
NMTAP	40	360	3
NMTAP	40	360	5
BRTAP	41	0	3
BRTAP	41	0	5
NMHLD	41	96	6	24
NMHLD	41	144	6	24
NMHLD	41	192	7	24
NMHLD	41	240	0	24
NMSTR	41	288	1
NMSCL	41	288	1	96	48	6
NMTAP	41	336	2
NMSTR	42	0	4
NMSI_	42	0	4	96	48	0
NMTAP	42	48	5
NMHLD	42	96	1	24
NMHLD	42	144	1	24
NMHLD	42	192	7	24
NMHLD	42	240	6	24
NMHLD	42	288	3	24
NMHLD	42	288	5	24
NMHLD	42	336	3	24
NMHLD	42	336	5	24
BRTAP	43	0	2
BRTAP	43	0	6
NMSTR	43	96	0
NMSI_	43	96	0	96	48	3
NMSTR	43	192	0
NMSI_	43	192	0	96	48	5
NMTAP	43	192	1
NMTAP	43	288	0
NMSTR	43	288	7
NMSI_	43	288	7	96	48	2
NMSTR	44	0	3
NMSI_	44	0	3	96	48	0
NMSTR	44	0	7
NMSI_	44	0	7	96	48	4
NMSTR	44	96	3
NMSI_	44	96	3	96	48	6
NMTAP	44	96	7
NMTAP	44	192	1
NMTAP	44	192	3
NMTAP	44	288	0
NMTAP	44	312	7
NMTAP	44	336	0
BRTAP	45	0	1
BRTAP	45	0	6
NMHLD	45	96	6	48
NMTAP	45	144	4
NMHLD	45	168	5	48
NMTAP	45	216	3
NMHLD	45	240	4	48
NMTAP	45	288	2
NMTAP	45	312	3
NMTAP	45	360	3
NMTAP	46	0	2
NMTAP	46	72	0
NMTAP	46	72	7
NMHLD	46	120	6	48
NMTAP	46	168	4
NMHLD	46	192	5	48
NMTAP	46	240	3
NMHLD	46	264	4	48
NMTAP	46	312	2
NMHLD	46	336	3	48
NMTAP	47	0	1
EXTAP	47	24	4
EXTAP	47	48	5
EXTAP	47	72	6
BXTAP	47	96	2
EXHLD	47	96	7	576
NMTAP	47	336	4
NMTAP	48	0	4
NMTTP	48	96	5	B	0	M1
NMTTP	48	96	5	E	1	M1
NMTTP	48	192	2	B	0	M1
NMTTP	48	192	3	E	1	M1
NMTHO	48	288	0	72	C	0	M1
EXTAP	49	48	0
EXTAP	49	48	6
BRSTR	49	96	1
NMSCR	49	96	1	96	48	4
NMTAP	49	144	1
NMSTR	49	192	7
NMSI_	49	192	7	96	48	4
NMTAP	49	240	7
NMSTR	49	288	0
NMSUR	49	288	0	96	48	4
NMTAP	49	336	0
NMSTR	50	0	7
NMSCL	50	0	7	96	48	4
NMTAP	50	48	7
NMSTR	50	96	1
NMSI_	50	96	1	96	48	4
NMTAP	50	144	1
NMSTR	50	192	7
NMSV_	50	192	7	96	48	4
NMTAP	50	240	7
BRSTR	50	288	0
BRSF_	50	288	0	96	48	4
BRTAP	51	0	0
EXTAP	51	96	7
NMSTR	51	192	5
NMSCR	51	192	5	96	96	1
NMSTR	51	288	1
NMSLL	51	288	1	96	96	5
NMTAP	52	0	3
NMSTR	52	96	1
NMSI_	52	96	1	96	48	5
NMTAP	52	192	5
NMSTR	52	240	6
NMSI_	52	240	6	96	48	2
NMTAP	52	336	7
NMTAP	53	0	0
BRHLD	53	48	1	96
NMTAP	53	144	4
NMTAP	53	168	3
NMHLD	53	192	5	48
NMTAP	53	240	2
NMTAP	53	264	3
NMHLD	53	288	1	48
NMTAP	53	336	5
NMTAP	53	360	4
NMHLD	54	0	6	48
NMTAP	54	48	3
EXTAP	54	96	2
EXTAP	54	96	7
NMTAP	54	144	1
NMTAP	54	168	0
NMTAP	54	192	1
NMTAP	54	216	0
NMTAP	54	240	1
NMHLD	54	264	0	72
NMTAP	54	336	2
NMTAP	55	0	3
NMTAP	55	0	7
NMSTR	55	96	1
NMSI_	55	96	1	96	48	3
NMSTR	55	96	5
NMSI_	55	96	5	96	48	3
NMTAP	55	192	1
NMTAP	55	192	5
NMSTR	55	288	0
NMSLR	55	288	0	96	96	6
NMTAP	55	288	6
NMTAP	56	0	7
NMSTR	56	48	7
NMSI_	56	48	7	96	48	4
NMTAP	56	144	0
NMSTR	56	192	0
NMSCR	56	192	0	96	96	6
CNSI_	56	192	4	0	48	1
NMTTP	56	288	0	C	1	M1
NMTAP	57	96	1
NMTAP	57	120	0
NMHLD	57	144	1	48
NMHLD	57	168	0	24
NMTAP	57	240	6
NMTAP	57	264	7
NMHLD	57	288	6	48
NMHLD	57	312	7	24
NMTAP	58	0	1
NMTAP	58	24	3
NMHLD	58	48	1	48
NMHLD	58	72	3	24
NMTAP	58	144	6
NMTAP	58	168	4
NMHLD	58	192	6	48
NMHLD	58	216	4	24
NMTAP	58	288	3
NMTAP	58	288	5
NMTAP	58	312	2
NMTAP	58	336	1
NMTAP	58	360	0
NMTAP	59	0	7
NMTAP	59	24	6
NMTAP	59	48	5
NMTAP	59	72	4
EXTAP	59	96	0
NMTAP	59	192	1
NMTAP	59	192	7
NMHLD	59	288	2	48
NMHLD	59	288	3	48
NMHLD	60	0	4	48
NMHLD	60	0	5	48
NMTAP	60	96	6
NMTAP	60	96	7
NMTAP	60	144	6
NMSTR	60	144	7
NMSCR	60	144	7	96	48	2
NMSTR	60	240	4
NMSI_	60	240	4	96	48	0
NMTAP	60	336	3
NMTAP	61	0	3
EXTAP	61	96	1
EXTAP	61	96	7
NMTAP	61	192	3
NMTAP	61	192	5
NMTAP	61	240	3
NMTAP	61	240	5
NMTAP	61	336	4
NMSTR	61	336	6
NMSUL	61	336	6	96	96	1
NMSTR	62	48	1
NMSUR	62	48	1	96	96	6
NMTAP	62	144	7
NMTAP	62	192	7
NMTAP	62	288	1
NMHLD	62	336	0	24
NMHLD	63	0	0	24
NMHLD	63	48	0	24
BXSTR	63	96	1
NMSCR	63	96	1	96	48	4
BXTAP	63	96	7
NMTAP	63	192	1
NMSTR	63	240	0
NMSI_	63	240	0	96	48	5
NMSI_	63	240	0	96	48	6
NMTAP	63	336	0
NMTAP	64	48	4
NMTAP	64	96	3
NMTAP	64	96	5
NMTAP	64	144	2
NMSTR	64	144	6
NMSI_	64	144	6	96	48	2
NMSTR	64	240	0
NMSF_	64	240	0	96	48	4
NMTAP	64	240	6
BXHLD	65	96	1	96
EXTAP	65	96	7
NMTAP	65	192	0
NMTAP	65	216	7
NMTAP	65	240	6
NMTAP	65	264	5
NMTAP	65	288	3
NMTAP	65	312	2
NMTAP	65	336	1
NMTAP	65	360	0
NMTAP	66	0	6
NMTAP	66	24	5
NMTAP	66	48	4
NMTAP	66	72	3
NMTAP	66	96	7
NMTAP	66	120	0
NMTAP	66	144	1
NMTAP	66	168	2
NMTAP	66	192	4
NMTAP	66	216	5
NMTAP	66	240	6
NMTAP	66	264	7
NMSTR	66	288	0
NMSF_	66	288	0	96	48	4
NMTAP	66	288	3
BXTAP	67	0	0
BRSTR	67	96	2
BRSCL	67	96	2	96	240	4
BRTAP	67	96	6
CNSSL	68	48	4	0	240	0
NMSTR	69	96	1
NMSCR	69	96	1	96	48	4
NMHLD	69	96	7	672
NMTAP	69	144	0
NMTAP	69	192	1
NMSTR	69	288	2
NMSI_	69	288	2	96	48	4
NMTAP	69	336	1
NMTAP	70	0	2
NMSTR	70	96	1
NMSV_	70	96	1	96	48	4
NMTAP	70	144	0
NMTAP	70	192	1
NMTAP	70	288	4
NMTAP	70	336	4
NMTAP	71	0	3
NMTAP	71	48	3
NMSTR	71	96	2
NMSCL	71	96	2	96	48	0
NMSTR	71	96	5
NMSCL	71	96	5	96	48	3
NMTAP	71	144	6
NMTAP	71	192	2
NMTAP	71	192	5
NMSTR	71	288	1
NMSCL	71	288	1	96	48	7
NMSTR	71	288	4
NMSCL	71	288	4	96	48	2
NMTAP	71	336	2
NMTAP	72	0	1
NMTAP	72	0	4
NMHLD	72	96	0	48
NMHLD	72	96	3	48
NMTAP	72	192	1
NMTAP	72	192	4
NMTAP	72	240	2
NMTAP	72	240	5
NMTAP	72	272	6
NMTAP	72	288	4
NMTAP	72	320	4
NMTAP	72	336	5
NMTAP	72	352	3
NMTAP	72	368	4
NMTAP	73	0	2
NMTAP	73	16	3
NMTAP	73	32	2
NMTAP	73	48	4
NMTAP	73	64	3
NMTAP	73	80	4
BXHLD	73	96	3	480
NMHLD	73	96	5	48
NMHLD	73	192	5	48
NMHLD	73	288	5	48
NMTAP	74	0	6
NMTAP	74	48	6
NMHLD	74	96	5	48
NMHLD	74	192	5	48
NMTAP	74	288	4
NMTAP	74	288	6
NMTAP	74	336	5
NMTAP	74	360	4
NMTAP	75	0	5
NMTAP	75	24	4
NMTAP	75	48	5
NMHLD	75	96	3	48
NMHLD	75	96	6	48
NMHLD	75	192	2	48
NMHLD	75	192	4	48
NMHLD	75	288	3	48
NMHLD	75	288	5	48
NMHLD	76	0	1	48
NMHLD	76	0	4	48
NMTAP	76	96	2
NMTAP	76	96	3
NMTAP	76	144	4
NMTAP	76	144	5
NMTAP	76	192	3
NMTAP	76	216	3
NMTAP	76	240	4
NMTAP	76	264	4
NMTHO	76	288	0	120	C	0	M1
EXTAP	77	24	7
EXTAP	77	48	7
BRTAP	77	96	0
BRTAP	77	96	6
NMTAP	77	160	6
NMTAP	77	192	7
NMTAP	77	256	5
NMTAP	77	288	4
NMTAP	77	352	1
NMTAP	78	0	0
NMTAP	78	64	2
NMSTR	78	96	3
NMSI_	78	96	3	96	48	6
NMTAP	78	160	3
NMSTR	78	192	1
NMSI_	78	192	1	96	48	5
NMTAP	78	256	1
NMSTR	78	288	7
NMSI_	78	288	7	96	48	3
NMTAP	78	352	7
NMTAP	79	0	0
NMTAP	79	96	2
NMTAP	79	96	4
NMTAP	79	160	2
NMTAP	79	192	3
NMTAP	79	256	6
NMTAP	79	288	7
NMTAP	79	352	5
NMTAP	80	0	4
NMTAP	80	64	1
NMSTR	80	96	0
NMSI_	80	96	0	96	48	5
NMTAP	80	160	0
NMSTR	80	192	2
NMSI_	80	192	2	96	48	7
NMTAP	80	256	2
NMTAP	80	288	4
EXTAP	81	0	0
EXTAP	81	0	6
BXHLD	81	96	0	32
BXHLD	81	160	1	32
BXHLD	81	224	2	32
BXHLD	81	288	4	32
BXHLD	81	352	6	32
BXHLD	82	32	7	32
BRTAP	82	96	0
BRTAP	82	96	7
BRTAP	82	192	3
BRTAP	82	192	5
NMTAP	82	288	2
NMTAP	82	320	4
NMTAP	82	352	2
NMTAP	83	0	4
NMTAP	83	32	1
NMTAP	83	64	3
NMTAP	83	96	0
NMTAP	83	128	2
NMTAP	83	160	0
NMTAP	83	192	2
NMTAP	83	224	0
NMTAP	83	256	2
NMHLD	83	288	0	64
NMHLD	83	352	2	32
NMHLD	84	32	4	32
NMSTR	84	96	6
NMSCL	84	96	6	96	48	3
NMSTR	84	192	0
NMSSL	84	192	0	96	96	4
NMTAP	85	96	5
NMTAP	85	160	5
NMTAP	85	192	4
NMTAP	85	256	1
NMTAP	85	288	0
NMTAP	85	352	6
NMTAP	86	0	7
NMTAP	86	64	2
NMSTR	86	96	3
NMSI_	86	96	3	96	48	6
NMTAP	86	160	3
NMSTR	86	192	1
NMSI_	86	192	1	96	48	5
NMTAP	86	256	1
NMSTR	86	288	7
NMSI_	86	288	7	96	48	3
NMTAP	86	352	7
NMTAP	87	0	0
NMTAP	87	96	2
NMTAP	87	160	2
NMTAP	87	192	0
NMTAP	87	256	0
NMTAP	87	288	7
NMTAP	87	352	7
NMTAP	88	0	5
NMTAP	88	64	5
NMSTR	88	96	4
NMSI_	88	96	4	96	48	1
NMSCL	88	96	4	96	48	1
NMTAP	88	288	7
BRTAP	89	0	0
BRTAP	89	0	5
NMTAP	89	96	6
NMTAP	89	128	7
NMTAP	89	160	6
NMTAP	89	192	7
NMTAP	89	224	6
NMTAP	89	256	7
NMSTR	89	288	5
NMSI_	89	288	5	96	48	3
NMTAP	89	352	5
BRTAP	90	0	2
NMTAP	90	96	1
NMTAP	90	128	0
NMTAP	90	160	1
NMTAP	90	192	0
NMTAP	90	224	1
NMTAP	90	256	0
NMSTR	90	288	2
NMSI_	90	288	2	96	48	4
NMTAP	90	352	2
BRTAP	91	0	5
NMTAP	91	96	7
NMTAP	91	128	6
NMTAP	91	160	5
NMTAP	91	192	4
NMTAP	91	224	3
NMTAP	91	256	2
NMTAP	91	288	6
NMTAP	91	320	5
NMTAP	91	352	4
NMTAP	92	0	3
NMTAP	92	32	2
NMTAP	92	64	1
BXSTR	92	96	0
NMSI_	92	96	0	96	48	4
BXSTR	92	96	7
NMSI_	92	96	7	96	48	3
BXTAP	92	192	0
BXTAP	92	192	7
NMTTP	92	288	3	E	0	M1
NMTTP	92	288	4	E	0	M1
NMTTP	92	288	5	E	0	M1
NMTAP	93	96	7
NMTAP	93	120	6
NMTAP	93	144	5
NMTAP	93	168	4
NMTAP	93	192	7
NMTAP	93	216	6
NMTAP	93	240	5
NMTAP	93	264	4
NMTAP	93	288	0
NMTAP	93	312	1
NMTAP	93	336	2
NMTAP	93	360	3
NMTAP	94	0	4
NMTAP	94	24	5
NMTAP	94	48	6
NMTAP	94	72	7
NMTAP	94	96	0
NMTAP	94	120	1
NMTAP	94	144	2
NMTAP	94	168	3
NMTAP	94	192	0
NMTAP	94	216	1
NMTAP	94	240	2
NMTAP	94	264	3
NMTAP	94	288	0
NMTAP	94	312	7
NMTAP	94	336	6
NMTAP	94	360	5
NMTAP	95	0	1
NMTAP	95	0	4
NMHLD	95	96	2	32
BRHLD	95	96	3	32
BRHLD	95	160	2	32
NMHLD	95	160	3	32
NMHLD	95	224	0	32
BRHLD	95	224	1	32
NMHLD	95	288	6	32
BRHLD	95	288	7	32
BRHLD	95	352	6	32
NMHLD	95	352	7	32
BRHLD	96	32	4	32
NMHLD	96	32	5	32
EXTAP	96	96	3
EXTAP	96	96	4
EXTAP	96	144	3
EXTAP	96	144	4
EXTAP	96	192	3
EXSTR	96	192	4
BRSCL	96	192	4	96	96	2
BRSCR	96	192	4	96	96	7
NMTAP	97	96	1
NMTAP	97	128	0
NMTAP	97	160	1
BRTAP	97	192	0
NMTAP	97	288	6
NMTAP	97	320	7
NMTAP	97	352	6
BRTAP	98	0	7
NMTAP	98	96	1
NMTAP	98	128	0
NMTAP	98	160	1
BRTAP	98	192	2
NMTAP	98	288	6
NMTAP	98	320	7
NMTAP	98	352	6
BRTAP	99	0	5
NMTAP	99	96	0
NMTAP	99	120	7
NMTAP	99	144	6
NMTAP	99	168	5
NMTAP	99	192	0
NMTAP	99	216	1
NMTAP	99	240	2
NMTAP	99	264	3
BXHLD	99	288	0	12
BXHLD	99	312	7	12
BXHLD	99	336	6	12
BXHLD	99	360	5	12
BXHLD	100	0	4	12
BXHLD	100	24	3	12
BXHLD	100	48	2	12
BXHLD	100	72	1	12
BRTAP	100	96	0
NMSTR	100	192	1
NMSCR	100	192	1	96	48	4
NMSTR	100	192	7
NMSCL	100	192	7	96	48	4
NMTAP	100	288	1
NMTAP	100	288	7
NMTHO	101	96	0	144	C	0	M1
NMTAP	101	288	1
NMTAP	101	320	6
NMTAP	101	352	1
NMTAP	102	0	6
NMTAP	102	32	1
NMTAP	102	64	6
NMTAP	102	96	0
NMTAP	102	120	7
NMTAP	102	144	0
NMTAP	102	168	7
NMTAP	102	192	0
NMTAP	102	216	7
NMTAP	102	240	0
NMTAP	102	264	7
BRTAP	102	288	0
NMSTR	103	0	6
BRSF_	103	0	6	96	48	2
NMTAP	103	0	7
BRTAP	103	96	6
NMTTP	103	96	6	B	1	M1
NMTAP	103	288	1
NMTAP	103	352	1
NMTAP	104	0	3
NMTAP	104	64	3
NMTAP	104	96	2
NMTAP	104	160	2
NMTAP	104	192	4
NMTAP	104	256	4
NMTAP	104	288	3
NMTAP	104	352	3
NMTAP	105	0	5
NMTAP	105	64	6
NMTAP	105	96	4
NMTAP	105	128	6
NMTAP	105	160	4
NMTAP	105	192	7
BXTAP	105	288	0
BXHLD	105	288	5	384
NMTAP	106	288	0
NMTAP	106	312	1
NMTAP	106	336	2
NMTAP	106	360	3
NMTAP	107	0	6
NMTAP	107	24	5
NMTAP	107	48	4
NMTAP	107	72	3
NMTAP	107	96	1
NMTAP	107	120	2
NMTAP	107	144	3
NMTAP	107	168	4
NMTAP	107	192	7
NMTAP	107	216	6
NMTAP	107	240	5
NMTAP	107	264	4
NMTAP	107	288	1
NMTAP	107	336	1
NMTAP	108	0	3
NMTAP	108	48	3
NMTAP	108	96	0
NMTTP	108	96	4	B	0	M1
NMTAP	108	192	5
NMTAP	108	240	5
NMTAP	108	288	3
NMTAP	108	336	3
NMTTP	109	0	2	B	0	M1
NMTAP	109	0	6
NMTAP	109	96	1
NMTAP	109	96	7
NMTAP	109	192	0
NMTAP	109	192	6
NMTAP	109	240	0
NMTAP	109	240	6
NMTAP	109	288	0
NMTAP	109	288	6
BRTAP	110	0	7
NMTAP	110	96	0
NMTAP	110	128	6
NMTAP	110	160	0
NMTAP	110	192	6
NMTAP	110	224	1
NMTAP	110	256	5
NMTAP	110	288	1
NMTAP	110	320	5
NMTAP	110	352	2
NMTAP	111	0	4
NMTAP	111	32	2
NMTAP	111	64	4
NMTAP	111	96	1
NMTAP	111	128	3
NMTAP	111	160	2
NMTAP	111	192	6
NMTAP	111	224	4
NMTAP	111	256	5
NMHLD	111	288	3	0
NMHLD	111	300	4	0
BRTAP	112	96	0
BRTAP	112	96	7
NMTAP	112	108	1
NMTAP	112	108	6
NMTAP	112	120	2
NMTAP	112	120	5
NMTAP	112	132	3
NMTAP	112	132	4
NMTAP	112	288	2
NMTAP	112	288	5
NMSTR	112	336	2
NMSI_	112	336	2	96	48	7
NMSTR	112	336	5
NMSI_	112	336	5	96	48	7
NMTAP	113	0	2
NMTAP	113	0	5
NMTAP	113	48	2
NMTAP	113	48	5

T_REC_TAP	548
T_REC_BRK	37
T_REC_XTP	35
T_REC_BXX	20
T_REC_HLD	112
T_REC_XHO	5
T_REC_BHO	7
T_REC_BXH	17
T_REC_STR	76
T_REC_BST	3
T_REC_XST	2
T_REC_XBS	6
T_REC_TTP	44
T_REC_THO	4
T_REC_SLD	80
T_REC_BSL	10
T_REC_ALL	1006
T_NUM_TAP	705
T_NUM_BRK	100
T_NUM_HLD	121
T_NUM_SLD	80
T_NUM_ALL	1006
T_JUDGE_TAP	771
T_JUDGE_HLD	252
T_JUDGE_SLD	90
T_JUDGE_ALL	1113
TTM_EACHPAIRS	131
TTM_SCR_TAP	352500
TTM_SCR_BRK	260000
TTM_SCR_HLD	121000
TTM_SCR_SLD	120000
TTM_SCR_ALL	853500
TTM_SCR_S	818200
TTM_SCR_SS	843500
TTM_RAT_ACV	10118

