VERSION	0.00.00	1.05.00
FES_MODE	0
BPM_DEF	264.000	264.000	300.000	 75.000
MET_DEF	4	4
RESOLUTION	384
CLK_DEF	384
COMPATIBLE_CODE	MA2

BPM	0	0	264.000
BPM	22	0	200.000
BPM	34	96	100.000
BPM	35	96	 95.000
BPM	35	288	 90.000
BPM	36	96	175.000
BPM	37	96	174.000
BPM	47	96	116.000
BPM	49	96	232.000
BPM	67	288	222.000
BPM	68	96	212.000
BPM	68	288	202.000
BPM	69	96	 91.000
BPM	73	96	136.500
BPM	77	96	273.000
BPM	85	96	285.000
BPM	93	96	300.000
BPM	101	96	 75.000
BPM	101	288	300.000
MET	0	0	4	4
MET	22	0	4	1
MET	22	96	4	4
MET	101	96	4	2
MET	101	288	4	4

NMTAP	2	0	5
NMTAP	2	192	5
NMTAP	3	0	5
NMTAP	3	96	5
NMTAP	3	192	5
NMTAP	3	288	5
EXHLD	4	0	4	192
EXHLD	4	0	6	192
EXHLD	5	0	1	192
EXHLD	5	0	3	192
NMTAP	6	0	4
NMTAP	6	96	5
NMTAP	6	192	6
NMTAP	6	288	7
NMTAP	7	0	0
NMTAP	7	96	1
NMHLD	7	192	2	96
NMHLD	7	192	3	96
NMSTR	8	0	1
NMSI_	8	0	1	96	96	5
NMSTR	8	192	7
NMSI_	8	192	7	96	96	3
NMSTR	9	0	0
NMSI_	9	0	0	96	96	4
NMHLD	9	192	5	192
NMTAP	10	0	7
NMTAP	10	96	7
NMTAP	10	192	4
NMTAP	10	192	6
NMTAP	10	288	4
NMTAP	10	288	6
NMTAP	11	0	0
NMTAP	11	96	0
NMTAP	11	192	1
NMTAP	11	192	3
NMTAP	11	288	1
NMTAP	11	288	3
NMTAP	12	0	5
NMTAP	12	96	5
NMTAP	12	192	4
NMTAP	12	192	6
NMTAP	12	288	4
NMTAP	12	288	6
NMTAP	13	0	7
NMSTR	13	96	7
NMSI_	13	96	7	96	96	3
EXTAP	13	288	1
NMTAP	14	0	2
NMTAP	14	96	2
NMTAP	14	192	1
NMTAP	14	192	3
NMTAP	14	288	1
NMTAP	14	288	3
NMTAP	15	0	0
NMSTR	15	96	0
NMSI_	15	96	0	96	96	4
EXHLD	15	288	6	480
NMTAP	16	0	4
NMTAP	16	96	4
NMTAP	16	192	5
NMTAP	16	288	5
NMTAP	17	0	7
NMTAP	17	96	7
NMTAP	17	192	0
NMTAP	17	192	6
EXTAP	18	0	0
EXTAP	18	0	7
EXTAP	18	96	5
EXTAP	18	96	6
EXTAP	18	192	3
EXTAP	18	192	4
EXTAP	18	288	1
EXTAP	18	288	2
EXTAP	19	0	0
EXTAP	19	0	7
EXTAP	19	96	5
EXTAP	19	96	6
EXTAP	19	192	3
EXTAP	19	192	4
EXTAP	19	288	1
EXTAP	19	288	2
NMSTR	20	0	0
NMSI_	20	0	0	96	96	4
NMSTR	20	192	6
NMSI_	20	192	6	96	96	3
EXTAP	21	64	1
EXTAP	21	128	1
EXTAP	21	192	1
EXTAP	21	256	2
EXTAP	21	256	4
EXTAP	21	320	2
EXTAP	21	320	4
BXTAP	22	0	2
BXTAP	22	0	4
NMTAP	22	96	5
NMTAP	22	144	4
NMTAP	22	192	3
NMTAP	22	240	2
NMTAP	22	288	5
NMTAP	22	336	4
NMTAP	23	0	3
NMTAP	23	48	2
NMTAP	23	96	2
NMTAP	23	144	3
NMTAP	23	192	4
NMTAP	23	240	5
NMTAP	23	288	2
NMTAP	23	336	3
NMTAP	24	0	4
NMTAP	24	48	5
NMTAP	24	96	5
NMTAP	24	144	4
NMTAP	24	192	3
NMTAP	24	240	2
NMTAP	24	288	2
NMTAP	24	336	3
NMTAP	25	0	4
NMTAP	25	48	5
NMTAP	25	96	5
NMTAP	25	144	4
NMTAP	25	192	3
NMTAP	25	240	2
NMTAP	25	288	2
EXTAP	25	336	1
EXTAP	25	336	3
EXTAP	26	0	1
EXTAP	26	0	3
NMSTR	26	96	0
NMSCR	26	96	0	96	96	3
NMSTR	26	288	7
NMSCL	26	288	7	96	96	4
NMSTR	27	96	3
NMSCL	27	96	3	96	96	0
NMSTR	27	288	4
NMSCR	27	288	4	96	96	7
NMTAP	28	96	0
NMSTR	28	192	0
NMSCL	28	192	0	96	96	5
NMSCR	28	192	0	96	96	3
NMTAP	29	96	7
NMSTR	29	192	7
NMSV_	29	192	7	96	96	2
NMSV_	29	192	7	96	96	4
NMTAP	30	96	1
NMTAP	30	144	1
NMTAP	30	192	1
NMTAP	30	240	1
NMTAP	30	288	2
NMTAP	30	288	4
NMTAP	30	336	2
NMTAP	30	336	4
NMTAP	31	0	2
NMTAP	31	0	4
NMTAP	31	96	6
NMTAP	31	144	6
NMTAP	31	192	6
NMTAP	31	240	6
NMTAP	31	288	3
NMTAP	31	288	5
NMTAP	31	336	3
NMTAP	31	336	5
NMTAP	32	0	3
NMTAP	32	0	5
NMTAP	32	96	2
NMTAP	32	144	2
NMTAP	32	192	2
NMTAP	32	240	2
NMTAP	32	288	0
NMTAP	32	288	1
NMTAP	32	336	0
NMTAP	32	336	1
NMTAP	33	0	0
NMTAP	33	0	1
NMTAP	33	96	5
NMTAP	33	144	5
NMTAP	33	192	5
NMTAP	33	240	5
NMTAP	33	288	6
NMTAP	33	288	7
NMTAP	33	336	6
NMTAP	33	336	7
NMTAP	34	0	6
NMTAP	34	0	7
NMSTR	34	96	5
NMSCR	34	96	5	96	192	3
NMSTR	35	96	2
NMSCL	35	96	2	96	192	4
NMTTP	36	96	5	E	0	M1
NMTTP	36	192	4	E	0	M1
NMTTP	36	288	3	E	0	M1
NMHLD	37	96	1	96
NMTAP	37	192	3
NMHLD	37	288	6	96
NMTAP	38	0	4
NMTAP	38	96	4
NMTAP	38	96	6
NMTAP	38	192	1
NMTAP	38	192	3
NMTAP	38	288	5
NMTAP	38	288	7
NMTAP	39	0	0
NMTAP	39	0	2
NMSTR	39	96	7
NMSSR	39	96	7	96	192	3
NMTAP	40	96	1
NMTAP	40	144	1
NMTAP	40	192	0
NMTAP	40	192	1
NMTAP	40	288	6
NMTAP	40	336	6
NMTAP	41	0	6
NMTAP	41	0	7
NMTAP	41	96	0
NMTAP	41	144	1
NMTAP	41	192	2
NMTAP	41	240	3
NMTAP	41	288	4
NMTAP	41	336	5
NMTAP	42	0	6
NMTAP	42	48	7
NMTAP	42	96	7
NMTAP	42	144	6
NMTAP	42	192	5
NMTAP	42	240	4
NMTAP	42	288	3
NMTAP	42	336	2
NMTAP	43	0	1
NMTAP	43	48	0
NMHLD	43	96	0	192
NMTTP	43	192	2	B	0	M1
NMTTP	43	192	3	B	0	M1
NMTTP	43	192	3	E	0	M1
NMHLD	43	288	7	192
NMTTP	44	0	4	B	0	M1
NMTTP	44	0	5	B	0	M1
NMTTP	44	0	5	E	0	M1
NMHLD	44	96	0	192
NMTTP	44	192	2	B	0	M1
NMTTP	44	192	3	B	0	M1
NMTTP	44	192	3	E	0	M1
NMTAP	44	288	7
NMTAP	45	0	2
NMTAP	45	0	6
NMTAP	45	96	1
NMTAP	45	96	3
NMTAP	45	168	1
NMTAP	45	168	3
NMTAP	45	240	2
NMTAP	45	240	4
NMHLD	45	312	2	72
NMHLD	45	312	4	72
NMTAP	46	120	4
NMTAP	46	120	6
NMTAP	46	192	4
NMTAP	46	192	6
NMTAP	46	264	3
NMTAP	46	264	5
NMTAP	46	336	3
NMTAP	46	336	5
NMTAP	47	24	2
NMTAP	47	24	6
BXHLD	47	96	1	192
BXHLD	47	96	7	192
NMTAP	48	0	2
NMTAP	48	0	5
NMTAP	48	96	4
NMTAP	48	96	6
NMTAP	48	192	1
NMTAP	48	192	3
NMTAP	48	288	3
NMTAP	48	288	4
NMTAP	48	360	1
NMTAP	48	360	6
BXTAP	49	48	0
BXTAP	49	48	7
NMHLD	49	96	6	96
NMTAP	49	192	7
NMHLD	49	288	1	96
NMTAP	50	0	0
NMTAP	50	96	1
NMTAP	50	96	3
NMTAP	50	192	1
NMTAP	50	192	3
NMTAP	50	288	4
NMTAP	50	288	6
NMTAP	51	0	4
NMTAP	51	0	6
NMTAP	51	96	0
NMSTR	51	192	0
NMSCL	51	192	0	96	96	4
NMSCR	51	192	0	96	96	4
NMTAP	52	96	7
NMSTR	52	192	0
NMSI_	52	192	0	96	96	4
NMSTR	52	192	6
NMSI_	52	192	6	96	96	2
NMTAP	53	96	0
NMTAP	53	96	1
NMTAP	53	192	2
NMTAP	53	192	3
NMTAP	53	288	4
NMTAP	53	288	5
NMTAP	54	0	6
NMTAP	54	0	7
NMTAP	54	96	6
NMTAP	54	96	7
NMTAP	54	192	4
NMTAP	54	192	5
NMTAP	54	288	2
NMTAP	54	288	3
NMTAP	55	0	0
NMTAP	55	0	1
NMTAP	55	96	0
NMTAP	55	96	1
NMTAP	55	192	4
NMTAP	55	192	6
NMTAP	55	288	6
NMTAP	55	288	7
NMTAP	56	0	1
NMTAP	56	0	3
NMTAP	56	96	0
NMTAP	56	96	1
NMTAP	56	192	3
NMTAP	56	192	5
BRTAP	56	288	2
BRTAP	56	288	6
NMHLD	57	96	5	96
NMTAP	57	192	7
NMHLD	57	240	7	96
NMTAP	57	336	0
NMHLD	58	0	0	96
NMTAP	58	96	2
NMHLD	58	144	2	96
NMTAP	58	240	3
NMTAP	58	288	3
NMTAP	59	0	1
NMTAP	59	0	4
NMHLD	59	96	5	192
NMTAP	59	192	4
NMHLD	59	288	2	192
NMTAP	60	0	3
NMHLD	60	96	6	192
NMTAP	60	192	4
NMHLD	60	288	1	96
NMTAP	61	0	3
NMTAP	61	96	0
NMTAP	61	96	1
NMTAP	61	192	0
NMTAP	61	192	1
NMTAP	61	288	6
NMTAP	61	288	7
NMTAP	62	0	6
NMTAP	62	0	7
NMTAP	62	96	2
NMTAP	62	96	3
NMTAP	62	192	2
NMTAP	62	192	3
NMTAP	62	288	5
NMTAP	62	336	5
NMTAP	63	0	4
NMTAP	63	48	4
NMTAP	63	96	6
NMTAP	63	192	5
NMTAP	63	192	7
NMTAP	63	288	1
NMTAP	64	0	0
NMTAP	64	0	2
NMTAP	64	96	5
NMSTR	64	192	6
NMSCL	64	192	6	96	96	3
NMSTR	64	192	7
NMSUL	64	192	7	96	96	2
NMTAP	65	96	1
NMTAP	65	144	1
NMTAP	65	192	3
NMTAP	65	240	3
NMTAP	65	288	2
NMTAP	65	336	2
NMTAP	66	0	6
NMTAP	66	48	6
NMTAP	66	96	4
NMTAP	66	144	4
NMTAP	66	192	5
NMTAP	66	240	5
NMTAP	66	288	2
NMTAP	66	336	2
NMSTR	67	0	3
NMSCL	67	0	3	96	480	4
NMTTP	69	96	5	E	0	M1
NMTTP	69	192	6	E	0	M1
NMTTP	69	288	7	E	0	M1
NMTTP	70	0	0	B	0	M1
NMTTP	70	0	7	B	0	M1
NMTTP	70	96	1	E	0	M1
NMTTP	70	192	2	E	0	M1
NMTTP	70	288	3	E	0	M1
NMTTP	71	0	3	B	0	M1
NMTTP	71	0	4	B	0	M1
NMSTR	71	96	5
NMSCL	71	96	5	96	144	2
NMSTR	72	96	2
NMSCR	72	96	2	96	144	5
NMHLD	73	96	6	384
NMTAP	73	192	4
NMTAP	73	288	4
NMTAP	74	0	4
NMHLD	74	96	1	384
NMTAP	74	192	3
NMTAP	74	288	3
NMTAP	75	0	3
NMHLD	75	96	7	384
NMTAP	75	192	5
NMTAP	75	288	5
NMTAP	76	0	5
NMTAP	76	96	2
NMTAP	76	144	2
NMTAP	76	192	4
NMTAP	76	240	4
NMTTP	76	288	3	E	0	M1
NMTTP	76	336	5	E	0	M1
NMTTP	77	0	4	E	1	M1
NMTAP	77	96	6
NMTAP	77	192	6
NMTAP	77	288	5
NMTAP	77	288	7
NMTAP	78	0	5
NMTAP	78	0	7
NMTAP	78	96	1
NMTAP	78	192	1
NMTAP	78	288	0
NMTAP	78	288	2
NMTAP	79	0	0
NMTAP	79	0	2
NMTAP	79	96	4
NMTAP	79	192	5
NMTAP	79	288	4
NMTAP	79	288	6
NMTAP	80	0	3
NMTAP	80	96	2
NMTAP	80	192	1
NMTAP	80	192	3
NMTAP	80	288	4
NMTAP	81	0	3
NMTAP	81	0	5
EXTAP	81	96	2
EXTAP	81	160	2
EXTAP	81	224	2
EXTAP	81	288	3
EXTAP	81	288	5
EXTAP	81	352	3
EXTAP	81	352	5
EXTAP	82	32	3
EXTAP	82	32	5
EXTAP	82	96	6
EXSTR	82	192	7
NMSCL	82	192	7	96	96	4
NMTAP	83	0	1
NMSTR	83	96	0
NMSI_	83	96	0	96	96	4
NMSTR	83	288	7
NMSI_	83	288	7	96	96	3
EXHLD	84	96	1	288
EXHLD	84	192	3	192
NMTAP	85	96	1
NMTAP	85	96	3
NMTAP	85	192	1
NMTAP	85	192	3
NMTAP	85	288	5
NMTAP	85	336	5
NMTAP	86	0	3
NMTAP	86	96	4
NMTAP	86	96	6
NMTAP	86	192	4
NMTAP	86	192	6
NMTAP	86	288	2
NMTAP	86	336	2
NMTAP	87	0	4
NMTAP	87	96	0
NMTAP	87	96	2
NMTAP	87	192	0
NMTAP	87	192	2
NMTAP	87	288	6
NMTAP	87	336	6
NMTAP	88	0	0
NMTAP	88	96	5
NMTAP	88	96	7
NMTAP	88	192	5
NMTAP	88	192	7
NMTAP	88	288	0
NMTAP	88	336	0
NMTAP	89	0	7
NMTAP	89	96	4
NMTAP	89	96	6
NMTAP	89	192	4
NMTAP	89	192	5
NMTAP	89	288	1
NMTAP	89	288	3
NMTAP	90	0	2
NMTAP	90	0	3
NMTAP	90	96	5
NMTAP	90	96	7
NMTAP	90	192	6
NMTAP	90	192	7
NMTAP	90	288	0
NMTAP	90	288	2
NMTAP	91	0	0
NMTAP	91	0	1
NMSTR	91	96	2
NMSI_	91	96	2	96	96	7
NMSTR	91	288	5
NMSI_	91	288	5	96	96	0
NMTAP	92	96	3
NMSTR	92	192	3
NMSI_	92	192	3	96	96	7
NMTAP	93	96	5
NMTAP	93	192	4
NMTAP	93	192	6
NMTAP	93	288	2
NMTAP	94	0	1
NMTAP	94	0	3
NMTAP	94	96	5
NMTAP	94	192	6
NMTAP	94	192	7
NMTAP	94	288	2
NMTAP	95	0	0
NMTAP	95	0	1
EXTAP	95	96	2
EXTAP	95	96	7
EXTAP	95	160	2
EXTAP	95	160	7
EXTAP	95	224	2
EXTAP	95	224	7
EXTAP	95	288	1
EXTAP	95	288	6
EXTAP	95	352	1
EXTAP	95	352	6
EXTAP	96	32	1
EXTAP	96	32	6
EXTAP	96	96	0
EXTAP	96	96	5
EXTAP	96	160	0
EXTAP	96	160	5
EXTAP	96	224	0
EXTAP	96	224	5
EXTAP	96	288	0
EXTAP	96	288	5
NMTAP	97	96	2
NMTAP	97	128	3
NMTAP	97	192	1
NMTAP	97	192	4
NMTAP	97	288	2
NMTAP	97	320	3
NMTAP	98	0	1
NMTAP	98	0	4
NMTAP	98	96	5
NMTAP	98	128	4
NMTAP	98	192	3
NMTAP	98	192	6
NMTAP	98	288	5
NMTAP	98	320	4
NMTAP	99	0	3
NMTAP	99	0	6
NMHLD	99	96	5	96
NMHLD	99	192	7	96
NMHLD	99	288	0	96
NMHLD	100	0	2	96
NMTAP	100	96	3
NMTAP	100	192	1
NMTAP	100	192	4
NMTAP	100	288	1
NMTAP	100	288	4
NMHLD	101	96	0	144
NMTAP	101	288	1
NMTAP	101	288	7
NMTAP	101	336	1
NMTAP	101	336	7
NMTAP	102	0	1
NMTAP	102	0	7
NMTAP	102	96	0
NMTAP	102	96	6
NMTAP	102	144	0
NMTAP	102	144	6
NMTAP	102	192	0
NMTAP	102	192	6
NMTAP	102	288	2
NMTAP	102	288	4
NMTAP	102	336	2
NMTAP	102	336	4
NMTAP	103	0	2
NMTAP	103	0	4
NMTAP	103	96	3
NMTAP	103	96	5
NMTAP	103	144	3
NMTAP	103	144	5
NMTAP	103	192	3
NMTAP	103	192	5
NMTAP	103	288	6
NMTAP	104	0	4
NMTAP	104	0	6
NMTAP	104	96	1
NMTAP	104	192	1
NMTAP	104	192	3
NMTAP	104	288	7
NMTAP	105	0	4
NMTAP	105	0	6
NMTAP	105	96	0
NMTAP	105	192	1
NMTAP	105	192	3
BRTAP	105	288	2
BRTAP	105	288	4
EXTAP	106	0	5
EXTAP	106	96	5
EXSTR	106	192	5
NMSXL	106	192	5	96	288	3
NMTAP	107	288	2
NMTAP	108	0	1
NMTAP	108	0	4
NMTAP	108	48	1
NMTAP	108	48	4
NMTAP	108	192	4
NMTAP	108	192	5
NMTAP	108	288	3
NMTAP	108	288	6
NMTAP	108	336	3
NMTAP	108	336	6
NMTAP	109	96	0
NMTAP	109	96	7
NMTAP	109	192	1
NMTAP	109	192	6
NMTAP	109	240	1
NMTAP	109	240	6
EXTAP	109	288	1
EXTAP	109	288	6
NMHLD	110	0	2	96
NMHLD	110	96	0	96
NMHLD	110	192	7	96
NMHLD	110	288	5	96
NMTAP	111	0	4
NMTAP	111	96	3
NMTAP	111	96	6
NMTAP	111	192	1
NMTAP	111	192	4
NMTAP	111	288	2
NMTAP	111	288	5
NMTAP	112	96	3
NMTAP	112	96	4
NMTAP	112	288	0
NMTAP	112	288	7
NMSTR	112	336	0
NMSI_	112	336	0	96	96	4
NMSTR	112	336	7
NMSI_	112	336	7	96	96	3

T_REC_TAP	447
T_REC_BRK	4
T_REC_XTP	62
T_REC_BXX	4
T_REC_HLD	32
T_REC_XHO	7
T_REC_BHO	0
T_REC_BXH	2
T_REC_STR	31
T_REC_BST	0
T_REC_XST	2
T_REC_XBS	0
T_REC_TTP	25
T_REC_THO	0
T_REC_SLD	36
T_REC_BSL	0
T_REC_ALL	652
T_NUM_TAP	567
T_NUM_BRK	10
T_NUM_HLD	39
T_NUM_SLD	36
T_NUM_ALL	652
T_JUDGE_TAP	575
T_JUDGE_HLD	122
T_JUDGE_SLD	36
T_JUDGE_ALL	733
TTM_EACHPAIRS	168
TTM_SCR_TAP	283500
TTM_SCR_BRK	26000
TTM_SCR_HLD	39000
TTM_SCR_SLD	54000
TTM_SCR_ALL	402500
TTM_SCR_S	389500
TTM_SCR_SS	401500
TTM_RAT_ACV	10024

