VERSION	0.00.00	1.05.00
FES_MODE	0
BPM_DEF	264.000	264.000	300.000	 75.000
MET_DEF	4	4
RESOLUTION	384
CLK_DEF	384
COMPATIBLE_CODE	MA2

BPM	0	0	264.000
BPM	22	0	200.000
BPM	34	96	100.000
BPM	35	96	 95.000
BPM	35	288	 90.000
BPM	36	96	175.000
BPM	37	96	174.000
BPM	47	96	116.000
BPM	49	96	232.000
BPM	67	288	222.000
BPM	68	96	212.000
BPM	68	288	202.000
BPM	69	96	 91.000
BPM	73	96	136.500
BPM	77	96	273.000
BPM	85	96	285.000
BPM	93	96	300.000
BPM	101	96	 75.000
BPM	101	288	300.000
MET	0	0	4	4
MET	22	0	4	1
MET	22	96	4	4
MET	101	96	4	2
MET	101	288	4	4

NMTAP	4	0	7
NMTAP	4	192	7
NMTAP	5	0	6
NMTAP	5	192	6
NMTAP	6	0	5
NMTAP	6	192	5
NMTAP	7	0	3
NMTAP	7	0	4
NMTAP	7	192	3
NMTAP	7	192	4
NMTAP	8	0	3
NMTAP	8	192	3
NMTAP	9	0	2
NMTAP	9	192	2
NMTAP	10	0	1
NMTAP	10	192	1
NMTAP	11	0	0
NMTAP	11	0	7
NMTAP	12	0	0
NMTAP	12	96	0
NMTAP	12	192	0
NMTAP	13	0	1
NMTAP	13	96	1
NMTAP	13	192	1
NMTAP	14	0	2
NMTAP	14	96	2
NMTAP	14	192	2
NMTAP	15	0	3
NMTAP	15	0	4
NMTAP	15	192	3
NMTAP	15	192	4
NMTAP	16	0	4
NMTAP	16	96	4
NMTAP	16	192	4
NMTAP	17	0	5
NMTAP	17	96	5
NMTAP	17	192	5
NMTAP	18	0	6
NMTAP	18	96	6
NMTAP	18	192	6
NMTAP	19	0	0
NMTAP	19	0	7
NMTAP	19	192	0
NMTAP	19	192	7
NMSTR	20	0	0
NMSI_	20	0	0	96	288	3
NMSTR	20	0	7
NMSI_	20	0	7	96	288	4
NMTAP	22	96	4
NMTAP	22	192	4
NMTAP	22	288	5
NMTAP	23	96	6
NMTAP	23	192	6
NMTAP	23	288	7
NMTAP	24	96	0
NMTAP	24	192	0
NMTAP	24	288	1
NMTAP	25	96	2
NMTAP	25	96	3
NMTAP	25	288	2
NMTAP	25	288	3
NMTAP	26	96	3
NMTAP	26	192	3
NMTAP	26	288	2
NMTAP	27	96	1
NMTAP	27	192	1
NMTAP	27	288	0
NMTAP	28	96	7
NMTAP	28	192	7
NMTAP	28	288	6
NMTAP	29	96	4
NMTAP	29	96	5
NMTAP	29	288	4
NMTAP	29	288	5
NMTAP	30	96	5
NMTAP	30	192	5
NMTAP	30	288	4
NMTAP	30	288	5
NMTAP	31	96	6
NMTAP	31	192	6
NMTAP	31	288	6
NMTAP	31	288	7
NMTAP	32	96	0
NMTAP	32	192	0
NMTAP	32	288	0
NMTAP	32	288	1
BRTAP	33	96	2
BRTAP	33	96	3
NMTTP	34	96	2	B	0	L1
NMTTP	34	96	3	B	0	L1
NMTTP	34	288	0	B	0	L1
NMTTP	34	288	1	B	0	L1
NMTTP	35	96	6	B	0	L1
NMTTP	35	96	7	B	0	L1
NMTTP	35	288	4	B	0	L1
NMTTP	35	288	5	B	0	L1
NMTTP	36	96	0	C	1	L1
NMSTR	37	96	7
NMSI_	37	96	7	96	288	3
NMTAP	38	288	2
NMSTR	39	96	1
NMSI_	39	96	1	96	288	5
NMTAP	40	288	6
NMSTR	41	96	6
NMSI_	41	96	6	96	288	3
NMTAP	42	288	2
NMSTR	43	96	2
NMSI_	43	96	2	96	288	7
NMTAP	44	288	6
NMSTR	45	96	0
NMSI_	45	96	0	96	288	3
NMSTR	45	96	7
NMSI_	45	96	7	96	288	4
EXHLD	47	96	4	192
EXHLD	47	96	5	192
EXHLD	48	96	2	192
EXHLD	48	96	3	192
EXTAP	49	96	1
EXTAP	49	192	1
EXTAP	49	288	1
NMTAP	50	96	0
NMTAP	50	96	1
NMTAP	50	192	0
NMTAP	50	192	1
NMTAP	50	288	0
NMTAP	50	288	1
NMTAP	51	96	2
NMTAP	51	192	2
NMTAP	51	288	2
NMTAP	52	96	2
NMTAP	52	96	3
NMTAP	52	192	2
NMTAP	52	192	3
NMTAP	52	288	2
NMTAP	52	288	3
NMTAP	53	96	4
NMTAP	53	192	4
NMTAP	53	288	4
NMTAP	54	96	4
NMTAP	54	96	5
NMTAP	54	192	4
NMTAP	54	192	5
NMTAP	54	288	4
NMTAP	54	288	5
NMTAP	55	96	6
NMTAP	55	192	6
NMTAP	55	288	6
NMTAP	56	96	6
NMTAP	56	96	7
NMTAP	56	192	6
NMTAP	56	192	7
NMTAP	56	288	6
NMTAP	56	288	7
NMTAP	57	96	5
NMTAP	57	192	5
NMTAP	57	288	5
NMTAP	58	96	6
NMTAP	58	96	7
NMTAP	58	192	6
NMTAP	58	192	7
NMTAP	58	288	6
NMTAP	58	288	7
NMTAP	59	96	0
NMTAP	59	192	0
NMTAP	59	288	0
NMTAP	60	96	0
NMTAP	60	96	1
NMTAP	60	192	0
NMTAP	60	192	1
NMTAP	60	288	0
NMTAP	60	288	1
NMTAP	61	96	2
NMTAP	61	192	2
NMTAP	61	288	2
NMTAP	62	96	0
NMTAP	62	96	1
NMTAP	62	192	0
NMTAP	62	192	1
NMTAP	62	288	0
NMTAP	62	288	1
NMTAP	63	96	7
NMTAP	63	192	7
NMTAP	63	288	7
BRTAP	64	96	6
BRTAP	64	96	7
NMTAP	65	96	0
NMTAP	65	192	0
NMTAP	65	288	0
NMTAP	66	96	7
NMTAP	66	192	7
NMTAP	66	288	7
NMSTR	67	96	0
NMSI_	67	96	0	96	288	3
NMSTR	67	96	7
NMSI_	67	96	7	96	288	4
NMHLD	69	96	2	192
NMHLD	69	288	3	192
NMHLD	70	96	4	192
NMTAP	70	288	5
NMHLD	71	96	5	192
NMHLD	71	288	4	192
NMHLD	72	96	3	192
NMTAP	72	288	2
NMTTP	73	96	1	B	0	L1
NMTTP	73	192	2	B	0	L1
NMTTP	73	288	3	B	0	L1
NMTTP	74	96	6	B	0	L1
NMTTP	74	192	5	B	0	L1
NMTTP	74	288	4	B	0	L1
NMTTP	75	96	1	B	0	L1
NMTTP	75	192	2	B	0	L1
NMTTP	75	288	3	B	0	L1
NMTTP	76	0	4	B	0	L1
NMTTP	76	96	0	C	1	L1
EXTAP	77	96	6
EXTAP	77	192	6
EXTAP	77	288	7
EXTAP	78	0	7
EXTAP	78	96	0
EXTAP	78	192	0
EXTAP	78	288	0
EXTAP	78	288	1
NMTAP	79	96	2
NMTAP	79	192	2
NMTAP	79	288	1
NMTAP	80	0	1
NMTAP	80	96	0
NMTAP	80	192	0
NMTAP	80	288	6
NMTAP	80	288	7
NMTAP	81	96	6
NMTAP	81	192	6
NMTAP	81	288	5
NMTAP	82	0	5
NMTAP	82	96	4
NMTAP	82	192	4
NMTAP	82	288	2
NMTAP	82	288	3
NMTAP	83	96	1
NMTAP	83	192	1
NMTAP	83	288	2
NMTAP	84	0	2
NMTAP	84	96	3
NMTAP	84	192	3
BRTAP	84	288	4
BRTAP	84	288	5
NMTAP	85	96	5
NMTAP	85	192	5
NMTAP	85	288	6
NMTAP	86	0	6
NMTAP	86	96	7
NMTAP	86	192	7
NMTAP	86	288	0
NMTAP	86	288	1
NMTAP	87	96	2
NMTAP	87	192	2
NMTAP	87	288	1
NMTAP	88	0	1
NMTAP	88	96	0
NMTAP	88	192	0
NMTAP	88	288	6
NMTAP	88	288	7
NMTAP	89	96	6
NMTAP	89	192	6
NMTAP	89	288	5
NMTAP	90	0	5
NMTAP	90	96	4
NMTAP	90	192	4
NMTAP	90	288	2
NMTAP	90	288	3
NMTAP	91	96	1
NMTAP	91	192	1
NMTAP	91	288	2
NMTAP	92	0	2
NMTAP	92	96	3
NMTAP	92	192	3
NMTAP	92	288	4
NMTAP	92	288	5
NMTAP	93	96	6
NMTAP	93	192	6
NMTAP	93	288	6
NMTAP	93	288	7
NMTAP	94	0	6
NMTAP	94	0	7
NMTAP	94	96	5
NMTAP	94	192	5
NMTAP	94	288	4
NMTAP	94	288	5
NMTAP	95	96	3
NMTAP	95	192	3
NMTAP	95	288	2
NMTAP	95	288	3
NMTAP	96	0	2
NMTAP	96	0	3
NMTAP	96	96	1
NMTAP	96	192	1
BXTAP	96	288	0
BXTAP	96	288	1
NMTAP	97	96	1
NMTAP	97	192	1
NMTAP	97	288	0
NMTAP	97	288	1
NMTAP	98	0	0
NMTAP	98	0	1
NMTAP	98	96	2
NMTAP	98	192	2
NMTAP	98	288	2
NMTAP	98	288	3
NMTAP	99	96	4
NMTAP	99	192	4
NMTAP	99	288	4
NMTAP	99	288	5
NMTAP	100	0	4
NMTAP	100	0	5
NMTAP	100	96	6
NMTAP	100	192	6
NMTAP	100	288	6
NMTAP	100	288	7
NMTAP	101	96	0
NMTAP	101	144	0
NMTAP	101	192	7
NMTAP	101	240	7
EXTAP	101	288	0
EXTAP	101	288	7
EXTAP	102	0	0
EXTAP	102	0	7
EXTAP	102	96	1
EXTAP	102	96	6
EXTAP	102	192	1
EXTAP	102	192	6
EXTAP	102	288	2
EXTAP	102	288	5
EXTAP	103	0	2
EXTAP	103	0	5
EXTAP	103	96	3
EXTAP	103	96	4
NMTAP	103	288	3
NMTAP	104	0	3
NMTAP	104	96	2
NMTAP	104	192	2
NMTAP	104	288	1
NMTAP	105	0	1
NMTAP	105	96	0
NMTAP	105	192	0
NMTAP	105	288	7
NMTAP	106	0	7
NMTAP	106	96	6
NMTAP	106	192	6
NMTAP	106	288	5
NMTAP	107	0	5
NMTAP	107	96	3
NMTAP	107	96	4
NMTAP	107	288	4
NMTAP	108	0	4
NMTAP	108	96	5
NMTAP	108	192	5
NMTAP	108	288	6
NMTAP	109	0	6
NMTAP	109	96	7
NMTAP	109	192	7
NMTAP	109	288	0
NMTAP	110	0	0
NMTAP	110	96	1
NMTAP	110	192	1
NMTAP	110	288	2
NMTAP	111	0	2
NMTAP	111	96	3
NMTAP	111	96	4
EXSTR	111	288	3
NMSCL	111	288	3	96	432	0
EXSTR	111	288	4
NMSCR	111	288	4	96	432	7

T_REC_TAP	285
T_REC_BRK	6
T_REC_XTP	25
T_REC_BXX	2
T_REC_HLD	6
T_REC_XHO	4
T_REC_BHO	0
T_REC_BXH	0
T_REC_STR	10
T_REC_BST	0
T_REC_XST	2
T_REC_XBS	0
T_REC_TTP	20
T_REC_THO	0
T_REC_SLD	12
T_REC_BSL	0
T_REC_ALL	372
T_NUM_TAP	342
T_NUM_BRK	8
T_NUM_HLD	10
T_NUM_SLD	12
T_NUM_ALL	372
T_JUDGE_TAP	350
T_JUDGE_HLD	80
T_JUDGE_SLD	12
T_JUDGE_ALL	442
TTM_EACHPAIRS	72
TTM_SCR_TAP	171000
TTM_SCR_BRK	20800
TTM_SCR_HLD	10000
TTM_SCR_SLD	18000
TTM_SCR_ALL	219800
TTM_SCR_S	212450
TTM_SCR_SS	219000
TTM_RAT_ACV	10036

