VERSION	0.00.00	1.05.00
FES_MODE	0
BPM_DEF	264.000	264.000	300.000	 75.000
MET_DEF	4	4
RESOLUTION	384
CLK_DEF	384
COMPATIBLE_CODE	MA2

BPM	0	0	264.000
BPM	22	0	200.000
BPM	34	96	100.000
BPM	35	96	 95.000
BPM	35	288	 90.000
BPM	36	96	175.000
BPM	37	96	174.000
BPM	47	96	116.000
BPM	49	96	232.000
BPM	67	288	222.000
BPM	68	96	212.000
BPM	68	288	202.000
BPM	69	96	 91.000
BPM	73	96	136.500
BPM	77	96	273.000
BPM	85	96	285.000
BPM	93	96	300.000
BPM	101	96	 75.000
BPM	101	288	300.000
MET	0	0	4	4
MET	22	0	4	1
MET	22	96	4	4
MET	101	96	4	2
MET	101	288	4	4

NMTAP	4	0	0
NMTAP	4	192	0
NMTAP	5	0	0
NMTAP	6	0	0
NMTAP	6	0	7
NMTAP	7	0	0
NMTAP	7	0	7
NMTAP	8	0	7
NMTAP	8	192	7
NMTAP	9	0	7
NMTAP	10	0	0
NMTAP	10	0	7
NMTAP	11	0	0
NMTAP	11	0	7
NMTAP	12	0	0
NMTAP	12	192	0
NMTAP	13	0	1
NMTAP	13	192	1
NMTAP	14	0	2
NMTAP	14	192	2
NMTAP	15	0	3
NMTAP	15	0	4
NMTAP	16	0	4
NMTAP	16	192	4
NMTAP	17	0	5
NMTAP	17	192	5
NMTAP	18	0	6
NMTAP	18	192	6
NMTAP	19	0	0
NMTAP	19	0	7
NMTAP	19	192	0
NMTAP	19	192	7
EXHLD	20	0	0	448
EXHLD	20	0	7	448
EXTAP	22	96	7
EXTAP	22	192	7
EXTAP	22	288	7
NMTAP	23	96	6
NMTAP	23	288	6
NMTAP	24	96	5
NMTAP	24	192	5
NMTAP	24	288	5
NMTAP	25	96	3
NMTAP	25	96	4
NMTAP	26	96	3
NMTAP	26	192	3
NMTAP	26	288	3
NMTAP	27	96	2
NMTAP	27	288	2
NMTAP	28	96	1
NMTAP	28	192	1
NMTAP	28	288	1
NMTAP	29	96	0
NMTAP	29	96	7
NMSTR	30	96	1
NMSI_	30	96	1	96	288	5
NMSTR	32	96	6
NMSI_	32	96	6	96	288	2
NMTTP	34	96	1	B	0	L1
NMTTP	34	288	0	B	0	L1
NMTTP	35	96	7	B	0	L1
NMTTP	35	288	6	B	0	L1
NMTTP	36	96	0	C	1	L1
BXTAP	37	96	0
EXTAP	37	192	0
EXTAP	37	288	0
NMTAP	38	96	0
NMTAP	38	96	1
NMTAP	38	288	0
NMTAP	38	288	1
NMTAP	39	96	2
NMTAP	39	192	2
NMTAP	39	288	2
NMTAP	40	96	3
NMTAP	40	96	4
NMTAP	40	288	3
NMTAP	40	288	4
NMTAP	41	96	4
NMTAP	41	192	4
NMTAP	41	288	4
NMTAP	42	96	4
NMTAP	42	96	5
NMTAP	42	288	4
NMTAP	42	288	5
NMTAP	43	96	6
NMTAP	43	192	6
NMTAP	43	288	6
NMTAP	44	96	0
NMTAP	44	96	7
NMTAP	44	288	0
NMTAP	44	288	7
NMHLD	45	96	0	384
NMHLD	45	96	7	384
NMTHO	47	96	0	384	C	1	L1
EXTAP	49	96	7
EXTAP	49	192	7
EXTAP	49	288	7
NMTAP	50	96	6
NMTAP	50	192	6
NMTAP	50	288	6
NMTAP	50	288	7
NMTAP	51	96	5
NMTAP	51	192	5
NMTAP	51	288	5
NMTAP	52	96	4
NMTAP	52	192	4
NMTAP	52	288	3
NMTAP	52	288	4
NMTAP	53	96	3
NMTAP	53	192	3
NMTAP	53	288	3
NMTAP	54	96	2
NMTAP	54	192	2
NMTAP	54	288	2
NMTAP	54	288	3
NMTAP	55	96	1
NMTAP	55	192	1
NMTAP	55	288	1
NMTAP	56	96	0
NMTAP	56	96	7
NMTAP	56	288	0
NMTAP	56	288	7
NMTAP	57	96	0
NMTAP	57	192	0
NMTAP	57	288	0
NMTAP	58	96	0
NMTAP	58	96	1
NMTAP	58	192	0
NMTAP	58	192	1
NMTAP	58	288	0
NMTAP	58	288	1
NMTAP	59	96	2
NMTAP	59	192	2
NMTAP	59	288	2
NMTAP	60	96	3
NMTAP	60	96	4
NMTAP	60	192	3
NMTAP	60	192	4
NMTAP	60	288	3
NMTAP	60	288	4
NMTAP	61	96	4
NMTAP	61	192	4
NMTAP	61	288	4
NMTAP	62	96	4
NMTAP	62	96	5
NMTAP	62	192	4
NMTAP	62	192	5
NMTAP	62	288	4
NMTAP	62	288	5
NMTAP	63	96	6
NMTAP	63	192	6
NMTAP	63	288	6
NMTAP	64	96	0
NMTAP	64	96	7
NMTAP	64	192	0
NMTAP	64	192	7
NMTAP	64	288	0
NMTAP	64	288	7
NMTAP	65	96	0
NMTAP	65	192	0
NMTAP	65	288	0
NMTAP	66	96	7
NMTAP	66	192	7
NMTAP	66	288	7
BRTAP	67	96	0
BRTAP	67	96	7
EXHLD	69	96	6	192
EXHLD	69	96	7	192
NMHLD	70	96	4	192
NMHLD	70	96	5	192
NMHLD	71	96	2	192
NMHLD	71	96	3	192
NMHLD	72	96	0	192
NMHLD	72	96	1	192
NMTTP	73	96	1	E	0	L1
NMTTP	73	288	2	E	0	L1
NMTTP	74	96	3	E	0	L1
NMTTP	74	288	4	E	0	L1
NMTTP	75	96	5	E	0	L1
NMTTP	75	288	6	E	0	L1
NMTTP	76	96	7	E	0	L1
NMTTP	76	288	0	C	0	L1
EXTAP	77	96	7
EXTAP	77	192	7
EXTAP	77	288	7
EXTAP	78	96	6
EXTAP	78	96	7
EXTAP	78	288	6
EXTAP	78	288	7
NMTAP	79	96	5
NMTAP	79	192	5
NMTAP	79	288	5
NMTAP	80	96	3
NMTAP	80	96	4
NMTAP	80	288	3
NMTAP	80	288	4
NMTAP	81	96	3
NMTAP	81	192	3
NMTAP	81	288	3
NMTAP	82	96	2
NMTAP	82	96	3
NMTAP	82	288	2
NMTAP	82	288	3
NMTAP	83	96	1
NMTAP	83	192	1
NMTAP	83	288	1
BXTAP	84	96	0
BXTAP	84	96	7
EXTAP	85	96	0
EXTAP	85	192	0
EXTAP	85	288	0
EXTAP	86	96	0
EXTAP	86	96	1
EXTAP	86	288	0
EXTAP	86	288	1
NMTAP	87	96	2
NMTAP	87	192	2
NMTAP	87	288	2
NMTAP	88	96	3
NMTAP	88	96	4
NMTAP	88	288	3
NMTAP	88	288	4
NMTAP	89	96	4
NMTAP	89	192	4
NMTAP	89	288	4
NMTAP	90	96	4
NMTAP	90	96	5
NMTAP	90	288	4
NMTAP	90	288	5
NMTAP	91	96	6
NMTAP	91	192	6
NMTAP	91	288	6
BXTAP	92	96	0
BXTAP	92	96	7
EXTAP	93	96	7
EXTAP	93	192	7
EXTAP	93	288	7
EXTAP	94	0	7
EXTAP	94	96	6
EXTAP	94	192	6
EXTAP	94	288	6
EXTAP	94	288	7
BRTAP	95	96	5
NMTAP	95	192	5
NMTAP	95	288	5
NMTAP	96	0	5
NMTAP	96	96	4
NMTAP	96	192	4
NMTAP	96	288	3
NMTAP	96	288	4
NMTAP	97	96	3
NMTAP	97	192	3
NMTAP	97	288	3
NMTAP	98	0	3
NMTAP	98	96	2
NMTAP	98	192	2
NMTAP	98	288	2
NMTAP	98	288	3
NMTAP	99	96	1
NMTAP	99	192	1
NMTAP	99	288	1
NMTAP	100	0	1
NMTAP	100	96	0
NMTAP	100	192	0
NMTAP	100	288	0
NMTAP	100	288	7
EXHLD	101	96	0	96
EXHLD	101	96	7	96
NMTAP	101	288	0
NMTAP	102	0	0
NMTAP	102	96	7
NMTAP	102	192	7
NMTAP	102	288	0
NMTAP	102	288	7
NMTAP	103	0	0
NMTAP	103	0	7
BXTAP	103	96	0
BXTAP	103	96	7
NMTAP	103	288	1
NMTAP	104	0	1
NMTAP	104	96	1
NMTAP	104	288	2
NMTAP	105	0	2
NMTAP	105	96	2
NMTAP	105	288	3
NMTAP	106	0	3
NMTAP	106	96	3
NMTAP	106	288	4
NMTAP	107	0	4
NMTAP	107	96	4
EXSTR	107	288	5
NMSI_	107	288	5	96	480	2
EXSTR	110	0	1
NMSI_	110	0	1	96	480	5
EXTAP	112	96	6
BXTAP	112	288	0
BXTAP	112	288	7
BXTAP	113	0	0
BXTAP	113	0	7

T_REC_TAP	218
T_REC_BRK	3
T_REC_XTP	31
T_REC_BXX	11
T_REC_HLD	8
T_REC_XHO	6
T_REC_BHO	0
T_REC_BXH	0
T_REC_STR	2
T_REC_BST	0
T_REC_XST	2
T_REC_XBS	0
T_REC_TTP	13
T_REC_THO	1
T_REC_SLD	4
T_REC_BSL	0
T_REC_ALL	299
T_NUM_TAP	266
T_NUM_BRK	14
T_NUM_HLD	15
T_NUM_SLD	4
T_NUM_ALL	299
T_JUDGE_TAP	280
T_JUDGE_HLD	114
T_JUDGE_SLD	4
T_JUDGE_ALL	398
TTM_EACHPAIRS	65
TTM_SCR_TAP	133000
TTM_SCR_BRK	36400
TTM_SCR_HLD	15000
TTM_SCR_SLD	6000
TTM_SCR_ALL	190400
TTM_SCR_S	183350
TTM_SCR_SS	189000
TTM_RAT_ACV	10074

