VERSION	0.00.00	1.05.00
FES_MODE	0
BPM_DEF	116.000	116.000	116.000	116.000
MET_DEF	4	4
RESOLUTION	384
CLK_DEF	384
COMPATIBLE_CODE	MA2

BPM	0	0	116.000
MET	0	0	4	4

NMTAP	3	0	1
NMTAP	3	0	3
NMTAP	3	96	2
NMTAP	3	96	3
NMTAP	3	192	4
NMTAP	3	192	6
NMTAP	3	288	4
NMTAP	3	288	5
NMTAP	4	0	1
NMTAP	4	0	3
NMTAP	4	96	3
NMTAP	4	96	4
NMTAP	4	192	4
NMSTR	4	192	5
NMSI_	4	192	5	96	48	3
NMTAP	5	0	2
NMSTR	5	0	3
NMSCL	5	0	3	96	48	1
NMSTR	5	192	1
NMSCR	5	192	1	96	48	3
NMTAP	5	192	3
NMTAP	6	0	2
NMSTR	6	0	3
NMSCL	6	0	3	96	48	1
NMTAP	6	192	1
NMTAP	6	192	3
NMTAP	6	288	1
NMTAP	6	288	3
NMSTR	7	0	4
NMSCR	7	0	4	96	48	6
NMTAP	7	0	5
NMTAP	7	192	4
NMSTR	7	192	6
NMSCL	7	192	6	96	48	4
NMSTR	8	0	4
NMSCR	8	0	4	96	48	6
NMTAP	8	0	5
NMTAP	8	192	4
NMTAP	8	192	5
NMTAP	8	240	4
NMTAP	8	240	5
NMTAP	8	288	4
NMTAP	8	288	5
NMTAP	9	0	1
NMSTR	9	0	7
NMSXR	9	0	7	96	96	7
NMSTR	9	96	0
NMSXL	9	96	0	96	96	0
NMTAP	9	96	7
NMTAP	10	0	1
NMTAP	10	0	3
NMTAP	10	96	3
NMSTR	10	96	5
NMSLR	10	96	5	96	120	3
NMSTR	11	0	2
NMSCL	11	0	2	96	48	0
NMTAP	11	0	3
NMTAP	11	192	0
NMSTR	11	192	1
NMSUR	11	192	1	96	48	5
NMSTR	12	0	6
NMSI_	12	0	6	96	48	2
NMTAP	12	0	7
NMSTR	12	96	4
NMSUL	12	96	4	96	144	1
NMTAP	12	96	6
NMTAP	13	0	1
NMTAP	13	0	3
NMSTR	13	96	0
NMSCL	13	96	0	96	48	6
NMSCR	13	96	0	96	48	2
NMTAP	13	96	4
CNSV_	13	240	2	0	48	4
CNSV_	13	240	6	0	48	4
NMTAP	14	0	4
NMTAP	14	0	5
NMHLD	14	96	5	96
NMSTR	14	96	6
NMSUL	14	96	6	96	96	0
NMTAP	14	336	1
NMTAP	14	336	7
NMTAP	15	0	1
NMTAP	15	0	7
NMSTR	15	96	2
NMSLL	15	96	2	96	120	5
NMTAP	15	96	3
NMTAP	15	192	2
NMHLD	15	192	4	96
NMSTR	16	0	6
NMSCL	16	0	6	96	96	2
NMSTR	16	0	7
NMSCL	16	0	7	96	96	2
NMTAP	16	240	2
NMTAP	16	240	3
NMSTR	16	288	2
NMSI_	16	288	2	96	48	5
NMHLD	16	288	3	576
CNSI_	17	48	5	0	48	0
CNSI_	17	96	0	0	96	3
CNSI_	17	192	3	0	96	6
CNSI_	17	288	6	0	192	1
NMTAP	18	192	2
NMTAP	18	192	4
NMHLD	18	288	4	576
NMSTR	18	288	6
NMSCR	18	288	6	96	192	4
CNSXR	19	192	4	0	288	7
NMTAP	20	192	4
NMTAP	20	192	6
NMSTR	20	288	4
NMSI_	20	288	4	96	48	6
NMTAP	20	288	5
NMTAP	21	0	2
NMTAP	21	0	4
NMTAP	21	96	3
NMSTR	21	96	4
NMSI_	21	96	4	96	48	2
NMTAP	21	192	4
NMTAP	21	192	6
NMSTR	21	288	4
NMSI_	21	288	4	96	48	6
NMTAP	21	288	5
NMTAP	22	0	2
NMSTR	22	0	4
NMSI_	22	0	4	96	48	0
NMTAP	22	96	4
NMTAP	22	96	5
NMSTR	22	192	1
NMSI_	22	192	1	96	48	4
NMTAP	22	192	7
NMTAP	22	288	1
NMSTR	22	288	6
NMSI_	22	288	6	96	48	3
NMSTR	23	0	4
NMSI_	23	0	4	96	48	7
NMTAP	23	0	6
NMTAP	23	96	2
NMSTR	23	96	4
NMSI_	23	96	4	96	48	0
NMSTR	23	192	4
NMSI_	23	192	4	96	48	6
NMTAP	23	192	6
NMTAP	23	288	3
NMTAP	23	288	4
NMSTR	24	0	5
NMSI_	24	0	5	96	48	2
NMSTR	24	0	6
NMSI_	24	0	6	96	48	1
NMTAP	24	96	5
NMTAP	24	96	6
NMTAP	24	192	0
NMSTR	24	192	3
NMSLR	24	192	3	96	96	7
CNSLR	25	0	7	0	96	3
NMSTR	25	192	0
NMSI_	25	192	0	96	48	4
NMTAP	25	192	4
BXTAP	25	288	0
NMSTR	25	288	5
NMSXL	25	288	5	96	144	2
NMHLD	26	0	3	96
NMTAP	26	0	5
NMSTR	26	192	1
NMSV_	26	192	1	96	48	3
NMTAP	26	192	3
NMTAP	26	288	1
NMSTR	26	288	4
NMSI_	26	288	4	96	48	0
NMTAP	27	0	4
NMSTR	27	0	5
NMSI_	27	0	5	96	48	7
NMSTR	27	96	1
NMSCR	27	96	1	96	48	4
NMTAP	27	96	5
NMTAP	27	192	1
NMSTR	27	192	7
NMSI_	27	192	7	96	48	3
NMSTR	27	288	1
NMSXL	27	288	1	96	144	6
NMTAP	27	288	7
NMTAP	28	0	1
NMHLD	28	0	4	96
NMTAP	28	192	5
NMSTR	28	192	7
NMSV_	28	192	7	96	48	5
NMSTR	28	288	1
NMSI_	28	288	1	96	48	3
NMTAP	28	288	7
NMTAP	29	0	1
NMSTR	29	0	4
NMSI_	29	0	4	96	48	7
NMSTR	29	96	0
NMSXL	29	96	0	96	48	2
NMSXR	29	96	0	96	48	6
NMTAP	29	96	4
NMTAP	29	288	3
NMSTR	29	288	5
NMSXR	29	288	5	96	144	7
NMHLD	30	0	4	96
NMTAP	30	0	5
NMSTR	30	192	0
NMSV_	30	192	0	96	48	6
NMTAP	30	192	1
NMTAP	30	288	0
NMSTR	30	288	3
NMSUL	30	288	3	96	48	7
NMSTR	31	0	3
NMSI_	31	0	3	96	48	1
NMSI_	31	0	3	96	48	5
NMTAP	31	0	4
NMSTR	31	192	0
NMSI_	31	192	0	96	48	4
NMTAP	31	192	6
NMTAP	31	288	0
NMSTR	31	288	5
NMSCL	31	288	5	96	48	2
NMSTR	32	0	1
NMSUR	32	0	1	96	48	5
NMTAP	32	0	5
NMTAP	32	96	1
NMSTR	32	96	4
NMSI_	32	96	4	96	48	7
NMTAP	32	192	0
NMTAP	32	192	4
NMSTR	32	288	0
NMSI_	32	288	0	96	48	4
NMTAP	32	288	7
NMTAP	33	0	0
NMSTR	33	0	1
NMSI_	33	0	1	96	48	5
NMSTR	33	96	0
NMSCL	33	96	0	96	48	6
NMSTR	33	96	1
NMSCR	33	96	1	96	48	3
NMTAP	33	192	0
NMSTR	33	192	1
NMSI_	33	192	1	96	48	5
NMTAP	33	288	1
NMSTR	33	288	7
NMSCL	33	288	7	96	48	4
NMTAP	34	0	3
NMSTR	34	0	7
NMSCR	34	0	7	96	48	2
NMSTR	34	96	4
NMSV_	34	96	4	96	48	7
NMTAP	34	96	7
NMTAP	34	192	3
NMSTR	34	192	4
NMSV_	34	192	4	96	48	1
NMTAP	34	288	4
NMSTR	34	288	6
NMSCL	34	288	6	96	48	3
NMSTR	35	0	0
NMSCR	35	0	0	96	48	2
NMTAP	35	0	6
NMTAP	35	96	0
NMSTR	35	96	3
NMSI_	35	96	3	96	48	7
NMSTR	35	192	1
NMSI_	35	192	1	96	48	4
NMTAP	35	192	3
NMTAP	35	288	1
NMSTR	35	288	7
NMSCL	35	288	7	96	48	4
NMTAP	36	0	3
NMSTR	36	0	7
NMSCR	36	0	7	96	48	2
NMSTR	36	96	4
NMSXL	36	96	4	96	48	6
NMTAP	36	96	7
NMTAP	36	192	1
NMSTR	36	192	4
NMSXR	36	192	4	96	48	2
NMTAP	36	288	4
NMTAP	36	288	6
NMSTR	37	0	2
NMSCL	37	0	2	96	48	0
NMTAP	37	0	4
NMSTR	37	96	2
NMSI_	37	96	2	96	48	6
NMTAP	37	96	3
NMTAP	37	192	0
NMSTR	37	192	2
NMSI_	37	192	2	96	48	0
NMSTR	37	288	2
NMSCR	37	288	2	96	144	1
NMSUR	37	288	2	96	144	1
NMTAP	37	288	3
NMTAP	38	240	1
NMTAP	38	240	3
NMSTR	38	288	1
NMSI_	38	288	1	96	48	4
NMTAP	38	288	3
NMTAP	39	0	1
NMSTR	39	0	5
NMSI_	39	0	5	96	48	0
NMSTR	39	96	4
NMSI_	39	96	4	96	48	0
NMTAP	39	96	5
NMTAP	39	192	4
NMSTR	39	192	7
NMSI_	39	192	7	96	48	3
NMSTR	39	288	1
NMSI_	39	288	1	96	48	3
NMSI_	39	288	1	96	48	5
NMTAP	39	288	7
NMTAP	40	96	0
NMSTR	40	96	6
NMSI_	40	96	6	96	48	2
NMSI_	40	96	6	96	48	4
NMSTR	40	288	0
NMSI_	40	288	0	96	48	4
NMSTR	40	288	1
NMSI_	40	288	1	96	48	3
BRSTR	41	0	0
NMSI_	41	0	0	96	48	6
BRSTR	41	0	1
NMSI_	41	0	1	96	48	5
BRSTR	41	96	0
NMSI_	41	96	0	96	48	4
BRSTR	41	96	1
NMSI_	41	96	1	96	48	3
BRSTR	41	192	0
NMSXR	41	192	0	96	48	6
BRTAP	41	192	1
NMSTR	42	0	1
NMSI_	42	0	1	96	48	4
NMHLD	42	0	4	96
NMSTR	42	192	2
NMSI_	42	192	2	96	48	4
NMHLD	42	192	3	96
NMSTR	43	0	1
NMSCR	43	0	1	96	96	5
NMTAP	43	0	3
NMTAP	43	96	1
NMTAP	43	96	4
NMTAP	43	240	0
NMTAP	43	240	7
NMTAP	43	288	0
NMSTR	43	288	7
NMSI_	43	288	7	96	48	1
NMSTR	44	0	6
NMSI_	44	0	6	96	48	2
NMTAP	44	0	7
NMSTR	44	96	5
NMSI_	44	96	5	96	48	3
NMTAP	44	96	6
NMTAP	44	192	4
NMTAP	44	192	5
NMTAP	44	288	2
NMTAP	44	288	3
NMTAP	45	0	2
NMSTR	45	0	3
NMSXR	45	0	3	96	48	1
NMSTR	45	96	3
NMSXL	45	96	3	96	48	5
NMTAP	45	96	4
NMTAP	45	192	2
NMSTR	45	192	3
NMSCL	45	192	3	96	192	5
CNSUL	46	96	5	0	96	4
NMTAP	46	288	3
NMTAP	46	288	5
NMSTR	47	0	2
NMSCL	47	0	2	96	192	5
NMTAP	47	0	4
NMTTP	47	96	3	B	0	M1
NMTTP	47	96	3	A	0	M1
NMTTP	47	288	4	E	0	M1
NMTTP	47	288	4	D	0	M1
NMTAP	48	0	3
NMSTR	48	0	5
NMSCR	48	0	5	96	192	2
NMTTP	48	96	4	B	0	M1
NMTTP	48	96	4	A	0	M1
NMTTP	48	288	4	E	0	M1
NMTTP	48	288	4	D	0	M1
NMSTR	49	0	2
NMSCL	49	0	2	96	192	5
NMTAP	49	0	4
NMTTP	49	96	3	B	0	M1
NMTTP	49	96	3	A	0	M1
NMTTP	49	288	4	E	0	M1
NMTTP	49	288	4	D	0	M1
NMHLD	50	0	4	96
NMSTR	50	0	6
NMSSR	50	0	6	96	144	2
NMSTR	50	288	0
NMSI_	50	288	0	96	48	4
NMTAP	50	288	1
NMSTR	51	0	0
BRSF_	51	0	0	96	48	4
NMTAP	51	0	7
NMTTP	51	96	0	E	0	M1
NMTTP	51	96	0	A	1	M1
NMTTP	51	96	1	E	0	M1
NMTAP	51	192	1
NMSTR	51	192	7
NMSV_	51	192	7	96	48	5
NMSTR	51	288	4
NMSI_	51	288	4	96	48	7
NMTAP	51	288	7
NMTAP	52	0	4
NMSTR	52	0	5
NMSI_	52	0	5	96	48	1
NMSTR	52	96	0
NMSI_	52	96	0	96	48	4
NMSI_	52	96	0	96	48	5
NMTAP	52	96	5
NMTAP	52	288	3
NMSTR	52	288	6
NMSXR	52	288	6	96	144	0
NMHLD	53	0	4	96
NMTAP	53	0	6
NMSTR	53	192	2
NMSV_	53	192	2	96	48	4
NMTAP	53	192	3
NMTAP	53	288	2
NMSTR	53	288	7
NMSI_	53	288	7	96	48	3
NMSTR	54	0	2
NMSI_	54	0	2	96	48	7
NMTAP	54	0	7
NMTAP	54	96	2
NMSTR	54	96	3
NMSCR	54	96	3	96	48	6
NMSV_	54	96	3	96	48	0
NMSTR	54	288	1
NMSXL	54	288	1	96	144	7
NMTAP	54	288	5
NMTAP	55	0	1
NMHLD	55	0	3	96
NMSTR	55	192	4
NMSI_	55	192	4	96	48	7
NMTAP	55	192	6
NMTAP	55	288	4
NMSTR	55	288	5
NMSUR	55	288	5	96	48	1
NMSTR	56	0	3
NMSCL	56	0	3	96	48	0
NMSCR	56	0	3	96	48	6
NMTAP	56	0	5
NMTAP	56	192	1
NMSTR	56	192	7
NMSI_	56	192	7	96	48	3
NMSTR	56	288	2
NMSCR	56	288	2	96	48	5
NMTAP	56	288	7
NMTAP	57	0	2
NMSTR	57	0	6
NMSUL	57	0	6	96	48	2
NMSTR	57	96	4
NMSI_	57	96	4	96	48	7
NMTAP	57	96	6
NMTAP	57	192	1
NMTAP	57	192	4
NMTAP	57	288	0
NMSTR	57	288	7
NMSI_	57	288	7	96	48	3
NMSTR	58	0	6
NMSI_	58	0	6	96	48	2
NMTAP	58	0	7
NMSTR	58	96	6
NMSCL	58	96	6	96	48	4
NMSTR	58	96	7
NMSCR	58	96	7	96	48	1
NMSTR	58	192	6
NMSI_	58	192	6	96	48	2
NMTAP	58	192	7
NMSTR	58	288	0
NMSCR	58	288	0	96	48	3
NMTAP	58	288	6
NMSTR	59	0	0
NMSCL	59	0	0	96	48	5
NMTAP	59	0	7
NMTAP	59	96	0
NMSTR	59	96	3
NMSV_	59	96	3	96	48	1
NMSTR	59	192	3
NMSV_	59	192	3	96	48	5
NMTAP	59	192	6
NMSTR	59	288	1
NMSCR	59	288	1	96	48	4
NMTAP	59	288	3
NMTAP	60	0	1
NMSTR	60	0	7
NMSCL	60	0	7	96	48	4
NMSTR	60	96	3
NMSI_	60	96	3	96	48	1
NMTAP	60	96	7
NMTAP	60	192	3
NMSTR	60	192	5
NMSI_	60	192	5	96	48	7
NMSTR	60	288	0
NMSCR	60	288	0	96	48	3
NMTAP	60	288	5
NMSTR	61	0	0
NMSCL	61	0	0	96	48	5
NMTAP	61	0	6
NMTAP	61	96	0
NMSTR	61	96	3
NMSXR	61	96	3	96	48	1
NMSTR	61	192	3
NMSXL	61	192	3	96	48	5
NMTAP	61	192	6
NMTAP	61	288	1
NMTAP	61	288	3
NMTAP	62	0	3
NMSTR	62	0	5
NMSI_	62	0	5	96	48	1
NMTAP	62	96	4
NMSTR	62	96	5
NMSI_	62	96	5	96	48	3
NMSTR	62	192	5
NMSI_	62	192	5	96	48	0
NMTAP	62	192	7
NMTAP	62	288	4
NMSTR	62	288	5
NMSCL	62	288	5	96	144	6
NMSUL	62	288	5	96	144	6
NMTAP	63	240	4
NMTAP	63	240	6
NMTAP	63	288	4
NMSTR	63	288	6
NMSI_	63	288	6	96	48	3
NMSTR	64	0	2
NMSI_	64	0	2	96	48	7
NMTAP	64	0	6
NMTAP	64	96	2
NMSTR	64	96	3
NMSI_	64	96	3	96	48	0
NMTAP	64	192	3
NMSTR	64	192	4
NMSI_	64	192	4	96	48	7
NMTAP	64	288	4
NMSTR	64	288	5
NMSI_	64	288	5	96	48	1
NMSI_	64	288	5	96	48	3
NMSTR	65	96	2
NMSI_	65	96	2	96	48	4
NMSI_	65	96	2	96	48	6
NMTAP	65	96	3
NMSTR	65	288	6
NMSI_	65	288	6	96	48	4
NMSTR	65	288	7
NMSI_	65	288	7	96	48	3
BRSTR	66	0	6
NMSI_	66	0	6	96	48	2
BRSTR	66	0	7
NMSI_	66	0	7	96	48	1
BRSTR	66	96	6
NMSI_	66	96	6	96	48	4
BRSTR	66	96	7
NMSI_	66	96	7	96	48	3
BRTAP	66	192	6
BRSTR	66	192	7
NMSXL	66	192	7	96	48	1
NMSTR	67	0	1
NMSCR	67	0	1	96	48	3
NMTAP	67	0	3
NMTAP	67	48	1
NMTAP	67	48	3
NMTAP	67	192	2
NMSTR	67	192	3
NMSCL	67	192	3	96	48	1
NMTAP	67	240	2
NMTAP	67	240	3
NMSTR	68	0	1
NMSCR	68	0	1	96	48	3
NMTAP	68	0	3
NMTAP	68	48	1
NMTAP	68	48	3
NMTAP	68	192	3
NMTAP	68	192	4
NMTAP	68	288	4
NMTAP	68	288	5
NMTAP	69	0	4
NMSTR	69	0	6
NMSCL	69	0	6	96	48	4
NMTAP	69	48	4
NMTAP	69	48	6
NMSTR	69	192	4
NMSCR	69	192	4	96	48	6
NMTAP	69	192	5
NMTAP	69	240	4
NMTAP	69	240	5
NMSTR	70	0	6
NMSI_	70	0	6	96	48	4
NMTAP	70	0	7
NMSTR	70	96	0
NMSI_	70	96	0	96	48	2
NMTAP	70	96	6
NMTAP	70	192	0
NMSTR	70	192	7
NMSI_	70	192	7	96	48	1
NMSI_	70	192	7	96	48	5
CNSV_	70	336	1	0	48	3
CNSV_	70	336	5	0	48	3

T_REC_TAP	222
T_REC_BRK	2
T_REC_XTP	0
T_REC_BXX	1
T_REC_HLD	12
T_REC_XHO	0
T_REC_BHO	0
T_REC_BXH	0
T_REC_STR	151
T_REC_BST	10
T_REC_XST	0
T_REC_XBS	0
T_REC_TTP	15
T_REC_THO	0
T_REC_SLD	173
T_REC_BSL	1
T_REC_ALL	587
T_NUM_TAP	388
T_NUM_BRK	14
T_NUM_HLD	12
T_NUM_SLD	173
T_NUM_ALL	587
T_JUDGE_TAP	401
T_JUDGE_HLD	88
T_JUDGE_SLD	174
T_JUDGE_ALL	663
TTM_EACHPAIRS	199
TTM_SCR_TAP	194000
TTM_SCR_BRK	36400
TTM_SCR_HLD	12000
TTM_SCR_SLD	259500
TTM_SCR_ALL	501900
TTM_SCR_S	485500
TTM_SCR_SS	500500
TTM_RAT_ACV	10027

