VERSION	0.00.00	1.05.00
FES_MODE	0
BPM_DEF	116.000	116.000	116.000	116.000
MET_DEF	4	4
RESOLUTION	384
CLK_DEF	384
COMPATIBLE_CODE	MA2

BPM	0	0	116.000
MET	0	0	4	4

NMHLD	3	0	5	96
NMHLD	3	96	4	96
NMHLD	3	192	3	96
NMHLD	3	288	2	96
NMHLD	4	0	3	96
NMHLD	4	96	4	96
NMTAP	4	192	5
NMTAP	4	288	4
NMTAP	4	288	5
NMTAP	5	0	6
NMTAP	5	48	6
NMTAP	5	96	7
NMTAP	5	192	1
NMTAP	5	240	1
NMTAP	5	288	0
NMTAP	6	0	1
NMTAP	6	48	1
NMTAP	6	96	3
NMTAP	6	144	3
NMTAP	6	192	2
NMTAP	6	288	3
NMTAP	6	288	4
NMTAP	7	0	5
NMTAP	7	48	5
NMTAP	7	96	4
NMTAP	7	192	2
NMTAP	7	240	2
NMTAP	7	288	3
NMTAP	8	0	1
NMTAP	8	48	1
NMTAP	8	96	7
NMTAP	8	144	7
NMTAP	8	192	0
NMTAP	8	288	2
NMTAP	8	288	5
NMHLD	9	0	1	384
NMTAP	9	96	3
NMTAP	9	192	2
NMTAP	9	288	2
NMTTP	10	0	2	E	0	M1
NMTTP	10	96	3	E	0	M1
NMTTP	10	192	4	E	0	M1
NMTTP	10	288	5	E	0	M1
NMHLD	11	0	6	384
NMTAP	11	96	4
NMTAP	11	192	5
NMTAP	11	288	5
NMTTP	12	0	6	E	0	M1
NMTTP	12	96	5	E	0	M1
NMTTP	12	192	4	E	0	M1
NMTTP	12	288	3	E	0	M1
NMHLD	13	0	1	288
EXTAP	13	96	3
NMTAP	13	192	2
EXTAP	13	288	2
NMTTP	14	0	2	E	0	M1
NMTTP	14	0	2	D	0	M1
NMTTP	14	96	3	E	0	M1
NMTTP	14	96	3	D	0	M1
NMTTP	14	192	4	E	0	M1
NMTTP	14	192	4	D	0	M1
NMTTP	14	288	5	E	0	M1
NMTTP	14	288	5	D	0	M1
NMHLD	15	0	6	192
NMTAP	15	96	4
NMTAP	15	192	4
NMTAP	15	288	4
NMTAP	15	288	5
NMTAP	16	0	6
NMTAP	16	48	6
NMTAP	16	96	7
NMTAP	16	192	0
NMTAP	16	192	7
NMTAP	16	288	1
NMTAP	16	288	6
NMSTR	17	0	2
NMSCR	17	0	2	96	96	5
NMTAP	17	192	6
NMTAP	17	288	6
NMSTR	18	0	7
NMSUL	18	0	7	96	96	2
NMTAP	18	192	1
NMTAP	18	288	1
NMSTR	19	0	0
NMSUR	19	0	0	96	96	4
NMTAP	19	192	5
NMTAP	19	288	5
NMHLD	20	0	4	96
NMHLD	20	0	6	96
NMTAP	20	144	4
NMTAP	20	144	6
NMTAP	20	192	4
NMTAP	20	192	6
NMTAP	20	288	3
NMTAP	20	288	4
NMTAP	21	0	1
NMTAP	21	0	3
NMTAP	21	96	2
NMTAP	21	144	2
NMTAP	21	192	0
NMTAP	21	288	5
NMTAP	21	336	5
NMTAP	22	0	7
NMTAP	22	96	1
NMTAP	22	144	1
NMTAP	22	192	7
NMTAP	22	288	0
NMTAP	22	288	6
NMHLD	23	0	5	96
NMHLD	23	96	4	96
NMHLD	23	192	3	96
NMTAP	23	288	2
NMHLD	24	0	2	96
NMHLD	24	96	3	96
NMSTR	24	192	4
NMSXL	24	192	4	96	288	2
EXTAP	25	288	0
EXTAP	25	288	1
NMTAP	26	0	0
NMTAP	26	0	1
NMTAP	26	48	2
NMTAP	26	96	3
NMTAP	26	96	4
NMTAP	26	144	5
BXTAP	26	192	6
BXTAP	26	192	7
NMTAP	26	288	4
NMTAP	26	288	5
NMSTR	27	0	4
NMSUR	27	0	4	96	96	1
NMSTR	27	0	5
NMSCR	27	0	5	96	96	0
NMTAP	27	288	2
NMTAP	27	288	3
NMTAP	28	0	2
NMTAP	28	0	3
NMTAP	28	48	1
NMTAP	28	96	0
NMTAP	28	96	7
NMTAP	28	144	6
NMTAP	28	192	4
NMTAP	28	192	5
NMTAP	28	288	2
NMTAP	28	288	3
NMHLD	29	0	1	96
NMHLD	29	96	3	96
NMHLD	29	192	4	96
NMTAP	29	288	5
NMTAP	30	0	6
NMTAP	30	0	7
NMTAP	30	48	5
NMTAP	30	96	3
NMTAP	30	96	4
NMTAP	30	144	2
BXTAP	30	192	0
BXTAP	30	192	1
NMTAP	30	288	2
NMTAP	30	288	3
NMSTR	31	0	2
NMSV_	31	0	2	96	96	0
NMSTR	31	0	3
NMSLR	31	0	3	96	96	7
NMTAP	31	288	5
NMTAP	32	0	5
NMTAP	32	0	7
NMTAP	32	96	2
NMTAP	32	192	0
NMTAP	32	192	2
NMTAP	32	288	5
NMTAP	32	336	5
NMTAP	33	0	4
NMTAP	33	0	6
NMTAP	33	96	2
NMTAP	33	144	2
NMTAP	33	192	1
NMTAP	33	192	3
NMTAP	33	288	0
NMTAP	33	288	1
BXTAP	34	0	0
BXSTR	34	0	1
NMSI_	34	0	1	96	96	4
NMSTR	34	192	5
NMSI_	34	192	5	96	96	0
NMTAP	35	0	1
NMTAP	35	48	1
NMTAP	35	96	3
NMTAP	35	192	3
NMTAP	35	192	4
NMTAP	35	288	6
NMTAP	35	336	6
NMSTR	36	0	5
NMSCL	36	0	5	96	96	2
NMTAP	36	0	7
EXTAP	36	192	0
NMTAP	36	288	1
NMTAP	36	336	1
NMTAP	37	0	0
NMTAP	37	0	1
NMTAP	37	96	0
NMTAP	37	96	1
NMTAP	37	192	2
NMTAP	37	192	3
NMTAP	37	288	4
NMTAP	37	288	5
BRTAP	38	0	6
BRTAP	38	0	7
NMTAP	38	96	6
NMTAP	38	96	7
NMTAP	38	192	0
NMTAP	38	192	1
NMTAP	38	288	0
NMTAP	38	288	1
NMHLD	39	0	6	96
NMTAP	39	0	7
NMTAP	39	96	4
NMTAP	39	192	0
NMHLD	39	192	1	96
NMTAP	39	288	3
NMTAP	40	0	2
NMTAP	40	0	4
NMTAP	40	96	1
NMTAP	40	96	5
NMTAP	40	192	3
NMTAP	40	192	5
NMTAP	40	288	2
NMTAP	40	288	6
EXTAP	41	0	5
NMTAP	41	48	4
NMTAP	41	96	3
NMTAP	41	144	2
NMTAP	41	192	1
NMTAP	41	192	5
BRTAP	41	288	2
BRTAP	41	288	4
NMHLD	42	0	1	480
NMTAP	42	96	3
NMTAP	42	192	3
NMTAP	42	288	2
NMTAP	43	0	2
NMTAP	43	96	0
NMTAP	43	192	2
NMTAP	43	192	3
NMTAP	43	288	4
NMTAP	43	288	5
NMHLD	44	0	6	480
NMTAP	44	96	4
NMTAP	44	192	4
NMTAP	44	288	5
NMTAP	45	0	5
NMTAP	45	96	7
NMTAP	45	192	4
NMTAP	45	192	5
NMTHO	45	288	0	288	C	1	M1
NMTTP	45	288	2	B	0	M1
NMTTP	45	288	3	B	0	M1
NMTTP	45	288	4	B	0	M1
EXSTR	47	0	7
NMSCL	47	0	7	96	96	4
NMTTP	47	192	3	B	0	M1
NMTTP	47	288	2	E	0	M1
EXSTR	48	0	0
NMSCR	48	0	0	96	96	3
NMTTP	48	192	4	B	0	M1
NMTTP	48	288	6	E	0	M1
EXSTR	49	0	2
NMSCL	49	0	2	96	48	1
EXSTR	49	0	6
NMSCL	49	0	6	96	48	5
CNSI_	49	144	1	0	48	7
CNSI_	49	144	5	0	48	3
EXTAP	49	288	0
EXTAP	49	288	4
NMSTR	50	0	1
NMSSL	50	0	1	96	192	5
EXTAP	51	0	4
EXTAP	51	0	5
BRTAP	51	96	6
BRTAP	51	96	7
NMTAP	51	192	0
NMTAP	51	192	7
NMTAP	51	240	1
NMTAP	51	288	2
NMTAP	51	288	3
NMHLD	52	0	2	96
NMHLD	52	96	0	96
NMHLD	52	192	7	96
NMTAP	52	288	5
NMTAP	53	0	4
NMTAP	53	0	5
NMTAP	53	48	6
NMTAP	53	96	0
NMTAP	53	96	7
NMTAP	53	144	1
BRTAP	53	192	2
BRTAP	53	192	3
NMTAP	53	288	2
NMTAP	53	288	3
NMHLD	54	0	1	96
NMHLD	54	96	3	96
NMHLD	54	192	4	96
EXTAP	54	288	6
BRTAP	55	0	6
BRTAP	55	0	7
NMTAP	55	48	5
NMTAP	55	96	3
NMTAP	55	96	4
NMTAP	55	144	2
NMTAP	55	192	0
NMTAP	55	192	1
NMTAP	55	288	2
NMTAP	55	288	3
NMHLD	56	0	1	48
NMHLD	56	0	3	48
NMHLD	56	96	4	48
NMHLD	56	96	6	48
NMTAP	56	192	0
NMTAP	56	192	7
NMHLD	56	288	5	96
NMTAP	57	0	7
NMTAP	57	96	2
NMTAP	57	144	2
NMTAP	57	192	1
NMTAP	57	192	3
NMTAP	57	288	0
NMTAP	57	288	1
NMTAP	58	0	2
NMTAP	58	48	1
NMTAP	58	96	0
NMTAP	58	96	7
NMTAP	58	144	6
NMTAP	58	192	1
NMTAP	58	192	5
NMSTR	58	288	6
NMSI_	58	288	6	96	48	3
NMSTR	58	288	7
NMSI_	58	288	7	96	48	3
NMSTR	59	96	0
NMSI_	59	96	0	96	48	4
NMSTR	59	96	1
NMSI_	59	96	1	96	48	4
EXTAP	59	288	6
EXTAP	59	288	7
NMHLD	60	0	0	48
NMHLD	60	0	5	48
NMHLD	60	96	2	48
NMHLD	60	96	7	48
NMTAP	60	192	0
NMTAP	60	192	1
NMTAP	60	288	2
NMTAP	60	336	2
NMTAP	61	0	0
NMTAP	61	48	0
NMTAP	61	96	1
NMTAP	61	144	1
NMTAP	61	192	5
NMTAP	61	240	5
NMTAP	61	288	7
NMTAP	61	336	7
NMTAP	62	0	6
NMTAP	62	96	0
NMTAP	62	96	1
NMTAP	62	192	2
NMTAP	62	192	3
NMSTR	62	288	1
NMSUR	62	288	1	96	192	4
NMSTR	62	288	4
NMSCR	62	288	4	96	192	2
NMTAP	63	288	3
NMTAP	63	288	5
NMHLD	64	0	6	96
NMHLD	64	96	4	96
NMTAP	64	192	3
NMSTR	64	288	2
NMSI_	64	288	2	96	48	7
NMSTR	64	288	3
NMSI_	64	288	3	96	48	7
NMSTR	65	96	4
NMSI_	65	96	4	96	48	0
NMSTR	65	96	5
NMSI_	65	96	5	96	48	0
NMTAP	65	288	2
NMTAP	65	288	3
NMTAP	66	0	0
NMTAP	66	0	1
NMTAP	66	48	2
NMTAP	66	96	4
NMTAP	66	96	5
NMTAP	66	144	6
NMTAP	66	192	4
NMTAP	66	192	6
BRTAP	66	288	2
BRTAP	66	288	4
NMHLD	67	0	2	96
NMTAP	67	0	3
NMTAP	67	96	7
NMTAP	67	192	4
NMHLD	67	192	5	96
NMTAP	67	288	0
NMTAP	68	0	1
NMTAP	68	48	1
NMTAP	68	96	3
NMTAP	68	144	3
NMTAP	68	192	4
NMTAP	68	240	4
NMTAP	68	288	6
NMHLD	69	0	6	96
NMTAP	69	0	7
NMTAP	69	96	3
NMTAP	69	192	0
NMHLD	69	192	1	96
NMTAP	69	288	4
NMHLD	70	0	4	48
NMHLD	70	0	5	48
NMHLD	70	96	2	48
NMHLD	70	96	3	48
BXTAP	70	192	0
BXTAP	70	192	7
BRTAP	70	288	2
BRTAP	70	288	5

T_REC_TAP	258
T_REC_BRK	14
T_REC_XTP	13
T_REC_BXX	7
T_REC_HLD	49
T_REC_XHO	0
T_REC_BHO	0
T_REC_BXH	0
T_REC_STR	21
T_REC_BST	0
T_REC_XST	4
T_REC_XBS	1
T_REC_TTP	23
T_REC_THO	1
T_REC_SLD	26
T_REC_BSL	0
T_REC_ALL	417
T_NUM_TAP	319
T_NUM_BRK	22
T_NUM_HLD	50
T_NUM_SLD	26
T_NUM_ALL	417
T_JUDGE_TAP	341
T_JUDGE_HLD	252
T_JUDGE_SLD	26
T_JUDGE_ALL	619
TTM_EACHPAIRS	101
TTM_SCR_TAP	159500
TTM_SCR_BRK	57200
TTM_SCR_HLD	50000
TTM_SCR_SLD	39000
TTM_SCR_ALL	305700
TTM_SCR_S	294400
TTM_SCR_SS	303500
TTM_RAT_ACV	10072

