VERSION	0.00.00	1.05.00
FES_MODE	0
BPM_DEF	176.000	176.000	176.000	176.000
MET_DEF	4	4
RESOLUTION	384
CLK_DEF	384
COMPATIBLE_CODE	MA2

BPM	0	0	176.000
MET	0	0	4	4

NMSTR	1	0	5
NMSCL	1	0	5	96	96	3
NMHLD	1	192	2	160
EXHLD	1	352	3	128
NMTTP	2	96	2	E	0	M1
NMSTR	3	0	2
NMSCR	3	0	2	96	96	4
NMTAP	3	192	5
NMHLD	3	288	5	384
EXHLD	3	352	4	320
NMSTR	5	0	6
NMSCL	5	0	6	96	96	4
NMTAP	5	192	3
NMSTR	6	0	1
NMSCR	6	0	1	96	96	3
NMTAP	6	192	4
NMSTR	7	0	5
NMSCL	7	0	5	96	96	3
NMTAP	7	192	2
NMTAP	8	0	2
NMTAP	8	96	3
NMTAP	8	192	4
NMTAP	8	288	3
NMTAP	8	288	5
BRTAP	9	0	2
BRTAP	9	0	6
NMTAP	9	96	4
NMTAP	9	96	5
NMTAP	9	192	6
NMTAP	9	256	4
NMTAP	9	288	5
NMTAP	10	0	2
NMTAP	10	96	2
NMTAP	10	96	3
NMTAP	10	192	1
NMTAP	10	256	3
NMTAP	10	288	2
NMTAP	11	0	5
NMTAP	11	96	4
NMTAP	11	96	6
NMTAP	11	192	7
NMTAP	11	256	4
NMTAP	11	288	5
NMTAP	12	0	2
NMTAP	12	96	1
NMTAP	12	96	3
NMTAP	12	192	0
NMTAP	12	256	3
NMTAP	12	288	2
EXTAP	13	0	4
EXTAP	13	0	5
NMTAP	13	96	3
NMTAP	13	96	6
NMTAP	13	192	7
NMTAP	13	256	4
NMTAP	13	288	5
NMTAP	14	0	2
NMTAP	14	0	3
NMTAP	14	96	1
NMTAP	14	96	4
NMTAP	14	192	0
NMTAP	14	256	3
NMTAP	14	288	2
NMTAP	15	0	4
NMTAP	15	0	5
NMTAP	15	96	3
NMTAP	15	96	6
NMTAP	15	192	2
NMTAP	15	256	4
NMTAP	15	288	3
NMTAP	16	0	2
NMSTR	16	0	5
NMSXL	16	0	5	96	288	3
NMTTP	16	96	0	B	0	M1
NMTTP	16	96	1	B	0	M1
NMTTP	16	96	1	E	1	M1
CNSCL	17	0	3	0	288	4
NMTAP	18	0	1
NMTTP	18	0	3	A	0	M1
NMTAP	18	144	0
NMTTP	18	144	4	B	0	M1
NMTTP	18	288	6	E	1	M1
BXTAP	18	288	7
NMTAP	19	240	0
NMTAP	19	240	6
NMTAP	19	288	0
NMTAP	19	288	6
NMTAP	20	0	3
NMTAP	20	0	7
NMTAP	20	96	6
NMTAP	20	144	4
NMTAP	20	240	4
NMTAP	20	288	5
NMTAP	21	0	3
NMTAP	21	0	4
NMHLD	21	96	1	144
NMTAP	21	240	3
NMTAP	21	288	2
NMTAP	21	288	3
NMTAP	22	0	0
NMTAP	22	0	4
NMTAP	22	96	1
NMTAP	22	144	3
NMTAP	22	240	3
NMTAP	22	288	2
NMTAP	23	0	3
NMTAP	23	0	4
NMHLD	23	96	6	96
NMHLD	23	192	4	96
NMHLD	23	288	2	96
NMTAP	24	0	0
NMTAP	24	48	0
NMTAP	24	96	0
NMTAP	24	144	0
NMTAP	24	240	1
NMTAP	24	240	7
NMSTR	24	288	1
NMSCR	24	288	1	96	96	4
NMTAP	24	288	7
NMSTR	25	0	4
NMSCR	25	0	4	96	96	7
NMSTR	25	96	7
NMSCR	25	96	7	96	96	2
NMSTR	25	192	2
NMSCR	25	192	2	96	96	5
NMTAP	25	288	5
EXTAP	26	0	7
NMTAP	26	96	4
NMTAP	26	144	4
NMTAP	26	144	6
NMTAP	26	240	5
NMTAP	26	288	4
NMTAP	26	288	5
NMSTR	27	0	7
NMSI_	27	0	7	96	48	4
NMTAP	27	96	3
NMTAP	27	192	2
NMTAP	27	240	2
NMTAP	27	288	1
NMTAP	27	288	3
NMTAP	28	0	0
NMTAP	28	0	4
NMTAP	28	96	3
NMTAP	28	144	1
NMTAP	28	144	3
NMTAP	28	240	2
NMTAP	28	288	2
NMTAP	28	288	3
NMSTR	29	0	0
NMSI_	29	0	0	96	48	3
NMTAP	29	96	4
NMTAP	29	192	5
NMTAP	29	240	5
NMTAP	29	288	4
NMTAP	29	288	6
NMTAP	30	0	3
NMTAP	30	0	7
NMTAP	30	96	6
NMTAP	30	144	4
NMTAP	30	144	5
NMTAP	30	240	1
NMTAP	30	288	2
NMTAP	30	288	3
NMSTR	31	0	7
NMSI_	31	0	7	96	48	3
NMTAP	31	96	2
NMTAP	31	192	0
NMTAP	31	240	0
NMTAP	31	288	1
NMTAP	31	288	7
BRTAP	32	0	4
EXTAP	32	0	6
NMTAP	32	96	2
EXTAP	32	144	1
BRTAP	32	144	3
NMTAP	32	240	0
NMTAP	32	240	7
BRTAP	32	288	1
BRTAP	32	288	6
NMTTP	33	96	2	A	0	M1
NMTTP	33	192	4	E	0	M1
NMTTP	33	288	5	A	0	M1
NMTAP	34	0	6
NMTAP	34	0	7
NMTAP	34	48	6
NMTAP	34	48	7
NMTAP	34	96	0
NMTAP	34	96	5
NMTTP	34	192	0	C	0	M1
NMTTP	34	288	3	E	0	M1
NMTAP	35	0	0
NMTAP	35	0	1
NMTAP	35	48	0
NMTAP	35	48	1
NMTAP	35	96	2
NMTAP	35	96	7
NMTTP	35	192	0	C	0	M1
NMTTP	35	288	5	E	0	M1
NMTAP	36	0	6
NMTAP	36	0	7
NMTAP	36	48	6
NMTAP	36	48	7
NMTAP	36	96	0
NMTAP	36	96	5
NMTTP	36	192	5	E	0	M1
NMTTP	36	288	3	A	0	M1
NMTAP	37	0	0
NMTAP	37	0	1
NMTAP	37	48	0
NMTAP	37	48	1
NMTAP	37	96	2
NMTAP	37	96	7
NMHLD	37	192	3	96
NMHLD	37	288	5	96
NMSTR	38	0	7
NMSCR	38	0	7	96	48	2
NMTAP	38	96	4
NMSTR	38	192	0
NMSCL	38	192	0	96	48	5
NMTAP	38	288	3
NMTAP	39	0	7
NMTAP	39	96	4
NMTAP	39	96	5
NMTAP	39	144	1
NMTAP	39	168	0
NMSTR	39	192	1
NMSCL	39	192	1	96	144	2
BRTAP	40	96	0
BRTAP	40	96	6
NMTAP	40	192	1
NMSTR	40	192	5
NMSI_	40	192	5	96	48	0
NMTAP	40	288	2
NMTAP	40	336	2
NMTAP	41	0	3
NMTAP	41	0	7
NMSTR	41	96	0
NMSUR	41	96	0	96	48	4
NMSTR	41	96	1
NMSCR	41	96	1	96	48	3
EXTAP	41	288	6
EXTAP	41	288	7
NMTAP	42	0	2
NMTAP	42	48	4
NMTAP	42	96	6
NMTAP	42	144	0
NMTAP	42	144	1
NMSTR	42	192	2
NMSI_	42	192	2	96	48	7
NMTAP	42	192	7
NMSTR	42	288	5
NMSCR	42	288	5	96	120	3
EXTAP	43	0	4
NMTAP	43	144	0
EXTAP	43	192	1
NMSTR	43	192	7
NMSI_	43	192	7	96	48	4
NMTAP	43	288	3
NMTAP	44	0	2
NMTAP	44	48	2
NMSTR	44	96	3
NMSI_	44	96	3	96	48	7
NMTAP	44	144	3
NMSTR	44	192	1
NMSI_	44	192	1	96	48	3
NMTAP	44	288	0
NMTAP	45	0	6
NMTAP	45	48	6
NMTAP	45	96	7
NMTAP	45	144	7
NMSTR	45	192	0
NMSV_	45	192	0	96	48	3
NMSTR	45	192	6
NMSV_	45	192	6	96	48	3
NMTAP	46	0	4
NMTAP	46	0	5
NMTAP	46	96	6
NMTAP	46	96	7
NMTAP	46	192	1
NMTAP	46	192	2
NMSTR	46	240	1
NMSUR	46	240	1	96	96	6
NMSTR	46	240	2
NMSCR	46	240	2	96	96	5
NMTAP	47	144	7
NMTAP	47	168	0
NMSTR	47	192	7
NMSI_	47	192	7	96	48	3
NMTAP	48	0	1
NMTAP	48	64	1
NMTAP	48	96	3
NMTAP	48	160	3
NMTAP	48	192	2
NMTAP	48	256	2
NMTAP	48	288	4
NMTAP	48	352	4
NMTAP	49	0	0
NMTAP	49	64	0
NMTAP	49	96	1
NMTAP	49	160	1
NMTAP	49	192	2
NMTAP	49	256	2
NMTAP	49	288	3
NMTAP	49	288	4
NMTAP	50	0	6
NMTAP	50	64	6
NMTAP	50	96	4
NMTAP	50	160	4
NMTAP	50	192	5
NMTAP	50	256	5
NMTAP	50	288	3
NMTAP	50	352	3
NMTAP	51	0	7
NMTAP	51	64	7
NMTAP	51	96	6
NMTAP	51	160	6
NMTAP	51	192	5
NMTAP	51	256	5
NMTAP	51	288	3
NMTAP	51	288	4
NMTAP	52	0	1
NMTAP	52	64	1
NMTAP	52	96	3
NMTAP	52	160	3
NMTAP	52	192	5
NMTAP	52	256	5
NMTAP	52	288	7
NMTAP	52	352	7
NMTAP	53	0	0
NMTAP	53	64	0
NMTAP	53	96	6
NMTAP	53	160	6
NMTAP	53	192	4
NMTAP	53	256	4
NMTAP	53	288	3
NMTAP	53	288	5
NMTAP	54	0	6
NMTAP	54	64	6
NMTAP	54	96	4
NMTAP	54	160	4
NMTAP	54	192	2
NMTAP	54	256	2
NMTAP	54	288	0
NMTAP	54	352	0
NMSTR	55	0	7
NMSI_	55	0	7	96	96	2
BRHLD	55	96	2	1344
CNSCL	55	192	2	0	96	1
CNSI_	55	288	1	0	96	5
CNSCR	56	0	5	0	96	6
CNSI_	56	96	6	0	288	3
NMTTP	59	0	7	E	0	M1
NMTTP	59	32	6	B	0	M1
NMTTP	59	64	5	B	0	M1
NMTTP	59	96	5	E	0	M1
NMTAP	59	192	2
NMTAP	59	288	2
NMTTP	60	0	6	E	0	M1
NMTTP	60	32	5	B	0	M1
NMTTP	60	64	4	B	0	M1
NMTTP	60	96	4	E	0	M1
NMTAP	60	192	2
NMTAP	60	288	3
NMTTP	61	0	1	E	0	M1
NMTTP	61	32	1	B	0	M1
NMTTP	61	64	2	B	0	M1
NMTTP	61	96	3	E	0	M1
NMTAP	61	192	5
NMTAP	61	288	5
NMTTP	62	0	2	E	0	M1
NMTTP	62	32	2	B	0	M1
NMTTP	62	64	3	B	0	M1
NMTTP	62	96	4	E	0	M1
NMTAP	62	192	5
NMTAP	62	288	4
NMTTP	63	0	7	E	0	M1
NMTTP	63	32	6	B	0	M1
NMTTP	63	64	5	B	0	M1
NMTTP	63	96	5	E	0	M1
NMTAP	63	192	2
NMTAP	63	288	2
NMTTP	64	0	6	E	0	M1
NMTTP	64	32	5	B	0	M1
NMTTP	64	64	4	B	0	M1
NMTTP	64	96	4	E	0	M1
NMTAP	64	192	2
NMTAP	64	288	3
NMTTP	65	0	1	E	0	M1
NMTTP	65	32	1	B	0	M1
NMTTP	65	64	2	B	0	M1
NMTTP	65	96	3	E	0	M1
NMTAP	65	192	5
NMTAP	65	288	5
NMTTP	66	0	2	E	0	M1
NMTTP	66	32	2	B	0	M1
NMTTP	66	64	3	B	0	M1
NMTTP	66	96	4	E	0	M1
NMTAP	66	192	5
NMTAP	66	288	4
NMTAP	67	0	6
NMTAP	67	64	6
NMTAP	67	96	5
NMTAP	67	160	5
NMTAP	67	192	6
NMTAP	67	256	6
NMTAP	67	288	5
NMTAP	67	352	5
NMTAP	68	0	6
NMTAP	68	64	6
NMTAP	68	96	5
NMTAP	68	160	5
NMSTR	68	192	6
NMSCR	68	192	6	96	64	1
NMTAP	69	0	2
NMTAP	69	64	2
NMTAP	69	96	1
NMTAP	69	160	1
NMTAP	69	192	2
NMTAP	69	256	2
NMTAP	69	288	1
NMTAP	69	352	1
NMTAP	70	0	2
NMTAP	70	64	2
NMTAP	70	96	1
NMTAP	70	160	1
NMSTR	70	192	2
NMSCR	70	192	2	96	64	5
NMTAP	71	0	6
NMTAP	71	64	6
NMTAP	71	96	5
NMTAP	71	160	5
NMTAP	71	192	7
NMTAP	71	256	7
NMTAP	71	288	4
NMTAP	71	352	4
NMTAP	72	0	6
NMTAP	72	64	6
NMTAP	72	96	5
NMTAP	72	160	5
NMSTR	72	192	7
NMSCL	72	192	7	96	64	4
NMTAP	73	0	1
NMTAP	73	64	1
NMTAP	73	96	2
NMTAP	73	160	2
NMTAP	73	192	0
NMTAP	73	256	0
NMTAP	73	288	3
NMTAP	73	352	3
NMTAP	74	0	1
NMTAP	74	64	1
NMTAP	74	96	2
NMTAP	74	160	2
NMSTR	74	192	0
NMSCR	74	192	0	96	64	3
NMTAP	75	0	6
NMTAP	75	64	6
NMTAP	75	96	4
NMTAP	75	160	4
NMTAP	75	192	3
NMTAP	75	256	3
NMTAP	75	288	1
NMTAP	75	352	1
NMSTR	76	0	7
NMSI_	76	0	7	96	48	5
NMSTR	76	96	4
NMSI_	76	96	4	96	48	0
NMSTR	76	192	1
NMSI_	76	192	1	96	48	3
NMTAP	76	288	7
NMHLD	77	0	6	96
NMHLD	77	96	4	96
NMSTR	77	192	6
NMSCL	77	192	6	96	96	4
NMSTR	77	288	4
NMSCL	77	288	4	96	96	2
NMSTR	78	0	2
NMSCL	78	0	2	96	96	0
NMSTR	78	96	0
NMSCL	78	96	0	96	96	6
NMSTR	78	192	6
NMSCL	78	192	6	96	96	4
NMTAP	78	288	4
NMTAP	79	0	1
NMTAP	79	64	1
NMTAP	79	96	3
NMTAP	79	160	3
NMTAP	79	192	4
NMTAP	79	256	4
NMTAP	79	288	6
NMTAP	79	352	6
NMSTR	80	0	0
NMSI_	80	0	0	96	48	2
NMSTR	80	96	3
NMSI_	80	96	3	96	48	7
NMSTR	80	192	6
NMSI_	80	192	6	96	48	4
NMTAP	80	288	0
NMHLD	81	0	1	96
NMHLD	81	96	3	96
NMSTR	81	192	1
NMSCR	81	192	1	96	96	3
NMSTR	81	288	3
NMSCR	81	288	3	96	96	5
NMSTR	82	0	5
NMSCR	82	0	5	96	96	7
NMSTR	82	96	7
NMSCR	82	96	7	96	96	1
NMSTR	82	192	1
NMSCR	82	192	1	96	96	3
NMTAP	82	288	3
NMTTP	83	0	0	C	1	M1
BXSTR	83	288	7
BRSXR	83	288	7	96	288	4
EXSTR	83	289	0
NMSXL	83	289	0	96	287	3
NMSTR	85	0	2
NMSCR	85	0	2	96	96	5
NMTAP	85	0	5
NMSTR	85	192	6
NMSCR	85	192	6	96	96	1
NMTAP	86	0	2
NMSTR	86	96	3
NMSCL	86	96	3	96	96	0
NMSTR	86	96	4
NMSCR	86	96	4	96	96	7
NMTAP	87	0	0
NMTAP	87	48	0
NMSTR	87	96	6
NMSI_	87	96	6	96	48	4
NMTAP	87	144	6
NMSTR	87	192	4
NMSI_	87	192	4	96	48	0
NMTAP	87	288	2
NMTAP	88	0	7
NMTAP	88	48	7
NMSTR	88	96	1
NMSI_	88	96	1	96	48	3
NMTAP	88	144	1
NMSTR	88	192	3
NMSI_	88	192	3	96	48	7
NMTAP	88	288	5
NMSTR	89	0	1
NMSI_	89	0	1	96	48	7
NMSTR	89	96	5
NMSI_	89	96	5	96	48	3
NMSTR	89	192	2
NMSI_	89	192	2	96	48	6
NMSTR	89	288	4
NMSCR	89	288	4	96	144	3
NMTAP	90	0	3
BRTAP	90	192	1
BRTAP	90	192	5
NMTAP	91	0	6
NMTAP	91	64	6
NMTAP	91	96	4
NMTAP	91	160	4
NMTAP	91	192	5
NMTAP	91	256	5
NMTAP	91	288	3
NMTAP	91	352	3
NMTAP	92	0	7
NMTAP	92	64	7
NMTAP	92	96	6
NMTAP	92	160	6
NMTAP	92	192	5
NMTAP	92	256	5
NMTAP	92	288	3
NMTAP	92	288	4
NMTAP	93	0	1
NMTAP	93	64	1
NMTAP	93	96	3
NMTAP	93	160	3
NMTAP	93	192	2
NMTAP	93	256	2
NMTAP	93	288	4
NMTAP	93	352	4
NMTAP	94	0	0
NMTAP	94	64	0
NMTAP	94	96	1
NMTAP	94	160	1
NMTAP	94	192	2
NMTAP	94	256	2
NMTAP	94	288	3
NMTAP	94	288	4
NMTAP	95	0	6
NMTAP	95	64	6
NMTAP	95	96	4
NMTAP	95	160	4
NMTAP	95	192	2
NMTAP	95	256	2
NMTAP	95	288	0
NMTAP	95	352	0
NMTAP	96	0	7
NMTAP	96	64	7
NMTAP	96	96	1
NMTAP	96	160	1
NMTAP	96	192	3
NMTAP	96	256	3
NMTAP	96	288	2
NMTAP	96	288	4
NMTAP	97	0	1
NMTAP	97	64	1
NMTAP	97	96	3
NMTAP	97	160	3
NMTAP	97	192	5
NMTAP	97	256	5
NMTAP	97	288	7
NMTAP	97	352	7
NMSTR	98	0	0
NMSF_	98	0	0	96	48	4
BXTAP	98	96	0
EXHLD	98	192	2	48
EXHLD	98	192	6	48
NMTAP	98	288	3
NMTAP	98	312	5
NMTAP	98	336	3
NMTAP	98	360	5
NMTAP	99	0	2
NMTAP	99	48	1
NMSTR	99	96	0
NMSI_	99	96	0	96	48	4
NMTAP	99	144	7
NMSTR	99	192	6
NMSCL	99	192	6	96	48	3
NMTAP	99	288	1
NMTAP	99	336	1
NMTAP	100	0	0
NMSTR	100	0	2
NMSI_	100	0	2	96	48	6
NMSI_	100	0	2	96	48	7
EXTAP	100	96	2
NMSTR	100	192	4
NMSI_	100	192	4	96	48	0
NMSI_	100	192	4	96	48	1
EXTAP	100	288	4
NMTAP	101	0	7
NMTAP	101	48	6
NMTAP	101	96	4
NMTAP	101	96	5
NMTAP	101	144	3
NMSTR	101	192	2
NMSUL	101	192	2	96	72	5
NMSTR	101	288	4
NMSCL	101	288	4	96	144	6
NMTTP	102	0	0	C	1	M1
BRTAP	102	192	1
BRTAP	102	192	5
NMTAP	103	0	0
NMTAP	103	0	6
NMTAP	103	48	5
NMSTR	103	96	4
NMSI_	103	96	4	96	48	0
NMTAP	103	144	3
NMSTR	103	192	2
NMSCR	103	192	2	96	48	5
EXTAP	103	288	7
NMTAP	104	0	1
NMTAP	104	0	7
NMTAP	104	48	2
NMSTR	104	96	3
NMSI_	104	96	3	96	48	7
NMTAP	104	144	4
NMSTR	104	192	5
NMSCL	104	192	5	96	48	2
EXTAP	104	288	0
NMTAP	104	336	0
NMSTR	105	0	1
NMSI_	105	0	1	96	48	5
NMTAP	105	0	7
NMSTR	105	96	6
NMSI_	105	96	6	96	48	2
NMTAP	105	192	0
NMSTR	105	288	0
NMSCL	105	288	0	96	48	6
NMSCR	105	288	0	96	48	2
CNSV_	106	48	2	0	48	4
CNSV_	106	48	6	0	48	4
CNSCR	106	96	4	0	48	5
CNSCR	106	96	4	0	48	5
NMTTP	106	192	0	B	1	M1
NMTTP	106	192	0	E	0	M1
NMTTP	106	192	0	A	0	M1
NMTTP	106	192	1	E	0	M1
EXHLD	107	0	6	64
NMTAP	107	64	4
NMHLD	107	96	5	64
NMTAP	107	160	3
NMHLD	107	192	4	64
NMTAP	107	256	2
NMHLD	107	288	3	64
NMTAP	107	352	1
EXHLD	108	0	1	64
NMTAP	108	64	3
NMHLD	108	96	2	64
NMTAP	108	160	4
NMHLD	108	192	3	64
NMTAP	108	256	5
NMHLD	108	288	4	64
NMTAP	108	352	6
EXHLD	109	0	6	64
NMTAP	109	64	4
NMHLD	109	96	4	64
NMTAP	109	160	3
NMHLD	109	192	3	64
NMTAP	109	256	1
NMHLD	109	288	1	64
NMTAP	109	352	7
NMSTR	110	0	7
NMSI_	110	0	7	96	48	4
NMSTR	110	96	0
NMSI_	110	96	0	96	48	3
NMSTR	110	192	7
NMSI_	110	192	7	96	48	4
NMTAP	110	288	0
EXHLD	111	0	1	64
NMTAP	111	64	3
NMHLD	111	96	2	64
NMTAP	111	160	4
NMHLD	111	192	3	64
NMTAP	111	256	5
NMHLD	111	288	4	64
NMTAP	111	352	6
EXHLD	112	0	6	64
NMTAP	112	64	4
NMHLD	112	96	5	64
NMTAP	112	160	3
NMHLD	112	192	4	64
NMTAP	112	256	2
NMHLD	112	288	3	64
NMTAP	112	352	1
EXHLD	113	0	1	64
NMTAP	113	64	3
NMHLD	113	96	3	64
NMTAP	113	160	4
NMHLD	113	192	4	64
NMTAP	113	256	6
NMHLD	113	288	6	64
NMTAP	113	352	0
NMSTR	114	0	0
NMSI_	114	0	0	96	64	4
BRHLD	114	96	7	960
NMTTP	116	0	5	A	0	M1
NMTTP	116	96	4	A	0	M1
NMTTP	116	192	3	A	0	M1
NMTTP	116	288	2	A	0	M1
NMHLD	117	0	1	64
NMHLD	117	0	6	64
NMTAP	117	96	1
NMTAP	117	96	6
NMTAP	117	160	2
NMTAP	117	160	5
NMSTR	117	256	0
NMSI_	117	256	0	96	48	4
NMSTR	117	256	7
NMSI_	117	256	7	96	48	3
EXTAP	117	352	0
EXTAP	117	352	7

T_REC_TAP	447
T_REC_BRK	12
T_REC_XTP	15
T_REC_BXX	2
T_REC_HLD	32
T_REC_XHO	10
T_REC_BHO	2
T_REC_BXH	0
T_REC_STR	82
T_REC_BST	0
T_REC_XST	1
T_REC_XBS	1
T_REC_TTP	58
T_REC_THO	0
T_REC_SLD	86
T_REC_BSL	1
T_REC_ALL	749
T_NUM_TAP	603
T_NUM_BRK	18
T_NUM_HLD	42
T_NUM_SLD	86
T_NUM_ALL	749
T_JUDGE_TAP	618
T_JUDGE_HLD	145
T_JUDGE_SLD	87
T_JUDGE_ALL	850
TTM_EACHPAIRS	84
TTM_SCR_TAP	301500
TTM_SCR_BRK	46800
TTM_SCR_HLD	42000
TTM_SCR_SLD	129000
TTM_SCR_ALL	519300
TTM_SCR_S	502000
TTM_SCR_SS	517500
TTM_RAT_ACV	10034

