VERSION	0.00.00	1.05.00
FES_MODE	0
BPM_DEF	176.000	176.000	176.000	176.000
MET_DEF	4	4
RESOLUTION	384
CLK_DEF	384
COMPATIBLE_CODE	MA2

BPM	0	0	176.000
MET	0	0	4	4

EXHLD	1	0	4	480
EXHLD	1	360	3	768
EXHLD	3	0	4	360
NMTAP	4	288	3
NMTAP	4	288	4
EXTAP	5	0	2
NMTAP	5	96	2
NMSTR	5	96	3
NMSCR	5	96	3	96	96	5
NMTAP	6	0	4
NMTAP	6	192	3
NMTAP	7	0	2
NMTAP	7	96	2
NMSTR	7	96	3
NMSCR	7	96	3	96	96	5
NMTAP	8	0	4
NMHLD	8	192	3	96
NMHLD	8	192	5	96
BRTAP	9	0	3
BRTAP	9	0	5
NMTAP	9	96	2
NMTAP	9	192	0
NMTAP	9	192	1
NMTAP	9	288	0
NMTAP	9	288	1
NMTAP	10	0	2
NMTAP	10	0	7
NMTAP	10	96	6
NMTAP	10	192	4
NMTAP	10	192	5
NMTAP	10	288	4
NMTAP	10	288	5
NMTAP	11	0	6
NMTAP	11	0	7
NMTAP	11	96	1
NMTAP	11	192	0
NMTAP	11	192	1
NMTAP	11	288	0
NMTAP	11	288	1
NMHLD	12	0	6	96
NMTAP	12	96	7
NMHLD	12	192	1	96
NMTAP	12	288	0
BRTAP	13	0	2
BRTAP	13	0	7
NMTAP	13	96	6
NMTAP	13	192	6
NMTAP	13	192	7
NMTAP	13	288	6
NMTAP	13	288	7
NMTAP	14	0	0
NMTAP	14	0	5
NMTAP	14	96	1
NMTAP	14	192	2
NMTAP	14	192	3
NMTAP	14	288	2
NMTAP	14	288	3
NMHLD	15	0	0	96
NMHLD	15	0	5	96
NMHLD	15	192	2	96
NMHLD	15	192	7	96
NMTAP	16	0	4
NMTAP	16	0	5
BXTAP	16	96	4
BXSTR	16	96	5
NMSUL	16	96	5	96	384	2
NMHLD	18	0	1	144
NMHLD	18	144	3	144
NMHLD	18	288	2	240
NMTAP	19	144	3
NMTAP	19	192	3
NMTAP	19	288	3
NMTAP	19	288	4
NMHLD	20	0	5	144
NMHLD	20	144	4	144
NMHLD	20	288	6	288
NMTAP	21	192	4
NMTAP	21	288	3
NMTAP	21	288	5
NMTAP	22	0	2
NMTAP	22	0	4
NMTAP	22	96	1
NMHLD	22	144	1	96
NMTAP	22	240	7
EXSTR	22	288	7
NMSUL	22	288	7	96	144	2
EXTAP	23	144	0
EXTAP	23	240	1
EXTAP	23	240	7
EXTAP	23	288	1
EXTAP	23	288	7
NMHLD	24	0	6	96
NMTAP	24	96	4
NMTAP	24	144	4
NMTAP	24	240	1
NMTAP	24	240	3
NMTAP	24	288	1
NMTAP	24	288	3
BRTAP	25	0	0
NMTAP	25	96	0
NMTAP	25	192	1
NMTAP	25	192	7
NMTAP	25	288	1
NMTAP	25	288	7
BXTAP	26	0	2
NMTAP	26	96	1
NMTAP	26	144	1
NMTAP	26	192	3
NMTAP	26	288	4
NMTAP	26	288	5
NMHLD	27	0	6	96
NMSTR	27	96	7
NMSUR	27	96	7	96	96	3
BXTAP	28	0	5
NMTAP	28	96	6
NMTAP	28	144	6
NMTAP	28	192	4
NMTAP	28	288	2
NMTAP	28	288	3
NMHLD	29	0	1	96
NMSTR	29	96	0
NMSUL	29	96	0	96	96	4
NMSTR	30	0	2
NMSCL	30	0	2	96	96	7
NMSTR	30	192	6
NMSCL	30	192	6	96	96	3
NMSTR	31	0	1
NMSI_	31	0	1	96	96	5
NMTAP	31	192	6
NMTAP	31	288	6
NMHLD	32	0	0	96
NMHLD	32	0	5	96
NMHLD	32	144	1	96
NMHLD	32	144	6	96
BRTAP	32	288	2
BRTAP	32	288	7
NMTAP	33	96	4
NMTAP	33	96	5
NMTAP	33	192	6
NMTAP	33	192	7
NMTAP	33	288	0
NMTAP	33	288	1
NMTAP	34	0	2
NMTAP	34	0	7
NMTAP	34	48	2
NMTAP	34	48	7
NMHLD	34	96	2	192
NMTAP	34	96	7
NMTAP	34	288	3
NMTAP	35	0	0
NMTAP	35	0	5
NMTAP	35	48	0
NMTAP	35	48	5
NMTAP	35	96	0
NMHLD	35	96	5	192
NMTAP	35	288	4
NMTAP	36	0	4
NMTAP	36	0	6
NMTAP	36	48	4
NMTAP	36	48	6
NMTAP	36	96	4
NMHLD	36	96	6	192
NMTAP	36	288	7
NMTAP	37	0	0
NMTAP	37	0	1
NMTAP	37	48	0
NMTAP	37	48	1
NMTAP	37	96	0
NMSTR	37	96	1
NMSCR	37	96	1	96	96	4
NMTTP	38	0	5	E	0	M1
NMTTP	38	96	6	E	0	M1
NMTTP	38	192	7	E	0	M1
NMTTP	38	288	0	C	0	M1
NMTTP	39	0	3	E	0	M1
NMTTP	39	96	2	E	0	M1
NMTTP	39	192	0	B	1	M1
NMTTP	39	192	1	E	0	M1
NMTAP	40	0	7
BRTAP	40	96	0
BRTAP	40	96	6
NMTAP	40	192	2
NMTAP	40	240	2
NMTAP	40	288	3
NMTAP	41	0	4
NMTAP	41	0	5
NMSTR	41	96	6
NMSCL	41	96	6	96	96	3
NMSTR	41	96	7
NMSUL	41	96	7	96	96	2
NMTAP	42	0	0
NMTAP	42	96	1
NMTAP	42	96	7
NMTAP	42	192	6
NMTAP	42	240	6
NMTAP	42	288	4
NMSTR	43	0	3
NMSCL	43	0	3	96	96	7
NMSTR	43	0	4
NMSXL	43	0	4	96	96	6
EXTAP	43	288	4
EXTAP	43	288	5
NMHLD	44	0	6	96
NMHLD	44	96	4	96
NMHLD	44	192	3	96
NMTAP	44	288	1
NMHLD	45	0	1	96
NMHLD	45	96	3	96
NMHLD	45	192	4	96
NMTAP	45	288	6
NMTAP	46	0	4
NMTAP	46	0	5
NMTAP	46	96	4
NMTAP	46	96	5
NMTAP	46	192	6
NMTAP	46	192	7
NMTAP	46	288	0
NMTAP	46	288	1
NMTAP	47	0	2
NMTAP	47	0	3
NMTAP	47	96	2
NMTAP	47	96	3
BRTAP	47	192	0
BRTAP	47	192	5
NMHLD	48	0	1	96
NMTAP	48	96	3
NMHLD	48	192	5	96
NMTAP	48	288	4
NMHLD	49	0	2	96
NMTAP	49	96	3
NMTAP	49	192	0
NMTAP	49	192	7
NMTAP	49	288	0
NMTAP	49	288	7
NMHLD	50	0	6	96
NMTAP	50	96	4
NMHLD	50	192	1	96
NMTAP	50	288	0
NMHLD	51	0	6	96
NMTAP	51	96	7
NMTAP	51	192	4
NMTAP	51	192	5
NMTAP	51	288	4
NMTAP	51	288	5
NMSTR	52	0	3
NMSCL	52	0	3	96	96	1
NMSTR	52	0	6
NMSCL	52	0	6	96	96	4
NMTAP	52	288	1
NMTAP	52	288	4
NMSTR	53	0	1
NMSCR	53	0	1	96	96	3
NMSTR	53	0	4
NMSCR	53	0	4	96	96	6
NMTAP	53	288	3
NMTAP	53	288	6
NMHLD	54	0	5	96
NMHLD	54	96	7	96
NMHLD	54	192	0	96
NMTAP	54	288	2
NMSTR	55	0	2
NMSXR	55	0	2	96	672	7
NMHLD	55	0	3	4224
NMTTP	59	0	0	E	0	M1
NMTTP	59	192	1	B	0	M1
NMTTP	59	192	1	E	0	M1
NMTTP	60	0	4	E	0	M1
NMTTP	60	192	2	B	0	M1
NMTTP	60	192	3	E	0	M1
NMTTP	61	0	0	E	0	M1
NMTTP	61	192	1	B	0	M1
NMTTP	61	192	1	E	0	M1
EXTAP	62	0	4
EXTAP	62	192	4
NMTTP	63	0	3	E	0	M1
NMTTP	63	192	4	B	0	M1
NMTTP	63	192	4	E	0	M1
NMTTP	64	0	2	E	0	M1
NMTTP	64	192	0	E	0	M1
NMTTP	64	192	7	B	0	M1
NMTTP	65	0	3	E	0	M1
NMTTP	65	192	4	B	0	M1
NMTTP	65	192	4	E	0	M1
NMTHO	66	0	0	192	C	0	M1
NMTAP	67	0	0
NMTAP	67	96	1
NMHLD	67	192	2	96
NMHLD	67	192	3	96
NMTAP	68	0	2
NMTAP	68	96	3
NMHLD	68	192	4	96
NMHLD	68	192	5	96
NMSTR	69	0	5
NMSCR	69	0	5	96	192	0
NMTAP	69	288	1
NMSTR	70	0	1
NMSI_	70	0	1	96	192	5
NMTAP	70	288	7
NMTAP	71	0	7
NMTAP	71	96	6
NMHLD	71	192	4	96
NMHLD	71	192	5	96
NMTAP	72	0	5
NMTAP	72	96	4
NMHLD	72	192	2	96
NMHLD	72	192	3	96
NMSTR	73	0	2
BRSCL	73	0	2	96	288	5
NMTAP	73	0	3
NMTAP	74	0	4
NMTAP	74	96	4
NMTAP	74	192	3
NMHLD	74	192	5	960
NMTAP	75	0	4
NMTAP	75	192	4
NMTTP	76	0	5	E	0	M1
NMTTP	76	96	4	E	0	M1
NMTTP	76	192	3	E	0	M1
NMHLD	77	0	1	768
NMTAP	77	192	3
NMTTP	78	0	2	E	0	M1
NMTTP	78	96	1	E	0	M1
NMTTP	78	192	0	E	0	M1
NMHLD	79	0	7	384
NMTTP	79	192	4	B	0	M1
NMTTP	79	192	5	B	0	M1
NMHLD	80	0	0	768
NMTTP	80	192	2	B	0	M1
NMTTP	80	192	3	B	0	M1
NMSTR	81	0	4
BRSCL	81	0	4	96	480	5
BRHLD	83	0	1	192
BRTAP	83	0	6
NMTAP	83	192	0
NMSTR	83	288	0
NMSUL	83	288	0	96	192	7
NMTAP	83	288	1
NMHLD	85	0	6	192
NMTAP	85	192	7
NMSTR	85	288	6
BRSCL	85	288	6	96	192	1
NMSTR	85	288	7
BRSUL	85	288	7	96	192	0
NMTAP	87	0	0
NMTAP	87	0	1
NMTAP	87	96	0
NMTAP	87	96	1
NMTAP	87	192	2
NMTAP	87	192	3
NMTAP	87	288	2
NMTAP	87	288	3
NMTAP	88	0	4
NMTAP	88	0	5
NMTAP	88	96	4
NMTAP	88	96	5
NMTAP	88	192	6
NMTAP	88	192	7
NMTAP	88	288	6
NMTAP	88	288	7
NMSTR	89	0	0
NMSCR	89	0	0	96	96	3
NMTAP	89	0	5
NMSTR	89	192	4
NMSI_	89	192	4	96	96	0
NMSTR	90	0	2
NMSCR	90	0	2	96	96	5
NMTAP	90	192	6
NMTAP	90	288	6
NMTAP	90	288	7
NMHLD	91	0	0	96
BRTAP	91	0	5
NMTAP	91	96	3
NMTAP	91	192	2
NMHLD	91	192	7	96
NMTAP	91	288	4
NMHLD	92	0	1	96
NMTAP	92	0	5
NMTAP	92	96	3
NMTAP	92	192	2
NMHLD	92	192	6	96
NMTAP	92	288	4
NMHLD	93	0	1	96
NMTAP	93	0	3
NMTAP	93	96	0
NMTAP	93	192	4
NMHLD	93	192	6	96
NMTAP	93	288	7
NMTAP	94	0	6
NMTAP	94	0	7
NMTAP	94	96	6
NMTAP	94	96	7
NMTAP	94	192	0
NMTAP	94	192	5
NMTAP	94	288	1
NMTAP	94	288	4
NMSTR	95	0	2
NMSCR	95	0	2	96	96	5
NMSTR	95	192	6
NMSCR	95	192	6	96	96	1
NMSTR	96	0	2
NMSCR	96	0	2	96	96	5
NMTAP	96	192	6
NMTAP	96	288	6
NMTAP	97	0	6
NMTAP	97	0	7
NMTAP	97	96	1
NMTAP	97	96	3
NMTAP	97	192	0
NMTAP	97	192	1
NMTAP	97	288	4
NMTAP	97	288	6
NMTAP	98	0	4
NMTAP	98	0	5
NMTTP	98	96	0	C	1	M1
NMTTP	98	96	3	B	0	M1
NMTTP	98	96	4	B	0	M1
NMTTP	98	96	5	B	0	M1
NMTAP	98	288	0
NMTAP	98	288	7
BRTAP	99	0	6
NMTAP	99	48	6
NMTAP	99	96	7
NMTAP	99	192	4
NMTAP	99	192	6
NMTAP	99	288	3
NMTAP	99	288	4
NMTAP	100	0	1
NMTAP	100	0	3
NMSTR	100	96	1
NMSCR	100	96	1	96	96	4
NMSTR	100	96	3
NMSI_	100	96	3	96	96	7
NMTAP	101	0	6
NMTAP	101	48	6
NMTAP	101	96	4
NMTAP	101	192	1
NMTAP	101	192	3
NMSTR	101	288	1
NMSCL	101	288	1	96	96	6
NMSTR	101	288	3
NMSXL	101	288	3	96	96	5
BRTAP	102	192	0
BRTAP	102	192	4
NMTAP	103	0	1
NMTAP	103	48	1
NMTAP	103	96	0
NMTAP	103	96	1
NMTAP	103	192	2
NMTAP	103	192	3
NMTAP	103	288	4
NMTAP	103	288	5
NMTAP	104	0	6
NMTAP	104	48	6
NMTAP	104	96	6
NMTAP	104	96	7
NMTAP	104	192	0
NMTAP	104	192	5
NMTAP	104	288	2
NMTAP	104	288	3
NMHLD	105	0	1	96
NMHLD	105	96	3	96
NMHLD	105	192	5	96
NMSTR	105	288	7
BRSF_	105	288	7	96	96	3
BXTAP	106	192	1
BXTAP	106	192	5
NMTAP	107	0	1
NMTAP	107	64	1
NMTAP	107	96	3
NMTAP	107	192	2
NMTAP	107	192	4
NMTAP	107	288	3
NMTAP	107	288	5
NMTAP	108	0	6
NMTAP	108	64	6
NMTAP	108	96	4
NMTAP	108	192	3
NMTAP	108	192	5
NMTAP	108	288	2
NMTAP	108	288	4
NMTAP	109	0	1
NMTAP	109	64	1
NMTAP	109	96	0
NMTAP	109	192	0
NMTAP	109	192	7
NMTAP	109	288	0
NMTAP	109	288	7
NMTAP	110	0	6
NMTAP	110	64	6
NMTAP	110	96	7
NMTAP	110	192	0
NMTAP	110	192	7
NMTAP	110	288	0
NMTAP	110	288	7
NMSTR	111	0	2
NMSCL	111	0	2	96	96	7
NMSTR	111	96	3
NMSCR	111	96	3	96	96	6
NMSTR	112	0	1
NMSCR	112	0	1	96	96	4
NMSTR	112	96	0
NMSCL	112	96	0	96	96	5
EXTAP	113	0	4
EXTAP	113	0	5
NMTAP	113	96	6
NMTAP	113	96	7
NMTAP	113	192	0
NMTAP	113	192	1
NMTAP	113	288	2
NMTAP	113	288	3
NMTAP	114	0	2
NMTAP	114	0	3
BRHLD	114	96	0	1056
BRSTR	114	96	5
NMSUL	114	96	5	96	384	0
CNSCL	115	192	0	0	96	7
CNSUL	115	288	7	0	96	2
NMHLD	117	0	3	352
EXSTR	117	256	1
NMSI_	117	256	1	96	96	6

T_REC_TAP	289
T_REC_BRK	16
T_REC_XTP	12
T_REC_BXX	5
T_REC_HLD	64
T_REC_XHO	3
T_REC_BHO	2
T_REC_BXH	0
T_REC_STR	39
T_REC_BST	1
T_REC_XST	2
T_REC_XBS	1
T_REC_TTP	40
T_REC_THO	1
T_REC_SLD	38
T_REC_BSL	5
T_REC_ALL	518
T_NUM_TAP	382
T_NUM_BRK	30
T_NUM_HLD	68
T_NUM_SLD	38
T_NUM_ALL	518
T_JUDGE_TAP	405
T_JUDGE_HLD	355
T_JUDGE_SLD	43
T_JUDGE_ALL	803
TTM_EACHPAIRS	137
TTM_SCR_TAP	191000
TTM_SCR_BRK	78000
TTM_SCR_HLD	68000
TTM_SCR_SLD	57000
TTM_SCR_ALL	394000
TTM_SCR_S	379300
TTM_SCR_SS	391000
TTM_RAT_ACV	10076

