VERSION	0.00.00	1.05.00
FES_MODE	0
BPM_DEF	176.000	176.000	176.000	176.000
MET_DEF	4	4
RESOLUTION	384
CLK_DEF	384
COMPATIBLE_CODE	MA2

BPM	0	0	176.000
MET	0	0	4	4

NMTAP	5	0	4
NMTAP	5	192	4
NMTAP	6	0	3
NMTAP	6	192	3
NMTAP	7	0	4
NMTAP	7	192	4
NMTAP	8	0	3
NMTAP	8	0	4
EXTAP	9	0	2
NMTAP	9	96	2
NMTAP	9	192	2
NMTAP	10	0	1
NMTAP	10	96	1
NMTAP	10	192	1
NMTAP	11	0	0
NMTAP	11	96	0
NMTAP	11	192	0
NMTAP	12	0	6
NMTAP	12	0	7
NMTAP	13	0	5
NMTAP	13	96	5
NMTAP	13	192	5
NMTAP	14	0	6
NMTAP	14	96	6
NMTAP	14	192	6
NMTAP	15	0	7
NMTAP	15	96	7
NMTAP	15	192	7
NMSTR	16	0	0
NMSCR	16	0	0	96	480	3
NMSTR	16	0	7
NMSCL	16	0	7	96	480	4
EXHLD	18	0	5	192
EXTAP	18	192	4
NMTAP	19	0	5
NMTAP	19	96	5
NMTAP	19	192	4
NMTAP	19	192	5
EXHLD	20	0	6	192
EXTAP	20	192	7
NMTAP	21	0	6
NMTAP	21	96	6
NMTAP	21	192	6
NMTAP	21	192	7
EXHLD	22	0	1	192
EXTAP	22	192	0
NMTAP	23	0	1
NMTAP	23	96	1
NMTAP	23	192	0
NMTAP	23	192	1
EXHLD	24	0	2	192
EXTAP	24	192	3
NMTAP	25	0	2
NMTAP	25	96	2
NMTAP	25	192	2
NMTAP	25	192	3
EXTAP	26	0	3
EXTAP	26	96	3
EXTAP	26	192	2
NMTAP	27	0	1
NMTAP	27	96	1
NMTAP	27	192	0
NMTAP	28	0	7
NMTAP	28	96	7
NMTAP	28	192	6
NMTAP	29	0	5
NMTAP	29	96	5
NMTAP	29	192	4
NMTAP	29	192	5
EXTAP	30	0	4
EXTAP	30	96	4
EXTAP	30	192	5
NMTAP	31	0	6
NMTAP	31	96	6
NMTAP	31	192	7
NMTAP	32	0	0
NMTAP	32	96	0
NMTAP	32	192	1
NMTAP	33	0	2
NMTAP	33	96	2
NMTAP	33	192	2
NMTAP	33	192	3
NMSTR	34	0	2
NMSI_	34	0	2	96	192	5
NMSTR	35	0	6
NMSI_	35	0	6	96	192	3
NMSTR	36	0	1
NMSI_	36	0	1	96	192	5
NMSTR	37	0	7
NMSI_	37	0	7	96	192	3
NMSTR	38	0	1
NMSI_	38	0	1	96	192	4
NMTAP	39	0	5
NMTAP	39	192	3
NMTAP	39	192	4
NMTAP	40	0	2
NMTAP	40	96	2
NMTAP	40	192	1
NMTAP	40	288	1
NMTAP	41	0	0
NMTAP	41	96	0
NMTAP	41	192	6
NMTAP	41	192	7
NMTAP	42	0	5
NMTAP	42	96	5
NMTAP	42	192	6
NMTAP	42	288	6
NMTAP	43	0	7
NMTAP	43	96	7
BXTAP	43	192	0
BXTAP	43	192	1
NMTAP	44	0	1
NMTAP	44	96	1
NMTAP	44	192	2
NMTAP	44	288	2
NMTAP	45	0	3
NMTAP	45	96	3
NMTAP	45	192	4
NMTAP	45	192	5
NMTAP	46	0	6
NMTAP	46	96	6
NMTAP	46	192	5
NMTAP	46	288	5
NMTAP	47	0	4
NMTAP	47	96	4
NMTAP	47	192	2
NMTAP	47	192	3
NMTAP	48	0	1
NMTAP	48	96	1
NMTAP	48	192	1
NMTAP	48	288	0
NMTAP	48	288	1
NMTAP	49	0	2
NMTAP	49	96	2
NMTAP	49	192	2
NMTAP	49	288	2
NMTAP	49	288	3
NMTAP	50	0	4
NMTAP	50	96	4
NMTAP	50	192	4
NMTAP	50	288	4
NMTAP	50	288	5
NMTAP	51	0	6
NMTAP	51	0	7
NMTAP	51	96	6
NMTAP	51	96	7
NMTAP	51	192	6
NMTAP	51	192	7
NMTAP	52	0	6
NMTAP	52	96	6
NMTAP	52	192	6
NMTAP	52	288	6
NMTAP	52	288	7
NMTAP	53	0	5
NMTAP	53	96	5
NMTAP	53	192	5
NMTAP	53	288	4
NMTAP	53	288	5
NMTAP	54	0	3
NMTAP	54	96	3
NMTAP	54	192	3
NMTAP	54	288	2
NMTAP	54	288	3
NMSTR	55	0	0
NMSXR	55	0	0	96	672	5
NMSTR	55	0	1
NMSXL	55	0	1	96	672	4
NMHLD	59	0	5	192
NMHLD	59	192	4	192
NMHLD	60	0	3	192
NMTAP	60	192	2
NMHLD	61	0	2	192
NMHLD	61	192	3	192
NMHLD	62	0	4	192
NMTAP	62	192	5
NMHLD	63	0	6	192
NMHLD	63	192	5	192
NMHLD	64	0	4	192
NMTAP	64	192	3
NMHLD	65	0	1	192
NMHLD	65	192	2	192
NMHLD	66	0	3	192
NMTAP	66	192	4
NMTTP	67	0	6	B	0	L1
NMTTP	67	96	5	B	0	L1
NMTTP	67	192	4	B	0	L1
NMTTP	68	0	1	B	0	L1
NMTTP	68	96	2	B	0	L1
NMTTP	68	192	3	B	0	L1
NMTTP	69	0	6	B	0	L1
NMTTP	69	96	5	B	0	L1
NMTTP	69	192	4	B	0	L1
NMTTP	69	288	3	B	0	L1
NMTTP	70	0	2	B	0	L1
NMTTP	70	96	1	B	0	L1
NMTTP	70	192	0	C	0	L1
NMTTP	71	0	0	B	0	L1
NMTTP	71	96	1	B	0	L1
NMTTP	71	192	2	B	0	L1
NMTTP	71	192	3	B	0	L1
NMTTP	72	0	7	B	0	L1
NMTTP	72	96	6	B	0	L1
NMTTP	72	192	4	B	0	L1
NMTTP	72	192	5	B	0	L1
NMTTP	73	0	1	B	0	L1
NMTTP	73	96	2	B	0	L1
NMTTP	73	192	3	B	0	L1
NMTTP	73	288	4	B	0	L1
NMTTP	74	0	5	B	0	L1
NMTTP	74	96	6	B	0	L1
NMTTP	74	192	0	C	1	L1
EXHLD	76	0	0	192
EXHLD	76	0	7	192
NMTAP	77	0	6
NMTAP	77	96	6
NMTAP	77	192	6
NMTAP	77	192	7
NMTAP	78	0	5
NMTAP	78	96	5
NMTAP	78	192	4
NMTAP	78	192	5
NMTAP	79	0	3
NMTAP	79	96	3
NMTAP	79	192	2
NMTAP	79	192	3
NMTAP	80	0	0
NMTAP	80	0	1
NMTAP	80	96	0
NMTAP	80	96	1
NMTAP	80	192	0
NMTAP	80	192	1
NMTAP	81	0	6
NMTAP	81	0	7
NMTAP	81	96	6
NMTAP	81	96	7
NMTAP	81	192	6
NMTAP	81	192	7
NMTAP	82	0	0
NMTAP	82	0	1
NMTAP	82	96	0
NMTAP	82	96	1
NMTAP	82	192	0
NMTAP	82	192	1
NMSTR	83	0	0
NMSI_	83	0	0	96	288	5
NMSTR	83	0	1
NMSI_	83	0	1	96	288	4
NMTAP	84	192	6
NMTAP	84	192	7
NMSTR	85	0	6
NMSI_	85	0	6	96	288	3
NMSTR	85	0	7
NMSI_	85	0	7	96	288	2
NMTAP	86	192	0
NMTAP	86	192	1
BXTAP	87	0	1
NMTAP	87	96	1
NMTAP	87	192	2
NMTAP	87	192	3
NMTAP	87	288	2
NMTAP	87	288	3
NMTAP	88	0	4
NMTAP	88	96	4
NMTAP	88	192	4
NMTAP	88	192	5
NMTAP	89	0	6
NMTAP	89	96	6
NMTAP	89	192	4
NMTAP	89	192	5
NMTAP	89	288	4
NMTAP	89	288	5
NMTAP	90	0	3
NMTAP	90	96	3
NMTAP	90	192	2
NMTAP	90	192	3
NMTAP	91	0	1
NMTAP	91	96	1
NMTAP	91	192	0
NMTAP	91	192	1
NMTAP	91	288	0
NMTAP	91	288	1
NMTAP	92	0	2
NMTAP	92	96	2
NMTAP	92	192	2
NMTAP	92	192	3
NMTAP	92	288	2
NMTAP	92	288	3
NMTAP	93	0	4
NMTAP	93	96	4
NMTAP	93	192	4
NMTAP	93	192	5
NMTAP	93	288	4
NMTAP	93	288	5
NMTAP	94	0	6
NMTAP	94	96	6
NMTAP	94	192	6
NMTAP	94	192	7
NMTAP	95	0	6
NMTAP	95	96	6
NMTAP	95	192	6
NMTAP	95	192	7
NMTAP	95	288	6
NMTAP	95	288	7
NMTAP	96	0	5
NMTAP	96	96	5
NMTAP	96	192	4
NMTAP	96	192	5
NMTAP	96	288	4
NMTAP	96	288	5
NMTAP	97	0	3
NMTAP	97	96	3
NMTAP	97	192	2
NMTAP	97	192	3
NMTAP	97	288	2
NMTAP	97	288	3
NMTAP	98	0	1
NMTAP	98	96	1
NMTAP	98	192	0
NMTAP	98	192	1
NMTAP	99	0	0
NMTAP	99	96	1
NMTAP	99	192	2
NMTAP	99	288	3
NMTAP	100	0	4
NMTAP	100	96	5
NMTAP	100	192	6
NMTAP	100	192	7
NMTAP	101	0	7
NMTAP	101	96	6
NMTAP	101	192	5
NMTAP	101	288	4
NMTAP	102	0	3
NMTAP	102	96	2
BRTAP	102	192	0
BRTAP	102	192	1
NMTAP	103	0	0
NMTAP	103	96	1
NMTAP	103	192	2
NMTAP	103	288	3
NMTAP	104	0	4
NMTAP	104	96	5
NMTAP	104	192	6
NMTAP	104	288	7
NMTAP	105	0	0
NMTAP	105	96	1
NMTAP	105	192	2
NMTAP	105	288	3
NMTAP	106	0	3
NMTAP	106	0	4
NMTAP	106	96	3
NMTAP	106	96	4
NMTAP	106	192	2
NMTAP	106	192	5
NMTAP	107	0	2
NMTAP	107	0	3
NMTAP	107	96	2
NMTAP	107	96	3
NMTAP	107	192	1
NMTAP	107	288	1
NMTAP	108	0	0
NMTAP	108	0	7
NMTAP	108	96	0
NMTAP	108	96	7
NMTAP	108	192	6
NMTAP	108	288	6
NMTAP	109	0	4
NMTAP	109	0	5
NMTAP	109	96	4
NMTAP	109	96	5
NMTAP	109	192	6
NMTAP	109	288	6
NMTAP	110	0	0
NMTAP	110	0	7
NMTAP	110	96	0
NMTAP	110	96	7
NMTAP	110	192	1
NMTAP	110	192	6
NMTAP	111	0	6
NMTAP	111	0	7
NMTAP	111	96	6
NMTAP	111	96	7
NMTAP	111	192	5
NMTAP	111	288	5
NMTAP	112	0	3
NMTAP	112	0	4
NMTAP	112	96	3
NMTAP	112	96	4
NMTAP	112	192	2
NMTAP	112	288	2
NMTAP	113	0	0
NMTAP	113	0	1
NMTAP	113	96	0
NMTAP	113	96	1
NMTAP	113	192	2
NMTAP	113	288	2
NMSTR	114	0	3
NMSXR	114	0	3	96	672	0
NMSTR	114	0	4
NMSXL	114	0	4	96	672	7
EXHLD	117	0	0	336
EXHLD	117	0	7	336

T_REC_TAP	307
T_REC_BRK	2
T_REC_XTP	11
T_REC_BXX	3
T_REC_HLD	12
T_REC_XHO	8
T_REC_BHO	0
T_REC_BXH	0
T_REC_STR	15
T_REC_BST	0
T_REC_XST	0
T_REC_XBS	0
T_REC_TTP	28
T_REC_THO	0
T_REC_SLD	15
T_REC_BSL	0
T_REC_ALL	401
T_NUM_TAP	361
T_NUM_BRK	5
T_NUM_HLD	20
T_NUM_SLD	15
T_NUM_ALL	401
T_JUDGE_TAP	366
T_JUDGE_HLD	86
T_JUDGE_SLD	15
T_JUDGE_ALL	467
TTM_EACHPAIRS	83
TTM_SCR_TAP	180500
TTM_SCR_BRK	13000
TTM_SCR_HLD	20000
TTM_SCR_SLD	22500
TTM_SCR_ALL	236000
TTM_SCR_S	228450
TTM_SCR_SS	235500
TTM_RAT_ACV	10021

