VERSION	0.00.00	1.05.00
FES_MODE	0
BPM_DEF	168.000	168.000	168.000	168.000
MET_DEF	4	4
RESOLUTION	384
CLK_DEF	384
COMPATIBLE_CODE	MA2

BPM	0	0	168.000
MET	0	0	4	4

NMTTP	2	192	1	E	0	M1
NMTTP	2	240	0	C	0	M1
NMTTP	2	288	5	E	0	M1
NMSTR	3	0	0
NMSUL	3	0	0	96	192	7
EXTAP	4	0	0
EXTAP	4	0	6
EXTAP	4	72	1
EXTAP	4	72	7
EXTAP	4	144	2
EXTAP	4	144	5
NMTAP	4	240	3
NMTAP	4	240	4
BRTAP	4	288	1
BRTAP	4	288	6
NMTAP	5	0	0
NMTAP	5	0	1
NMTAP	5	48	0
NMTAP	5	48	1
NMTAP	5	96	2
NMTAP	5	96	7
NMTAP	5	144	1
NMTAP	5	168	0
NMTAP	5	216	0
NMSTR	5	240	2
NMSXR	5	240	2	96	144	4
NMTAP	5	288	3
BRTAP	5	336	3
NMSTR	6	96	7
NMSCL	6	96	7	96	48	4
NMTAP	6	192	3
NMTAP	6	192	7
EXTAP	6	288	2
EXTAP	6	288	3
NMTAP	7	0	0
NMTAP	7	0	1
NMTAP	7	48	0
NMTAP	7	48	7
NMTAP	7	96	6
NMTAP	7	96	7
NMTAP	7	144	6
NMTAP	7	168	7
NMTAP	7	216	7
NMSTR	7	240	5
NMSXL	7	240	5	96	144	3
NMTAP	7	288	4
BRTAP	7	336	4
NMSTR	8	96	0
NMSCR	8	96	0	96	48	3
NMTAP	8	192	0
NMTAP	8	192	4
EXTAP	8	288	4
EXTAP	8	288	5
NMTAP	9	0	2
NMTAP	9	0	3
NMTAP	9	48	1
NMTAP	9	96	0
NMTAP	9	96	4
NMTAP	9	144	5
NMTAP	9	168	7
NMTAP	9	216	7
NMSTR	9	240	6
NMSXR	9	240	6	96	144	3
NMTAP	9	288	4
BRTAP	9	336	4
NMSTR	10	96	2
NMSCL	10	96	2	96	48	7
NMTAP	10	192	4
NMTAP	10	288	0
NMSTR	10	288	5
NMSI_	10	288	5	96	48	0
NMSTR	11	0	1
NMSI_	11	0	1	96	48	5
NMTAP	11	48	1
NMSTR	11	96	4
NMSI_	11	96	4	96	48	7
NMTAP	11	144	4
NMTAP	11	192	0
NMTAP	11	240	0
NMTAP	11	288	2
NMTAP	11	288	6
EXTAP	12	0	0
EXTAP	12	24	1
EXTAP	12	48	2
EXTAP	12	72	3
EXTAP	12	96	6
EXTAP	12	120	5
EXTAP	12	144	4
EXTAP	12	168	3
EXTAP	12	192	1
EXTAP	12	216	2
EXTAP	12	240	3
EXTAP	12	264	4
NMTTP	12	288	0	C	0	M1
NMHLD	13	0	2	144
NMTAP	13	144	3
NMTAP	13	192	3
NMTTP	13	288	2	E	0	M1
NMTTP	13	288	3	E	0	M1
NMHLD	14	0	4	144
NMTAP	14	144	3
NMTAP	14	192	5
NMTTP	14	288	4	E	0	M1
NMTTP	14	288	5	E	0	M1
NMHLD	15	0	6	144
NMTAP	15	144	4
EXTAP	15	192	4
NMTAP	15	288	3
NMTAP	15	288	5
NMTTP	16	0	3	B	0	M1
NMTTP	16	0	4	B	0	M1
NMTTP	16	0	4	E	0	M1
NMTAP	16	144	2
NMTAP	16	192	2
NMSTR	16	288	3
NMSCL	16	288	3	96	96	0
NMTAP	16	288	7
NMSTR	17	0	0
NMSCL	17	0	0	96	96	5
NMSTR	17	96	5
NMSCL	17	96	5	96	96	2
NMSTR	17	192	2
NMSCL	17	192	2	96	96	7
NMSTR	17	288	7
NMSXL	17	288	7	96	192	3
BRTAP	18	0	5
NMTAP	18	96	4
NMTAP	18	144	4
NMTAP	18	192	5
NMHLD	18	240	6	144
NMTAP	18	336	4
NMSTR	19	0	4
NMSI_	19	0	4	96	48	1
NMSTR	19	96	4
NMSCR	19	96	4	96	120	3
NMTAP	19	192	0
NMTAP	19	192	4
NMHLD	20	0	2	48
NMHLD	20	48	0	48
NMHLD	20	96	7	48
NMHLD	20	144	5	96
NMTAP	20	240	0
BRTAP	20	288	0
EXTAP	21	0	1
EXTAP	21	0	7
NMTAP	21	48	3
NMTAP	21	48	4
BRTAP	21	96	1
BRTAP	21	96	7
NMTAP	21	192	3
NMTAP	21	192	4
NMSTR	21	288	3
NMSI_	21	288	3	96	48	6
NMSTR	21	288	4
NMSI_	21	288	4	96	48	6
NMSTR	22	0	3
NMSI_	22	0	3	96	48	1
NMSTR	22	0	4
NMSI_	22	0	4	96	48	1
NMSTR	22	96	3
NMSI_	22	96	3	96	48	6
NMSTR	22	96	4
NMSI_	22	96	4	96	48	6
NMSTR	22	192	3
NMSI_	22	192	3	96	48	1
NMSTR	22	192	4
NMSI_	22	192	4	96	48	1
NMTAP	22	288	3
NMTAP	22	288	4
EXTAP	23	0	0
EXTAP	23	0	6
NMTAP	23	48	3
NMTAP	23	48	4
BRTAP	23	96	0
BRTAP	23	96	6
NMTAP	23	192	3
NMTAP	23	192	4
NMSTR	23	288	3
NMSI_	23	288	3	96	48	6
NMSTR	23	288	4
NMSI_	23	288	4	96	48	6
NMSTR	24	0	3
NMSI_	24	0	3	96	48	1
NMSTR	24	0	4
NMSI_	24	0	4	96	48	1
NMSTR	24	96	3
NMSI_	24	96	3	96	48	6
NMSTR	24	96	4
NMSI_	24	96	4	96	48	6
NMSTR	24	192	3
NMSI_	24	192	3	96	48	1
NMSTR	24	192	4
NMSI_	24	192	4	96	48	1
NMTAP	24	288	3
NMTAP	24	288	4
NMTAP	25	0	0
NMTAP	25	0	6
NMTAP	25	48	1
BRSTR	25	96	3
NMSI_	25	96	3	96	48	7
BRTAP	25	96	5
NMSTR	25	192	4
NMSI_	25	192	4	96	48	0
NMSTR	25	288	2
NMSI_	25	288	2	96	48	7
NMSTR	26	0	3
NMSCR	26	0	3	96	48	6
NMSTR	26	96	7
NMSV_	26	96	7	96	48	2
NMSV_	26	96	7	96	48	4
NMTAP	26	288	1
NMTAP	26	288	5
NMTAP	27	0	3
NMTAP	27	0	4
NMTAP	27	48	2
NMTAP	27	96	0
NMTAP	27	96	1
NMTAP	27	144	7
NMTAP	27	192	0
NMTAP	27	192	6
NMTAP	27	240	5
NMTAP	27	288	3
NMTAP	27	288	4
NMTAP	27	336	1
NMTAP	27	336	6
NMSTR	28	48	2
NMSI_	28	48	2	96	48	6
NMSTR	28	96	5
NMSI_	28	96	5	96	48	1
NMTAP	28	144	2
NMTAP	28	192	5
NMTAP	28	288	3
NMTAP	28	288	4
NMTAP	29	0	2
NMTAP	29	48	2
NMSTR	29	96	3
NMSUR	29	96	3	96	96	0
NMTAP	29	144	3
NMTAP	29	192	1
NMTAP	29	240	1
NMTAP	29	288	2
NMSTR	30	0	1
BRSCL	30	0	1	96	96	6
NMSTR	30	96	5
NMSCL	30	96	5	96	96	2
NMTAP	30	288	0
NMTAP	31	0	1
NMTAP	31	48	1
NMSTR	31	96	3
NMSCR	31	96	3	96	96	7
NMTAP	31	144	3
NMTAP	31	192	2
NMTAP	31	240	2
NMTAP	31	288	3
NMTAP	32	0	4
NMTAP	32	0	6
NMSTR	32	96	4
NMSF_	32	96	4	96	48	0
NMHLD	33	0	2	48
NMHLD	33	0	3	48
NMHLD	33	96	2	48
NMHLD	33	96	3	48
NMHLD	33	192	4	48
NMHLD	33	192	5	48
NMHLD	33	288	4	48
NMHLD	33	288	5	48
NMHLD	34	0	0	48
NMHLD	34	0	2	48
NMHLD	34	96	0	48
NMHLD	34	96	2	48
NMHLD	34	192	5	48
NMHLD	34	192	7	48
NMHLD	34	288	5	48
NMHLD	34	288	7	48
NMTAP	35	0	6
NMTAP	35	48	5
NMTAP	35	96	4
NMTAP	35	144	3
NMTAP	35	192	2
NMTAP	35	240	1
NMTAP	35	288	0
NMSTR	35	288	7
NMSUR	35	288	7	96	192	0
NMHLD	36	0	2	288
NMSTR	36	288	1
NMSV_	36	288	1	96	48	6
EXTAP	37	0	1
NMSTR	37	0	2
NMSCL	37	0	2	96	48	0
EXTAP	37	96	2
NMTAP	37	96	3
NMTTP	37	192	2	B	0	M1
NMTTP	37	192	3	E	1	M1
NMTTP	37	192	4	B	0	M1
NMTTP	37	192	4	E	0	M1
NMTAP	37	288	1
NMTAP	37	288	5
NMTAP	37	336	7
NMSTR	38	0	2
NMSI_	38	0	2	96	48	5
NMSTR	38	0	6
NMSI_	38	0	6	96	48	1
NMTAP	38	96	2
NMTAP	38	96	6
NMTAP	38	192	3
NMTAP	38	192	7
NMTAP	38	288	2
NMTAP	38	288	3
NMTAP	38	336	1
NMTAP	39	0	0
NMTAP	39	0	1
NMTAP	39	48	7
NMTAP	39	96	0
NMTAP	39	96	6
NMTAP	39	144	5
NMTAP	39	192	4
NMTAP	39	192	6
NMTAP	39	240	7
NMTAP	39	288	0
NMTAP	39	288	1
NMTAP	39	336	2
NMSTR	40	0	3
NMSI_	40	0	3	96	48	1
NMSTR	40	0	5
NMSI_	40	0	5	96	48	0
EXTAP	40	96	3
EXTAP	40	96	5
NMHLD	40	192	2	96
NMTAP	40	192	7
NMSTR	40	288	1
NMSV_	40	288	1	96	48	6
EXTAP	41	0	1
NMSTR	41	0	2
NMSCL	41	0	2	96	48	0
EXTAP	41	96	2
NMTAP	41	96	3
NMTTP	41	192	2	B	0	M1
NMTTP	41	192	3	E	1	M1
NMTTP	41	192	4	B	0	M1
NMTTP	41	192	4	E	0	M1
NMTAP	41	288	0
NMTAP	41	288	1
NMTAP	41	336	6
NMTAP	41	336	7
EXSTR	42	0	4
NMSXL	42	0	4	96	96	4
NMSXR	42	0	4	96	96	4
EXTAP	42	0	5
NMTAP	42	96	4
NMTAP	42	288	0
NMTAP	42	336	1
NMSTR	43	0	2
NMSCL	43	0	2	96	48	7
NMTAP	43	48	2
NMSTR	43	96	6
NMSCL	43	96	6	96	48	3
NMTAP	43	144	6
NMSTR	43	192	0
NMSI_	43	192	0	96	48	4
NMTAP	43	240	0
NMSTR	43	288	7
NMSUR	43	288	7	96	96	1
NMSTR	44	0	1
NMSCR	44	0	1	96	96	7
EXTAP	44	96	3
NMTTP	44	192	0	C	0	M1
BRTAP	44	288	2
BRTAP	44	288	6
NMTAP	45	0	1
NMTAP	45	0	5
NMTAP	45	48	6
NMTAP	45	96	3
NMHLD	45	96	7	48
NMTAP	45	144	1
NMHLD	45	192	0	48
NMTAP	45	192	4
NMTAP	45	240	6
NMTAP	45	288	3
NMTAP	45	288	7
NMTAP	45	336	1
NMTAP	46	0	0
NMSTR	46	0	6
NMSI_	46	0	6	96	48	1
NMTAP	46	48	7
NMSTR	46	96	2
BRSI_	46	96	2	96	48	6
BRSI_	46	96	2	96	48	7
BRTAP	46	192	2
NMTAP	46	288	0
NMTAP	46	288	5
NMHLD	47	0	2	48
NMTAP	47	0	4
NMTAP	47	48	0
NMTAP	47	96	3
NMHLD	47	96	5	48
NMTAP	47	144	7
NMHLD	47	192	2	48
NMTAP	47	192	4
NMTAP	47	240	0
NMTAP	47	288	3
NMTAP	47	288	5
NMTAP	47	336	3
NMTAP	47	336	5
EXTAP	48	48	2
EXSTR	48	48	7
NMSLL	48	48	7	96	72	3
NMTAP	48	144	1
NMSTR	48	192	1
BRSCR	48	192	1	96	96	6
CNSI_	48	216	3	0	72	1
BRTAP	48	288	0
NMTAP	49	96	0
NMTAP	49	96	1
NMTAP	49	144	2
NMTAP	49	192	3
NMTAP	49	192	5
NMTAP	49	240	4
NMTAP	49	288	5
NMTAP	49	288	7
NMTAP	49	336	6
BRTAP	50	0	0
BRTAP	50	0	7
BRTAP	50	72	4
BRTAP	50	72	6
BRTAP	50	144	1
BRTAP	50	144	3
NMTAP	50	240	1
NMTAP	50	288	2
NMSTR	50	288	4
NMSCL	50	288	4	96	96	0
NMTAP	50	336	3
NMTAP	50	336	5
BRTAP	51	0	6
NMSTR	51	96	3
NMSCR	51	96	3	96	96	7
BRTAP	51	192	1
NMTAP	51	288	4
NMTAP	52	0	4
NMTAP	52	0	6
NMTAP	52	48	5
NMTAP	52	96	0
NMTAP	52	96	6
NMTAP	52	144	7
NMTAP	52	192	0
NMTAP	52	192	2
NMTAP	52	240	1
NMSTR	52	288	2
NMSXR	52	288	2	96	192	4
NMSTR	52	288	5
NMSXL	52	288	5	96	192	3
NMTAP	52	336	3
NMTAP	52	336	4
NMTAP	53	288	2
NMTAP	53	288	5
NMTAP	54	0	6
NMTAP	54	0	7
NMTAP	54	72	0
NMTAP	54	72	1
BRTAP	54	144	2
BRTAP	54	144	6
NMTTP	54	240	5	E	1	M1
NMTTP	54	240	5	A	0	M1
NMTTP	54	240	5	D	0	M1
NMTTP	54	240	6	E	0	M1
NMTTP	54	240	6	D	0	M1
NMTTP	54	288	2	A	0	M1
NMTTP	54	288	3	E	1	M1
NMTTP	54	288	3	A	0	M1
NMTTP	54	288	3	D	0	M1
NMTAP	55	0	1
NMSTR	55	0	4
NMSXR	55	0	4	96	96	4
NMTAP	55	96	1
NMSTR	55	96	4
NMSXL	55	96	4	96	96	5
NMTAP	55	192	0
NMTAP	55	240	0
NMTAP	55	288	0
NMSTR	56	0	6
NMSI_	56	0	6	96	48	2
NMTAP	56	0	7
NMTAP	56	96	0
NMTAP	56	192	1
NMSTR	56	192	4
NMSI_	56	192	4	96	48	0
NMTAP	56	240	1
NMTAP	56	288	1
NMSTR	57	0	6
NMSXR	57	0	6	96	192	0
NMSTR	57	96	1
NMSXL	57	96	1	96	192	7
NMSTR	58	0	6
NMSCR	58	0	6	96	96	2
NMSTR	58	96	2
NMSV_	58	96	2	96	96	4
NMTAP	58	192	3
NMTAP	58	288	3
NMTAP	59	0	5
NMTAP	59	24	4
NMTAP	59	48	5
NMTAP	59	96	2
NMTAP	59	120	3
NMTAP	59	144	2
NMTTP	59	192	2	E	0	M1
NMTTP	59	204	3	E	0	M1
NMTTP	59	216	4	E	0	M1
NMTTP	59	228	5	E	0	M1
NMTTP	59	240	6	E	0	M1
NMTTP	59	252	7	E	0	M1
NMTTP	59	264	0	E	0	M1
NMTTP	59	276	1	E	0	M1
NMTTP	59	288	0	C	1	M1
NMTAP	60	0	0
NMTAP	60	0	1
NMTAP	60	48	6
NMTAP	60	48	7
NMSTR	60	96	4
NMSI_	60	96	4	96	48	0
NMSTR	60	96	5
NMSI_	60	96	5	96	48	7
NMTAP	60	192	4
NMTAP	60	192	5
NMTAP	60	288	1
NMTAP	60	288	6
NMTAP	61	0	7
NMTAP	61	48	0
NMHLD	61	96	1	192
NMSTR	61	96	3
NMSXL	61	96	3	96	96	3
NMSTR	61	192	3
NMSI_	61	192	3	96	48	0
NMTAP	62	0	7
NMTAP	62	48	6
NMSTR	62	96	4
NMSI_	62	96	4	96	48	0
NMHLD	62	96	5	96
NMTAP	62	192	4
BRTAP	62	288	1
BRTAP	62	288	5
NMTAP	63	0	6
NMTAP	63	24	4
NMTAP	63	48	6
NMTAP	63	72	4
NMTAP	63	96	7
NMTAP	63	120	4
NMTAP	63	144	7
NMTAP	63	192	3
NMTAP	63	192	7
NMTAP	63	240	2
NMTAP	63	288	1
NMTAP	63	288	4
NMTAP	63	336	5
NMTAP	64	0	6
NMTAP	64	0	7
NMTAP	64	48	0
NMTAP	64	96	1
NMTAP	64	96	7
NMTAP	64	144	2
NMTAP	64	168	0
NMTAP	64	216	5
NMTAP	64	240	7
NMTAP	64	288	0
NMTAP	64	288	4
NMTAP	65	0	2
NMTAP	65	24	3
NMTAP	65	48	2
NMTAP	65	96	5
NMTAP	65	120	4
NMTAP	65	144	5
NMTAP	65	192	1
NMTAP	65	216	0
NMTAP	65	240	1
NMTAP	65	288	6
NMTAP	65	312	7
NMTAP	65	336	6
NMTAP	66	0	0
NMTAP	66	0	2
NMTAP	66	48	1
NMTAP	66	96	5
NMTAP	66	96	7
NMTAP	66	144	6
NMHLD	66	192	0	48
NMHLD	66	192	1	48
NMHLD	66	288	6	48
NMHLD	66	288	7	48
NMTAP	67	0	0
NMTAP	67	0	5
EXTAP	67	96	3
EXTAP	67	120	2
EXTAP	67	144	1
EXTAP	67	168	0
EXTAP	67	192	6
EXTAP	67	216	5
EXTAP	67	240	4
EXTAP	67	264	3
EXTAP	67	288	0
EXTAP	67	312	1
EXTAP	67	336	2
EXTAP	67	360	3
EXTAP	68	0	4
EXTAP	68	0	5
NMTAP	68	48	6
NMTAP	68	96	2
NMTAP	68	96	3
NMTAP	68	144	1
NMTAP	68	192	6
NMTAP	68	216	7
NMHLD	68	240	5	96
NMTAP	68	336	4
NMHLD	69	0	6	48
NMHLD	69	48	3	48
NMHLD	69	96	7	48
NMHLD	69	144	2	48
NMHLD	69	192	0	48
NMHLD	69	240	1	240
NMTAP	69	336	3
EXTAP	70	48	3
EXTAP	70	60	4
EXTAP	70	72	5
EXTAP	70	84	6
EXTAP	70	96	7
NMTAP	70	192	0
NMTAP	70	192	2
NMTAP	70	240	0
NMTAP	70	240	2
NMTAP	70	288	3
NMTAP	70	288	7
NMTAP	70	336	4
NMHLD	70	336	6	144
EXTAP	71	48	4
EXTAP	71	60	3
EXTAP	71	72	2
EXTAP	71	84	1
EXSTR	71	96	0
NMSI_	71	96	0	96	48	5
NMSV_	71	96	0	96	48	3
EXTAP	71	192	0
BRTAP	71	288	2
BRTAP	71	288	6
NMSTR	72	0	5
NMSCL	72	0	5	96	192	2
NMTTP	72	192	0	C	0	M1
NMSTR	73	0	2
NMSCR	73	0	2	96	192	5
NMTTP	73	192	0	C	0	M1
NMSTR	74	0	6
NMSLL	74	0	6	96	192	2
NMTTP	74	192	0	C	0	M1
NMTTP	74	192	4	B	0	M1
NMSTR	75	0	1
NMSI_	75	0	1	96	96	5
NMTTP	75	192	0	C	0	M1
BRTAP	75	288	0
BRTAP	75	288	7
NMTAP	76	0	1
NMTAP	76	0	5
NMSTR	76	96	1
NMSUR	76	96	1	96	96	6
NMSTR	76	96	5
NMSUR	76	96	5	96	96	2
NMSTR	77	0	4
NMSV_	77	0	4	96	96	7
NMSLL	77	0	4	96	96	7
NMSTR	77	288	0
NMSV_	77	288	0	96	48	3
NMSTR	77	288	6
NMSV_	77	288	6	96	48	3
NMSTR	78	0	0
NMSI_	78	0	0	96	48	2
CNSI_	78	144	2	0	48	6
CNSI_	78	192	6	0	48	4
NMSTR	78	288	1
NMSV_	78	288	1	96	48	3
NMSTR	78	288	5
NMSCR	78	288	5	96	48	1
EXTAP	79	96	2
EXTAP	79	96	4
EXSTR	79	144	2
NMSI_	79	144	2	96	48	5
EXSTR	79	144	4
NMSI_	79	144	4	96	48	7
EXTAP	79	240	2
EXTAP	79	240	4
NMTAP	80	0	3
NMTAP	80	24	5
NMTAP	80	48	3
NMTAP	80	72	5
NMTAP	80	96	2
NMTAP	80	120	4
NMTAP	80	144	2
NMTAP	80	168	4
NMTAP	80	192	1
NMTAP	80	216	5
NMTAP	80	240	1
NMTAP	80	264	5
NMTAP	80	288	0
NMTAP	80	312	6
NMTAP	80	336	1
NMSTR	80	360	7
NMSUR	80	360	7	96	120	0
NMHLD	81	0	2	288
NMSTR	81	288	1
NMSI_	81	288	1	96	48	6
BRSTR	82	0	2
NMSI_	82	0	2	96	48	0
CNSCR	82	48	6	0	48	7
BRTAP	82	96	2
CNSI_	82	96	7	0	48	3
NMTTP	82	192	2	B	0	M1
NMTTP	82	192	3	E	0	M1
NMTTP	82	192	4	B	0	M1
NMTTP	82	192	4	E	1	M1
NMTAP	82	288	0
NMTAP	82	336	6
NMSTR	83	0	1
NMSI_	83	0	1	96	48	4
NMSTR	83	0	5
NMSI_	83	0	5	96	48	0
NMTAP	83	96	1
NMTAP	83	96	5
NMTAP	83	192	2
NMTAP	83	192	6
NMTAP	83	288	1
NMTAP	83	288	3
NMTAP	83	336	0
NMTAP	84	0	0
NMTAP	84	0	3
NMTAP	84	48	1
NMTAP	84	96	2
NMTAP	84	96	5
NMTAP	84	144	6
NMTAP	84	192	4
NMTAP	84	192	7
NMTAP	84	240	6
NMTAP	84	288	2
NMTAP	84	288	5
NMTAP	84	336	1
NMSTR	85	0	0
NMSI_	85	0	0	96	48	4
NMSTR	85	0	3
NMSI_	85	0	3	96	48	7
NMTAP	85	96	0
NMTAP	85	96	3
NMHLD	85	192	2	96
NMTAP	85	192	6
NMSTR	85	288	1
BRSI_	85	288	1	96	48	6
BRSTR	86	0	2
NMSI_	86	0	2	96	48	0
CNSCR	86	48	6	0	48	7
BRTAP	86	96	2
CNSI_	86	96	7	0	48	3
NMTTP	86	192	2	B	0	M1
NMTTP	86	192	3	E	1	M1
NMTTP	86	192	4	B	0	M1
NMTTP	86	192	4	E	0	M1
NMTAP	86	288	0
NMTAP	86	288	6
NMTAP	86	336	5
EXTAP	87	0	2
EXSTR	87	0	3
NMSXL	87	0	3	96	96	3
NMSXR	87	0	3	96	96	3
NMTAP	87	96	3
NMTAP	87	288	7
NMTAP	87	336	6
NMSTR	88	0	5
NMSCL	88	0	5	96	48	2
NMTAP	88	48	5
NMSTR	88	96	1
NMSCL	88	96	1	96	48	6
NMTAP	88	144	1
NMSTR	88	192	4
NMSI_	88	192	4	96	48	0
NMTAP	88	240	4
NMSTR	88	288	1
BRSUL	88	288	1	96	96	7
NMSTR	89	0	7
BRSCL	89	0	7	96	96	0
NMTAP	89	96	4
NMTTP	89	192	0	C	1	M1
BRTAP	89	288	1
BRTAP	89	288	5
NMTAP	90	0	0
NMTAP	90	0	4
NMTAP	90	48	6
NMTAP	90	96	3
NMHLD	90	96	7	48
NMTAP	90	144	1
NMHLD	90	192	0	48
NMTAP	90	192	4
NMTAP	90	240	6
NMTAP	90	288	3
NMHLD	90	288	7	48
NMTAP	90	336	1
NMTAP	91	0	0
NMSTR	91	0	6
NMSCR	91	0	6	96	48	1
NMTAP	91	48	4
NMTAP	91	48	5
NMSTR	91	96	2
BRSI_	91	96	2	96	48	6
BRSI_	91	96	2	96	48	7
NMTTP	91	192	2	A	1	M1
NMTAP	91	288	0
NMTAP	91	288	5
NMHLD	92	0	2	48
NMTAP	92	0	4
NMTAP	92	48	0
NMTAP	92	96	3
NMHLD	92	96	5	48
NMTAP	92	144	7
NMHLD	92	192	2	48
NMTAP	92	192	4
NMTAP	92	240	0
NMTAP	92	288	3
NMTAP	92	288	5
NMTAP	92	336	3
NMTAP	92	336	5
EXSTR	93	48	1
NMSCR	93	48	1	96	144	6
EXTAP	93	48	7
NMTAP	93	144	6
NMSTR	93	192	6
BRSUL	93	192	6	96	96	2
BRSUR	93	192	6	96	96	2
NMTTP	93	288	6	A	1	M1
NMTAP	94	96	0
NMTAP	94	96	1
NMTAP	94	144	2
NMTAP	94	192	3
NMTAP	94	192	5
NMTAP	94	240	4
NMTAP	94	288	5
NMTAP	94	288	6
NMTAP	94	336	7
BRTAP	95	0	0
BRTAP	95	0	2
BRTAP	95	72	5
BRTAP	95	72	7
BRTAP	95	144	2
BRTAP	95	144	4
NMTAP	95	240	1
NMSTR	95	288	2
NMSUL	95	288	2	96	96	4
NMTAP	95	288	3
NMTAP	95	336	4
NMTAP	96	0	4
NMSTR	96	96	3
NMSI_	96	96	3	96	48	7
BRTAP	96	192	2
BRTAP	96	192	3
NMTAP	96	288	0
NMTAP	96	288	6
NMTAP	97	0	1
NMTAP	97	0	3
NMTAP	97	48	2
NMTAP	97	96	1
NMTAP	97	96	7
NMTAP	97	144	0
NMTAP	97	192	5
NMTAP	97	192	7
NMTAP	97	240	6
NMSTR	97	288	2
NMSXR	97	288	2	96	192	4
NMSTR	97	288	5
NMSXL	97	288	5	96	192	3
NMTAP	97	336	3
NMTAP	97	336	4
EXTAP	98	288	1
EXTAP	98	288	6
NMTAP	99	0	5
NMTAP	99	0	7
NMTAP	99	72	0
NMTAP	99	72	2
NMTAP	99	144	1
NMTAP	99	144	6
NMTAP	99	240	0
NMTAP	99	264	7
BRTAP	99	288	1
BRTAP	99	288	6
NMTAP	100	0	5
NMTAP	100	0	7
NMTAP	100	48	4
NMTAP	100	96	2
NMTAP	100	96	3
NMTAP	100	144	1
NMTAP	100	168	0
NMTAP	100	216	6
NMSTR	100	240	7
NMSCR	100	240	7	96	144	5
NMTAP	100	288	5
BRTAP	100	336	5
NMSTR	101	96	6
NMSUL	101	96	6	96	96	1
NMTAP	101	192	6
NMTAP	101	192	7
NMTAP	101	288	0
NMTAP	102	0	0
NMTAP	102	0	2
NMTAP	102	48	3
NMTAP	102	96	4
NMTAP	102	96	5
NMTAP	102	144	6
NMTAP	102	168	7
NMTAP	102	216	1
NMSTR	102	240	0
NMSCL	102	240	0	96	144	2
NMTAP	102	288	2
BRTAP	102	336	2
NMSTR	103	96	1
NMSV_	103	96	1	96	72	7
NMTAP	103	192	1
NMTAP	103	192	3
CNSI_	103	264	7	0	48	5
NMTAP	103	288	3
NMTAP	104	0	4
NMTAP	104	0	5
NMTAP	104	48	6
NMTAP	104	96	0
NMTAP	104	96	7
NMTAP	104	144	1
NMTAP	104	168	0
NMTAP	104	216	2
NMSTR	104	240	3
NMSCR	104	240	3	96	144	1
NMTAP	104	288	1
BRTAP	104	336	1
NMSTR	105	96	3
NMSI_	105	96	3	96	48	1
NMSI_	105	96	3	96	48	5
NMSTR	105	192	3
NMSI_	105	192	3	96	48	7
NMSTR	105	288	3
BRSF_	105	288	3	96	48	7
NMTTP	106	0	3	B	0	M1
NMTTP	106	12	0	C	1	M1
NMTTP	106	24	0	B	0	M1
NMTTP	106	24	6	B	0	M1
NMTTP	106	24	7	B	0	M1
NMTAP	106	192	1
NMTAP	106	192	5
NMTAP	106	288	0
NMTAP	106	288	6
NMTAP	106	336	0
NMTAP	106	336	6
NMHLD	107	48	2	48
NMHLD	107	96	0	48
NMTAP	107	144	1
BXTAP	107	192	0
BXTAP	107	192	1
BRTAP	107	240	2
BRTAP	107	240	3
BRTAP	107	288	4
BRTAP	107	288	5
BRTAP	107	336	6
BRTAP	107	336	7
NMSTR	108	0	0
NMSUL	108	0	0	96	192	7
NMSTR	108	0	7
NMSCL	108	0	7	96	192	0
NMTAP	109	0	6
NMTAP	109	0	7
NMTAP	109	72	1
NMTAP	109	72	3
NMTAP	109	144	4
NMTAP	109	144	6
BRTAP	109	240	3
BRTAP	109	240	4
EXTAP	109	256	2
EXTAP	109	256	5
EXTAP	109	272	1
EXTAP	109	272	6
EXHLD	109	288	0	336
EXTAP	109	288	7
NMSTR	110	160	5
NMSI_	110	160	5	96	32	2

T_REC_TAP	453
T_REC_BRK	57
T_REC_XTP	73
T_REC_BXX	2
T_REC_HLD	55
T_REC_XHO	1
T_REC_BHO	0
T_REC_BXH	0
T_REC_STR	120
T_REC_BST	3
T_REC_XST	7
T_REC_XBS	0
T_REC_TTP	59
T_REC_THO	0
T_REC_SLD	127
T_REC_BSL	12
T_REC_ALL	969
T_NUM_TAP	712
T_NUM_BRK	74
T_NUM_HLD	56
T_NUM_SLD	127
T_NUM_ALL	969
T_JUDGE_TAP	774
T_JUDGE_HLD	94
T_JUDGE_SLD	139
T_JUDGE_ALL	1007
TTM_EACHPAIRS	214
TTM_SCR_TAP	356000
TTM_SCR_BRK	192400
TTM_SCR_HLD	56000
TTM_SCR_SLD	190500
TTM_SCR_ALL	794900
TTM_SCR_S	763900
TTM_SCR_SS	787500
TTM_RAT_ACV	10093

