VERSION	0.00.00	1.05.00
FES_MODE	0
BPM_DEF	168.000	168.000	168.000	168.000
MET_DEF	4	4
RESOLUTION	384
CLK_DEF	384
COMPATIBLE_CODE	MA2

BPM	0	0	168.000
MET	0	0	4	4

EXSTR	1	0	2
NMSUR	1	0	2	96	384	5
EXTAP	2	192	6
EXTAP	2	240	6
EXTAP	2	288	4
NMHLD	3	0	3	288
NMHLD	3	0	5	168
NMSTR	3	288	4
NMSXL	3	288	4	96	192	4
NMSXR	3	288	4	96	192	4
BXTAP	4	288	4
BXTAP	4	288	5
NMTAP	5	0	6
NMTAP	5	48	6
NMTAP	5	96	7
NMTAP	5	192	1
NMTAP	5	240	1
NMTAP	5	288	0
NMTAP	6	0	2
NMTAP	6	96	2
NMTAP	6	96	3
NMHLD	6	192	2	96
NMHLD	6	192	3	96
NMTAP	7	0	1
NMTAP	7	48	1
NMTAP	7	96	0
NMTAP	7	192	6
NMTAP	7	240	6
NMTAP	7	288	7
NMTAP	8	0	5
NMTAP	8	96	5
EXHLD	8	192	4	48
EXHLD	8	192	5	48
EXHLD	8	288	4	48
EXHLD	8	288	5	48
NMTAP	9	0	6
NMTAP	9	48	6
NMTAP	9	96	7
NMTAP	9	192	1
NMTAP	9	240	1
NMTAP	9	288	0
NMTAP	10	0	2
NMTAP	10	0	7
NMTAP	10	96	6
NMTAP	10	192	4
NMTAP	10	192	5
NMSTR	10	288	2
NMSCL	10	288	2	96	192	4
NMHLD	10	288	7	384
NMTTP	12	0	6	B	0	M1
NMTTP	12	96	5	E	0	M1
NMTTP	12	192	1	B	0	M1
NMTTP	12	288	3	E	0	M1
NMHLD	13	0	2	144
NMTAP	13	144	3
NMTAP	13	192	3
NMTAP	13	288	3
NMTAP	13	288	4
NMHLD	14	0	5	144
NMTAP	14	144	4
NMTAP	14	192	4
NMTAP	14	288	3
NMTAP	14	288	4
NMHLD	15	0	2	288
NMTAP	15	144	3
NMHLD	15	192	3	96
NMTTP	16	0	3	B	0	M1
NMTTP	16	0	4	B	0	M1
NMTTP	16	0	4	E	0	M1
NMTAP	16	192	5
NMTAP	16	288	6
NMTAP	17	0	6
NMTAP	17	0	7
NMTAP	17	96	0
NMTAP	17	96	1
NMHLD	17	192	2	144
NMTAP	17	336	3
NMSTR	18	0	3
NMSXL	18	0	3	96	96	5
NMSXR	18	0	3	96	96	1
NMTAP	19	0	0
NMTAP	19	0	6
NMTAP	19	96	1
NMTAP	19	96	7
NMHLD	19	192	1	96
NMHLD	19	192	7	96
NMTAP	20	0	4
NMTAP	20	0	6
NMTAP	20	96	1
NMTAP	20	96	3
NMTAP	20	144	1
NMTAP	20	144	3
NMTAP	20	240	0
NMTAP	20	240	7
NMTAP	20	288	0
NMTAP	20	288	7
BRTAP	21	0	1
BRTAP	21	0	3
BRTAP	21	96	4
BRTAP	21	96	6
NMTAP	21	192	4
NMSTR	21	192	5
NMSI_	21	192	5	96	96	7
NMSXR	21	192	5	96	288	4
CNSI_	22	0	7	0	192	4
NMTAP	22	288	4
NMTAP	22	288	5
BRTAP	23	0	6
BRTAP	23	0	7
BRTAP	23	96	0
BRTAP	23	96	1
NMSTR	23	192	2
NMSI_	23	192	2	96	96	0
NMSXL	23	192	2	96	288	3
CNSI_	24	0	0	0	192	3
NMTAP	24	288	2
NMTAP	24	288	3
BRTAP	25	0	0
BRTAP	25	96	6
BRTAP	25	96	7
NMTAP	25	192	5
NMSTR	25	288	4
NMSUL	25	288	4	96	288	1
NMSTR	25	288	5
NMSXL	25	288	5	96	288	0
EXTAP	27	0	0
EXTAP	27	0	1
EXTAP	27	96	2
EXTAP	27	96	3
EXTAP	27	192	4
EXTAP	27	192	5
EXTAP	27	288	6
EXTAP	27	288	7
NMTAP	28	48	3
NMTAP	28	48	5
NMTAP	28	96	3
NMTAP	28	96	5
BRTAP	28	192	2
BRTAP	28	192	6
NMTAP	29	0	7
NMTAP	29	96	0
NMTAP	29	96	6
NMTAP	29	192	2
NMTAP	29	240	2
NMTAP	29	288	0
NMHLD	30	0	0	288
NMTAP	30	0	1
NMSTR	30	96	1
NMSXL	30	96	1	96	96	3
NMTAP	31	0	7
NMTAP	31	96	0
NMTAP	31	96	6
NMTAP	31	192	5
NMTAP	31	240	5
NMTAP	31	288	7
NMTAP	32	0	6
NMTAP	32	96	4
NMSTR	32	96	5
NMSI_	32	96	5	96	96	0
NMHLD	33	0	2	96
NMHLD	33	96	3	96
NMHLD	33	192	4	96
NMHLD	33	288	5	96
NMTAP	34	0	4
NMTAP	34	96	4
NMTAP	34	96	6
NMTAP	34	192	1
NMTAP	34	240	1
NMTAP	34	288	3
NMTAP	35	0	6
NMTAP	35	96	4
NMTAP	35	96	5
NMTAP	35	192	1
NMSTR	35	288	2
NMSUR	35	288	2	96	192	4
NMTAP	35	288	3
EXTAP	36	288	4
EXTAP	36	288	5
BXTAP	37	0	6
BXTAP	37	0	7
BXTAP	37	96	0
BXTAP	37	96	1
BXTAP	37	192	0
BXTAP	37	192	5
NMSTR	37	288	2
NMSCL	37	288	2	96	96	7
NMSTR	37	288	6
NMSCL	37	288	6	96	96	3
NMTAP	38	192	1
NMTAP	38	192	5
NMTAP	38	288	6
NMTAP	38	288	7
NMTAP	39	0	4
NMTAP	39	96	0
NMTAP	39	96	1
NMTAP	39	192	3
NMTAP	39	288	6
NMTAP	39	288	7
NMTAP	40	0	4
NMTAP	40	96	0
NMTAP	40	96	1
NMTAP	40	192	0
NMTAP	40	192	1
NMTAP	40	288	0
NMTAP	40	288	7
BXTAP	41	0	6
BXTAP	41	0	7
BXTAP	41	96	0
BXTAP	41	96	1
BXTAP	41	192	2
BXTAP	41	192	4
NMSTR	41	288	3
NMSCL	41	288	3	96	96	0
NMSCR	41	288	3	96	96	6
NMTTP	42	192	0	E	0	M1
NMTTP	42	192	7	B	1	M1
NMTTP	42	192	7	E	0	M1
NMTAP	43	0	4
NMHLD	43	0	5	96
NMTAP	43	96	1
NMHLD	43	192	2	96
NMTAP	43	192	3
NMTAP	43	288	6
NMTAP	44	0	4
NMTAP	44	0	5
NMTAP	44	96	4
NMTAP	44	96	5
EXTAP	44	192	6
EXTAP	44	192	7
EXTAP	44	288	6
EXTAP	44	288	7
NMTAP	45	0	0
NMTAP	45	0	1
NMTAP	45	96	6
NMTAP	45	96	7
NMTAP	45	192	0
NMTAP	45	192	1
NMSTR	45	288	2
NMSF_	45	288	2	96	96	6
NMTAP	46	192	6
NMTAP	46	192	7
NMTAP	46	288	6
NMTAP	46	288	7
NMTAP	47	0	0
NMTAP	47	0	5
NMTAP	47	96	2
NMTAP	47	96	7
NMTAP	47	192	0
NMTAP	47	192	5
NMTAP	47	288	2
NMTAP	47	288	7
NMTAP	48	0	4
NMTAP	48	0	5
NMSTR	48	96	4
NMSCL	48	96	4	96	144	0
NMSTR	48	96	5
NMSXL	48	96	5	96	144	7
NMTAP	49	96	5
NMTAP	49	144	5
NMTAP	49	192	1
NMTAP	49	240	1
NMTAP	49	288	7
BXTAP	50	0	0
BXTAP	50	0	6
BXTAP	50	72	1
BXTAP	50	72	5
BXTAP	50	144	2
BXTAP	50	144	4
EXTAP	50	240	4
EXTAP	50	240	6
EXTAP	50	288	4
EXTAP	50	288	6
EXSTR	51	0	3
NMSI_	51	0	3	96	48	0
EXSTR	51	0	7
NMSI_	51	0	7	96	48	4
EXSTR	51	192	0
NMSCR	51	192	0	96	48	3
EXSTR	51	192	4
NMSCR	51	192	4	96	48	7
NMTAP	52	0	0
NMTAP	52	96	3
NMTAP	52	96	6
NMTAP	52	192	6
NMTAP	52	192	7
NMTAP	52	288	1
NMSTR	52	288	4
NMSXL	52	288	4	96	192	4
NMSXR	52	288	4	96	192	4
EXTAP	53	288	4
EXTAP	53	288	5
NMTAP	54	0	6
NMTAP	54	0	7
NMTAP	54	72	0
NMTAP	54	72	7
NMTAP	54	144	0
NMSTR	54	144	1
BRSI_	54	144	1	96	48	6
BRHLD	55	0	5	672
NMTTP	55	192	4	E	0	M1
NMTTP	55	288	5	E	0	M1
BRTAP	56	0	7
NMTTP	56	192	7	E	0	M1
NMTTP	56	288	0	E	0	M1
BRHLD	57	0	1	672
NMTTP	57	192	6	B	0	M1
NMTTP	57	288	0	B	0	M1
BRTAP	58	0	2
NMTTP	58	192	3	B	0	M1
NMTTP	58	288	5	E	0	M1
NMTAP	59	0	2
NMSTR	59	96	2
NMSXR	59	96	2	96	192	4
NMSTR	60	0	5
NMSI_	60	0	5	96	48	7
NMSTR	60	192	0
NMSI_	60	192	0	96	48	3
NMSI_	60	192	0	96	48	4
EXHLD	61	0	4	96
EXHLD	61	0	5	96
NMTAP	61	192	6
NMTAP	61	240	6
NMTAP	61	288	7
NMHLD	62	0	2	96
NMHLD	62	0	3	96
EXTAP	62	192	0
EXTAP	62	192	1
EXTAP	62	240	0
EXTAP	62	240	1
EXTAP	62	288	0
EXTAP	62	288	1
BXTAP	63	0	1
BXTAP	63	0	3
BXTAP	63	96	3
BXTAP	63	96	7
BXTAP	63	192	0
BXTAP	63	192	5
BXTAP	63	288	2
BXTAP	63	288	3
BXTAP	64	0	3
BXTAP	64	0	5
BXTAP	64	96	6
BXTAP	64	96	7
BXTAP	64	192	3
BXTAP	64	192	7
BXTAP	64	288	2
BXTAP	64	288	5
NMTAP	65	0	1
NMSTR	65	96	1
NMSCL	65	96	1	96	96	5
CNSV_	65	288	5	0	96	3
CNSCR	66	0	3	0	48	4
NMHLD	66	192	4	48
NMHLD	66	192	5	48
NMHLD	66	288	4	48
NMHLD	66	288	5	48
NMTAP	67	0	3
NMTAP	67	0	6
NMTAP	67	96	7
NMTAP	67	144	7
NMTAP	67	192	1
NMTAP	67	240	1
NMTAP	67	288	3
NMTAP	67	336	3
NMTAP	68	0	0
NMTAP	68	48	0
NMTAP	68	96	5
EXTAP	68	192	6
EXTAP	68	216	7
EXTAP	68	240	6
NMTAP	69	0	5
NMTAP	69	48	5
NMTAP	69	96	3
NMTAP	69	144	3
NMTAP	69	192	7
NMTAP	69	288	0
NMTAP	69	288	1
NMTAP	69	336	0
NMTAP	69	336	1
EXTAP	70	48	2
EXTAP	70	72	3
EXTAP	70	96	2
NMTAP	70	192	4
NMTAP	70	192	5
NMTAP	70	288	6
NMTAP	70	288	7
NMTAP	70	336	6
NMTAP	70	336	7
EXTAP	71	48	5
EXTAP	71	72	4
EXTAP	71	96	5
NMTAP	71	192	3
NMTAP	71	192	6
NMTAP	71	288	3
NMTAP	71	288	6
NMHLD	72	0	5	192
NMTAP	72	192	4
NMHLD	73	0	2	192
NMTAP	73	192	3
NMHLD	74	0	4	192
NMTAP	74	192	3
NMHLD	75	0	3	96
NMHLD	75	0	4	96
NMTAP	75	192	3
NMTAP	75	192	4
EXHLD	76	0	1	48
EXHLD	76	0	7	48
EXHLD	76	96	0	48
EXHLD	76	96	6	48
NMSTR	76	192	1
NMSXL	76	192	1	96	240	4
NMSTR	76	192	5
NMSXL	76	192	5	96	240	0
EXSTR	77	288	1
NMSV_	77	288	1	96	48	4
EXSTR	77	288	7
NMSV_	77	288	7	96	48	4
EXSTR	78	96	3
NMSV_	78	96	3	96	96	2
EXSTR	78	96	5
NMSV_	78	96	5	96	96	6
EXTAP	79	0	0
EXTAP	79	0	1
EXSTR	79	96	0
NMSI_	79	96	0	96	96	4
EXSTR	79	96	1
NMSI_	79	96	1	96	96	5
NMTAP	80	0	5
NMSTR	80	96	5
NMSXL	80	96	5	96	288	1
EXTAP	81	288	0
EXTAP	81	288	7
BRTAP	82	0	0
BRTAP	82	0	1
BRTAP	82	96	6
BRTAP	82	96	7
BRTAP	82	192	2
BRTAP	82	192	4
NMSTR	82	288	1
NMSCL	82	288	1	96	96	6
NMSTR	82	288	5
NMSCL	82	288	5	96	96	2
NMTAP	83	192	0
NMTAP	83	192	4
NMTAP	83	288	6
NMTAP	83	288	7
NMTAP	84	0	3
NMTAP	84	96	0
NMTAP	84	96	1
NMTAP	84	192	4
NMTAP	84	288	6
NMTAP	84	288	7
NMTAP	85	0	3
EXTAP	85	96	0
EXTAP	85	96	1
EXTAP	85	192	0
EXTAP	85	192	1
NMTAP	85	288	0
NMTAP	85	288	7
BRTAP	86	0	6
BRTAP	86	0	7
BRTAP	86	96	0
BRTAP	86	96	1
BRTAP	86	192	3
BRTAP	86	192	4
NMSTR	86	288	2
BRSXR	86	288	2	96	192	4
NMSTR	86	288	5
BRSXL	86	288	5	96	192	3
NMTAP	87	288	5
NMTAP	87	336	5
NMTAP	88	0	0
NMTAP	88	48	0
NMTAP	88	96	3
NMTAP	88	144	3
NMTAP	88	192	2
NMTAP	88	288	1
NMTAP	88	288	3
NMTAP	88	336	1
NMTAP	88	336	3
NMTAP	89	48	4
NMTAP	89	48	6
NMTAP	89	96	4
NMTAP	89	96	6
EXTAP	89	192	6
EXTAP	89	192	7
BXTAP	89	288	6
BXTAP	89	288	7
NMTAP	90	0	0
NMTAP	90	0	1
NMTAP	90	96	6
NMTAP	90	96	7
NMTAP	90	192	0
NMTAP	90	192	1
BRSTR	90	288	2
BRSF_	90	288	2	96	96	6
NMTAP	91	192	6
NMTAP	91	192	7
NMTAP	91	288	6
NMTAP	91	288	7
NMTAP	92	0	0
NMTAP	92	0	5
NMTAP	92	96	2
NMTAP	92	96	7
NMTAP	92	192	0
NMTAP	92	192	5
NMTAP	92	288	2
NMTAP	92	288	7
NMTTP	93	0	4	E	0	M1
NMSTR	93	96	5
BRSCL	93	96	5	96	144	2
BRSV_	93	96	5	96	144	2
NMTAP	94	96	0
NMTAP	94	144	0
NMTAP	94	192	6
NMTAP	94	240	6
NMTAP	94	288	7
BRTAP	95	0	6
BRTAP	95	0	7
BRTAP	95	72	3
BRTAP	95	72	4
BRTAP	95	144	0
BRTAP	95	144	1
NMTAP	95	240	6
NMSTR	95	288	6
NMSCL	95	288	6	96	96	4
CNSI_	96	96	4	0	48	7
NMSTR	96	192	0
NMSI_	96	192	0	96	48	3
NMSTR	97	0	2
NMSXR	97	0	2	96	192	7
NMSTR	97	0	6
NMSXR	97	0	6	96	192	3
NMTAP	98	0	1
NMTAP	98	0	5
NMTAP	98	192	0
NMTAP	98	192	7
NMTAP	98	288	0
NMTAP	98	288	7
NMTAP	99	0	2
NMTAP	99	0	7
NMTAP	99	72	0
NMTAP	99	72	5
NMSTR	99	144	1
BRSI_	99	144	1	96	48	6
NMTAP	99	144	6
NMTAP	100	0	2
NMTAP	100	48	2
NMTAP	100	96	3
NMTAP	100	192	4
NMTAP	100	192	5
NMTAP	100	288	2
NMTAP	100	288	3
NMTAP	100	336	2
NMTAP	100	336	3
NMTAP	101	48	0
NMTAP	101	48	1
NMTAP	101	96	0
NMSTR	101	96	1
NMSCR	101	96	1	96	96	4
NMTAP	102	0	5
NMTAP	102	48	5
NMTAP	102	96	4
NMTAP	102	192	2
NMTAP	102	192	3
NMTAP	102	288	4
NMTAP	102	288	5
NMTAP	102	336	4
NMTAP	102	336	5
BXTAP	103	48	7
NMTAP	103	144	0
NMTAP	103	144	1
EXHLD	103	192	0	48
EXHLD	103	192	1	48
EXHLD	103	288	0	48
EXHLD	103	288	1	48
NMTAP	104	0	2
NMTAP	104	48	2
NMTAP	104	96	3
NMTAP	104	192	4
NMTAP	104	192	5
NMTAP	104	288	2
NMTAP	104	288	3
NMTAP	105	0	3
NMTAP	105	0	4
NMTHO	105	96	0	288	C	1	M1
NMTTP	105	192	7	E	0	M1
NMTTP	105	288	0	E	0	M1
NMTTP	106	0	1	E	0	M1
EXTAP	106	288	0
EXTAP	106	288	7
BRSTR	107	0	6
NMSCL	107	0	6	96	72	3
NMSTR	107	192	0
BRSCR	107	192	0	96	72	3
NMHLD	108	0	5	288
NMTAP	108	192	4
NMTAP	108	288	4
NMTAP	109	0	6
NMTAP	109	0	7
NMTAP	109	72	3
NMTAP	109	72	4
NMTAP	109	144	0
NMSTR	109	144	1
NMSI_	109	144	1	96	48	6
EXSTR	110	96	5
NMSI_	110	96	5	96	48	2

T_REC_TAP	298
T_REC_BRK	33
T_REC_XTP	50
T_REC_BXX	39
T_REC_HLD	31
T_REC_XHO	14
T_REC_BHO	2
T_REC_BXH	0
T_REC_STR	38
T_REC_BST	2
T_REC_XST	12
T_REC_XBS	0
T_REC_TTP	22
T_REC_THO	1
T_REC_SLD	52
T_REC_BSL	8
T_REC_ALL	602
T_NUM_TAP	420
T_NUM_BRK	84
T_NUM_HLD	46
T_NUM_SLD	52
T_NUM_ALL	602
T_JUDGE_TAP	494
T_JUDGE_HLD	141
T_JUDGE_SLD	60
T_JUDGE_ALL	695
TTM_EACHPAIRS	181
TTM_SCR_TAP	210000
TTM_SCR_BRK	218400
TTM_SCR_HLD	46000
TTM_SCR_SLD	78000
TTM_SCR_ALL	552400
TTM_SCR_S	527700
TTM_SCR_SS	544000
TTM_RAT_ACV	10154

