VERSION	0.00.00	1.05.00
FES_MODE	0
BPM_DEF	168.000	168.000	168.000	168.000
MET_DEF	4	4
RESOLUTION	384
CLK_DEF	384
COMPATIBLE_CODE	MA2

BPM	0	0	168.000
MET	0	0	4	4

NMTAP	5	0	7
NMTAP	5	96	7
NMTAP	5	192	7
NMTAP	6	0	6
NMTAP	6	192	6
NMTAP	7	0	5
NMTAP	7	96	5
NMTAP	7	192	5
NMTAP	8	0	3
NMTAP	8	0	4
NMTAP	8	192	3
NMTAP	8	192	4
NMTAP	9	0	3
NMTAP	9	96	3
NMTAP	9	192	3
NMTAP	10	0	2
NMTAP	10	192	2
NMTAP	11	0	1
NMTAP	11	96	1
NMTAP	11	192	1
NMTAP	12	0	0
NMTAP	12	0	7
NMHLD	13	0	1	192
NMTAP	13	192	0
NMTAP	14	0	0
NMTAP	14	0	1
NMTAP	14	192	0
NMTAP	14	192	1
NMHLD	15	0	2	192
NMTAP	15	192	3
EXTAP	16	0	2
EXTAP	16	0	3
NMTAP	16	192	2
NMTAP	16	192	3
NMHLD	17	0	5	192
NMTAP	17	192	4
NMTAP	18	0	4
NMTAP	18	0	5
NMTAP	18	192	4
NMTAP	18	192	5
NMHLD	19	0	6	192
NMTAP	19	192	7
BXTAP	20	0	6
BXTAP	20	0	7
NMTAP	21	0	7
NMTAP	21	96	7
NMTAP	21	192	6
NMTAP	22	0	5
NMTAP	22	96	5
NMTAP	22	192	4
NMTAP	23	0	3
NMTAP	23	96	3
NMTAP	23	192	2
NMTAP	24	0	1
NMTAP	24	96	1
NMTAP	24	192	0
NMTAP	24	192	1
NMTAP	25	0	0
NMTAP	25	96	0
NMTAP	25	192	1
NMTAP	26	0	2
NMTAP	26	96	2
NMTAP	26	192	3
NMTAP	27	0	4
NMTAP	27	96	4
NMTAP	27	192	5
NMTAP	28	0	6
NMTAP	28	96	6
BXTAP	28	192	6
BXTAP	28	192	7
NMTTP	29	0	6	B	0	L1
NMTTP	29	96	5	B	0	L1
NMTTP	29	192	4	B	0	L1
NMTTP	30	0	1	B	0	L1
NMTTP	30	96	2	B	0	L1
NMTTP	30	192	3	B	0	L1
NMTTP	31	0	6	B	0	L1
NMTTP	31	96	5	B	0	L1
NMTTP	31	192	4	B	0	L1
NMTTP	31	288	3	B	0	L1
NMTTP	32	0	2	B	0	L1
NMTTP	32	96	1	B	0	L1
NMTTP	32	192	0	C	0	L1
NMTTP	33	0	0	B	0	L1
NMTTP	33	96	1	B	0	L1
NMTTP	33	192	2	B	0	L1
NMTTP	33	192	3	B	0	L1
NMTTP	34	0	7	B	0	L1
NMTTP	34	96	6	B	0	L1
NMTTP	34	192	4	B	0	L1
NMTTP	34	192	5	B	0	L1
NMTTP	35	0	1	B	0	L1
NMTTP	35	96	2	B	0	L1
NMTTP	35	192	3	B	0	L1
NMTTP	35	288	4	B	0	L1
NMTTP	36	0	0	C	1	L1
EXTAP	37	0	1
EXTAP	37	96	1
EXTAP	37	192	0
EXTAP	37	288	0
EXTAP	38	0	7
EXTAP	38	96	7
EXTAP	38	192	6
EXTAP	38	192	7
NMTAP	39	0	6
NMTAP	39	96	6
NMTAP	39	192	7
NMTAP	39	288	7
NMTAP	40	0	0
NMTAP	40	96	0
NMTAP	40	192	0
NMTAP	40	192	1
NMTAP	41	0	1
NMTAP	41	96	1
NMTAP	41	192	2
NMTAP	41	288	2
NMTAP	42	0	3
NMTAP	42	96	3
NMTAP	42	192	4
NMTAP	42	192	5
NMTAP	43	0	6
NMTAP	43	96	6
NMTAP	43	192	5
NMTAP	43	288	5
NMTAP	44	0	4
NMTAP	44	96	4
BXTAP	44	192	2
BXTAP	44	192	3
NMTAP	45	0	2
NMTAP	45	96	2
NMTAP	45	192	1
NMTAP	45	288	1
NMTAP	46	0	0
NMTAP	46	96	0
NMTAP	46	192	6
NMTAP	46	192	7
NMTAP	46	288	6
NMTAP	46	288	7
NMTAP	47	0	5
NMTAP	47	96	5
NMTAP	47	192	6
NMTAP	47	288	6
NMTAP	48	0	7
NMTAP	48	96	7
NMTAP	48	192	0
NMTAP	48	192	1
NMTAP	49	0	1
NMTAP	49	96	1
NMTAP	49	192	2
NMTAP	49	288	2
NMTAP	50	0	3
NMTAP	50	96	3
NMTAP	50	192	4
NMTAP	50	192	5
NMTAP	50	288	4
NMTAP	50	288	5
NMTAP	51	0	6
NMTAP	51	96	6
NMTAP	51	192	5
NMTAP	51	288	5
NMTAP	52	0	4
NMTAP	52	96	4
NMTAP	52	192	2
NMTAP	52	192	3
NMSTR	53	0	3
NMSXR	53	0	3	96	480	0
NMSTR	53	0	4
NMSXL	53	0	4	96	480	7
NMHLD	55	0	6	192
NMHLD	55	192	7	192
NMHLD	56	0	0	192
NMTAP	56	192	1
NMHLD	57	0	1	192
NMHLD	57	192	0	192
NMHLD	58	0	7	192
NMTAP	58	192	6
NMHLD	59	0	5	192
NMHLD	59	192	4	192
NMHLD	60	0	3	192
NMTAP	60	192	2
NMHLD	61	0	2	192
NMHLD	61	192	3	192
NMHLD	62	0	4	192
NMTAP	62	192	5
NMTAP	63	0	4
NMTAP	63	96	4
NMTAP	63	192	5
NMTAP	63	288	5
NMTAP	64	0	6
NMTAP	64	96	6
NMTAP	64	192	7
NMTAP	64	288	7
NMTAP	65	0	0
NMTAP	65	96	0
NMTAP	65	192	1
NMTAP	65	288	1
NMTAP	66	0	2
NMTAP	66	96	2
NMTAP	66	192	3
NMTAP	66	192	4
NMTAP	67	0	3
NMTAP	67	96	3
NMTAP	67	192	2
NMTAP	67	288	2
NMTAP	68	0	1
NMTAP	68	96	1
NMTAP	68	192	0
NMTAP	68	288	0
NMTAP	69	0	7
NMTAP	69	96	7
NMTAP	69	192	6
NMTAP	69	288	6
NMTAP	70	0	5
NMTAP	70	96	5
NMTAP	70	192	3
NMTAP	70	192	4
NMTAP	71	0	3
NMTAP	71	0	4
NMTAP	71	96	3
NMTAP	71	96	4
NMTAP	71	192	2
NMTAP	71	192	5
NMSTR	72	0	3
NMSI_	72	0	3	96	192	0
NMSTR	73	0	6
NMSI_	73	0	6	96	192	3
NMSTR	74	0	1
NMSI_	74	0	1	96	192	5
NMTAP	75	0	6
NMTAP	75	192	6
NMTAP	75	192	7
NMSTR	76	0	6
NMSV_	76	0	6	96	192	3
NMSTR	77	0	2
NMSI_	77	0	2	96	192	7
NMSTR	78	0	6
NMSI_	78	0	6	96	192	2
NMSTR	79	0	1
NMSUR	79	0	1	96	480	4
BXTAP	81	0	4
BXTAP	81	0	5
EXTAP	82	0	5
EXTAP	82	96	5
EXTAP	82	192	6
EXTAP	82	192	7
NMTAP	82	288	6
NMTAP	82	288	7
NMTAP	83	0	0
NMTAP	83	96	0
EXTAP	83	192	0
EXTAP	83	192	1
NMTAP	84	0	2
NMTAP	84	96	2
NMTAP	84	192	0
NMTAP	84	192	1
NMTAP	84	288	0
NMTAP	84	288	1
NMTAP	85	0	7
NMTAP	85	96	7
BRTAP	85	192	6
BRTAP	85	192	7
EXTAP	86	0	6
EXTAP	86	96	6
EXTAP	86	192	4
EXTAP	86	192	5
NMTAP	86	288	4
NMTAP	86	288	5
NMTAP	87	0	3
NMTAP	87	96	3
NMTAP	87	192	2
NMTAP	87	192	3
NMTAP	88	0	1
NMTAP	88	96	1
NMTAP	88	192	2
NMTAP	88	192	3
NMTAP	88	288	2
NMTAP	88	288	3
NMTAP	89	0	4
NMTAP	89	96	4
BXTAP	89	192	4
BXTAP	89	192	5
NMTAP	90	0	5
NMTAP	90	96	5
NMTAP	90	192	6
NMTAP	90	192	7
NMTAP	90	288	6
NMTAP	90	288	7
NMTAP	91	0	0
NMTAP	91	96	0
NMTAP	91	192	0
NMTAP	91	192	1
NMTAP	91	288	0
NMTAP	91	288	1
NMTAP	92	0	2
NMTAP	92	96	2
NMTAP	92	192	0
NMTAP	92	192	1
NMTAP	92	288	0
NMTAP	92	288	1
NMTAP	93	0	7
NMTAP	93	96	7
NMTAP	93	192	6
NMTAP	93	192	7
NMTAP	94	0	6
NMTAP	94	96	6
NMTAP	94	192	4
NMTAP	94	192	5
NMTAP	94	288	4
NMTAP	94	288	5
NMTAP	95	0	3
NMTAP	95	96	3
NMTAP	95	192	2
NMTAP	95	192	3
NMTAP	95	288	2
NMTAP	95	288	3
NMTAP	96	0	1
NMTAP	96	96	1
NMTAP	96	192	2
NMTAP	96	192	3
NMTAP	96	288	2
NMTAP	96	288	3
NMTAP	97	0	4
NMTAP	97	96	4
NMTAP	97	192	4
NMTAP	97	192	5
NMSTR	98	0	3
NMSXR	98	0	3	96	480	0
NMSTR	98	0	4
NMSXL	98	0	4	96	480	7
NMTAP	100	0	1
NMTAP	100	96	1
NMTAP	100	192	1
NMTAP	100	288	0
NMTAP	100	288	1
NMTAP	101	0	2
NMTAP	101	96	2
NMTAP	101	192	2
NMTAP	101	288	2
NMTAP	101	288	3
NMTAP	102	0	4
NMTAP	102	96	4
NMTAP	102	192	4
NMTAP	102	288	4
NMTAP	102	288	5
NMTAP	103	0	6
NMTAP	103	96	6
NMTAP	103	192	6
NMTAP	103	192	7
NMTAP	104	0	6
NMTAP	104	96	6
NMTAP	104	192	6
NMTAP	104	288	6
NMTAP	104	288	7
NMTAP	105	0	5
NMTAP	105	96	5
NMTAP	105	192	5
NMTAP	105	288	4
NMTAP	105	288	5
BXTAP	106	0	3
NMTAP	106	96	3
NMTAP	106	192	3
NMTAP	106	288	2
NMTAP	106	288	3
NMTAP	107	0	1
NMTAP	107	96	1
NMTAP	107	192	0
NMTAP	107	192	1
NMTAP	108	0	7
NMTAP	108	96	7
NMTAP	108	192	7
NMTAP	108	288	7
EXTAP	109	0	0
EXTAP	109	0	6
EXTAP	109	192	0
EXTAP	109	192	6
BRTAP	109	288	0
BRTAP	109	288	6

T_REC_TAP	274
T_REC_BRK	4
T_REC_XTP	24
T_REC_BXX	11
T_REC_HLD	16
T_REC_XHO	0
T_REC_BHO	0
T_REC_BXH	0
T_REC_STR	11
T_REC_BST	0
T_REC_XST	0
T_REC_XBS	0
T_REC_TTP	26
T_REC_THO	0
T_REC_SLD	11
T_REC_BSL	0
T_REC_ALL	377
T_NUM_TAP	335
T_NUM_BRK	15
T_NUM_HLD	16
T_NUM_SLD	11
T_NUM_ALL	377
T_JUDGE_TAP	350
T_JUDGE_HLD	64
T_JUDGE_SLD	11
T_JUDGE_ALL	425
TTM_EACHPAIRS	68
TTM_SCR_TAP	167500
TTM_SCR_BRK	39000
TTM_SCR_HLD	16000
TTM_SCR_SLD	16500
TTM_SCR_ALL	239000
TTM_SCR_S	230400
TTM_SCR_SS	237500
TTM_RAT_ACV	10063

