VERSION	0.00.00	1.05.00
FES_MODE	0
BPM_DEF	130.000	222.000	222.000	130.000
MET_DEF	4	4
RESOLUTION	384
CLK_DEF	384
COMPATIBLE_CODE	MA2

BPM	0	0	130.000
BPM	10	0	222.000
BPM	116	0	130.000
MET	0	0	4	4

NMSTR	2	0	0
NMSCR	2	0	0	96	192	3
NMSTR	3	0	7
NMSCL	3	0	7	96	192	4
NMSTR	4	0	2
NMSCR	4	0	2	96	192	5
NMSTR	5	0	1
NMSCL	5	0	1	96	192	6
NMSTR	6	0	2
NMSCL	6	0	2	96	192	7
NMSTR	6	0	3
NMSCR	6	0	3	96	192	6
NMSTR	7	0	4
NMSCL	7	0	4	96	192	1
NMSTR	7	0	5
NMSCR	7	0	5	96	192	0
NMSTR	8	0	7
NMSCL	8	0	7	96	192	4
NMSTR	8	192	7
NMSSR	8	192	7	96	48	3
NMTTP	9	0	5	B	0	M1
NMTTP	9	8	6	E	0	M1
NMTTP	9	16	6	D	0	M1
NMTTP	9	96	2	B	0	M1
NMTTP	9	104	2	E	0	M1
NMTTP	9	112	2	D	0	M1
NMTTP	9	216	4	B	0	M1
NMTTP	9	224	5	E	0	M1
NMTTP	9	232	5	D	0	M1
NMTTP	9	288	3	B	0	M1
NMTTP	9	296	3	E	0	M1
NMTTP	9	304	3	D	0	M1
NMTAP	10	0	0
NMTAP	10	96	0
NMHLD	10	192	0	96
NMTAP	11	0	1
NMTAP	11	96	1
NMHLD	11	144	1	144
NMTAP	12	0	2
NMTAP	12	96	3
NMTAP	12	192	4
NMTAP	12	240	4
NMTAP	12	288	4
NMHLD	13	0	3	192
NMSTR	13	0	5
NMSCL	13	0	5	96	96	1
EXTAP	13	288	1
EXTAP	13	304	2
EXTAP	13	320	3
EXTAP	13	336	4
EXTAP	13	352	5
EXTAP	13	368	6
EXTAP	14	0	7
NMTAP	14	96	7
NMHLD	14	192	7	96
NMTAP	14	336	6
NMHLD	15	0	6	96
NMHLD	15	96	5	96
NMHLD	15	192	4	96
NMHLD	15	288	3	96
NMHLD	16	0	2	96
NMHLD	16	96	1	96
NMHLD	16	192	0	96
NMHLD	16	288	7	96
NMSTR	17	0	6
NMSI_	17	0	6	96	48	1
NMSTR	17	192	3
NMSI_	17	192	3	96	48	0
BRTAP	18	0	1
BRTAP	18	0	7
NMTAP	18	96	2
NMTAP	18	192	3
NMHLD	18	192	5	96
NMTAP	18	288	4
NMTAP	19	0	5
NMHLD	19	0	7	96
NMTAP	19	96	6
NMHLD	19	192	1	96
NMTAP	19	192	7
NMTAP	19	288	0
NMTAP	19	336	0
NMTAP	20	0	0
NMHLD	20	0	2	96
NMHLD	20	96	4	96
NMTAP	20	192	6
NMTAP	20	240	6
NMSTR	20	288	6
NMSCL	20	288	6	96	192	1
NMHLD	21	0	7	96
NMTAP	21	192	6
NMTAP	21	288	5
NMTAP	22	0	0
NMHLD	22	0	4	96
NMTAP	22	96	0
NMTAP	22	192	0
NMHLD	22	192	3	96
NMTAP	22	288	0
NMTAP	23	0	0
NMHLD	23	0	2	96
NMTAP	23	96	0
NMTAP	23	192	0
NMHLD	23	192	1	96
NMTAP	23	288	0
NMTAP	24	0	0
NMTAP	24	0	7
NMTAP	24	48	7
NMTAP	24	96	1
NMTAP	24	96	6
NMTAP	24	144	1
NMTAP	24	192	2
NMTAP	24	192	5
NMTAP	24	240	5
NMTAP	24	288	3
NMTAP	24	288	4
NMTAP	24	336	3
NMTAP	25	0	5
NMTAP	25	24	4
NMTAP	25	48	5
NMTAP	25	72	4
NMTAP	25	96	5
NMTAP	25	120	4
NMTAP	25	144	5
NMTAP	25	168	4
NMSTR	25	192	5
BRSCL	25	192	5	96	48	2
EXTAP	25	288	6
EXTAP	25	300	7
EXTAP	25	312	0
EXTAP	25	324	1
BRSTR	26	0	7
NMSSR	26	0	7	96	960	3
BXTAP	29	0	0
EXTAP	29	12	1
EXTAP	29	24	2
EXTAP	29	36	3
EXTAP	29	48	4
EXTAP	29	60	5
EXTAP	29	72	6
EXTAP	29	84	7
EXTAP	29	96	0
EXTAP	29	108	1
EXTAP	29	120	2
EXTAP	29	132	3
EXTAP	29	144	4
EXTAP	29	156	5
EXTAP	29	168	6
EXTAP	29	180	7
BXSTR	29	192	0
BRSF_	29	192	0	96	48	4
BRTAP	29	288	0
EXTAP	30	0	6
NMSTR	30	96	5
NMSI_	30	96	5	96	48	2
NMSTR	30	96	6
NMSI_	30	96	6	96	48	1
NMTTP	30	192	5	B	0	M1
NMTTP	30	192	6	B	0	M1
NMTTP	30	192	6	E	1	M1
EXHLD	30	288	0	96
NMTAP	31	0	3
NMTAP	31	48	3
NMHLD	31	96	5	96
NMSTR	31	192	7
NMSF_	31	192	7	96	48	3
EXTAP	31	288	7
NMTAP	32	0	1
NMTAP	32	0	5
NMTAP	32	48	1
NMTAP	32	48	5
NMTAP	32	96	1
NMTAP	32	96	5
NMTAP	32	192	4
NMTAP	32	192	6
NMTAP	32	288	1
NMTAP	32	288	3
NMTAP	33	0	5
NMTAP	33	48	5
NMTAP	33	96	3
NMTAP	33	144	3
NMSTR	33	192	0
NMSF_	33	192	0	96	48	4
NMTAP	33	192	2
EXTAP	33	288	0
EXTAP	34	0	1
EXTAP	34	0	7
NMTAP	34	96	5
NMTAP	34	96	6
NMTAP	34	144	5
NMTAP	34	144	6
NMSTR	34	192	5
NMSI_	34	192	5	96	48	2
NMSTR	34	192	6
NMSI_	34	192	6	96	48	1
NMTTP	34	288	5	B	0	M1
NMTTP	34	288	6	B	0	M1
NMTTP	34	288	6	E	1	M1
NMTAP	35	0	0
NMTAP	35	48	0
NMTAP	35	96	3
NMTAP	35	144	3
NMSTR	35	192	7
NMSF_	35	192	7	96	48	3
EXTAP	35	288	7
NMTAP	36	0	1
NMTAP	36	0	5
NMTAP	36	72	6
NMTAP	36	72	7
NMTAP	36	144	5
NMTAP	36	168	4
NMTAP	36	192	5
NMTAP	36	264	0
NMTAP	36	264	1
NMTAP	36	336	2
NMTAP	36	336	3
NMTTP	37	0	0	C	0	M1
NMTAP	37	192	0
NMTAP	37	192	7
NMTAP	37	224	0
NMTAP	37	224	7
NMTAP	37	256	0
NMTAP	37	256	7
BRTAP	37	288	1
BRTAP	37	288	6
EXTAP	38	0	2
EXTAP	38	0	7
NMTAP	38	96	4
NMTAP	38	96	6
NMTAP	38	192	1
NMTAP	38	192	3
NMSTR	38	288	0
NMSI_	38	288	0	96	48	3
NMSTR	38	288	7
NMSI_	38	288	7	96	48	4
NMTTP	39	0	0	E	0	M1
NMTTP	39	24	0	C	0	M1
NMTTP	39	48	3	A	0	M1
NMTTP	39	48	4	A	0	M1
NMTTP	39	48	4	D	1	M1
NMTAP	39	96	0
NMTAP	39	96	7
NMTAP	39	192	6
NMTAP	39	224	6
NMTAP	39	256	7
BRTAP	39	288	0
BRTAP	39	288	5
EXTAP	40	0	0
EXTAP	40	0	7
NMTAP	40	96	1
NMTAP	40	96	3
NMTAP	40	192	4
NMTAP	40	192	6
NMTAP	40	288	0
NMTAP	40	288	7
NMTAP	40	352	1
NMTAP	41	0	1
NMTAP	41	32	3
NMTAP	41	64	3
NMSTR	41	96	2
NMSI_	41	96	2	96	48	5
NMSTR	41	192	7
NMSI_	41	192	7	96	48	4
EXSTR	42	0	0
NMSF_	42	0	0	96	48	4
EXTAP	42	0	6
NMTTP	42	96	0	A	1	M1
EXSTR	42	192	7
NMSF_	42	192	7	96	48	3
NMTTP	42	288	7	A	1	M1
EXSTR	43	0	0
NMSF_	43	0	0	96	48	4
NMTTP	43	96	0	A	1	M1
EXSTR	43	192	7
NMSF_	43	192	7	96	48	3
NMTTP	43	288	7	A	1	M1
NMTAP	44	0	0
NMTAP	44	96	6
NMTAP	44	128	6
NMTAP	44	160	7
NMTAP	44	192	0
NMTAP	44	192	5
NMTAP	44	288	2
NMTAP	44	288	7
NMTAP	45	0	1
NMTAP	45	32	3
NMTAP	45	64	2
NMTAP	45	96	6
NMTAP	45	128	4
NMTAP	45	160	5
NMSTR	45	192	3
NMSI_	45	192	3	96	48	7
EXTAP	45	288	2
EXTAP	45	288	3
NMSTR	46	0	0
NMSI_	46	0	0	96	48	4
NMSTR	46	0	6
NMSI_	46	0	6	96	48	3
BXTAP	46	96	0
BXTAP	46	96	6
NMSTR	46	192	2
NMSI_	46	192	2	96	48	5
NMSTR	46	288	7
NMSI_	46	288	7	96	48	4
NMSTR	47	0	3
NMSI_	47	0	3	96	96	1
NMSTR	47	96	0
NMSI_	47	96	0	96	48	6
NMTAP	47	192	0
CNSI_	47	192	1	0	48	5
NMTAP	47	288	4
NMTAP	47	336	4
NMSTR	48	0	4
NMSI_	48	0	4	96	48	2
NMSTR	48	96	6
NMSI_	48	96	6	96	48	4
NMSTR	48	192	0
NMSI_	48	192	0	96	48	2
NMSTR	48	288	7
NMSI_	48	288	7	96	48	3
NMSTR	49	0	4
NMSI_	49	0	4	96	96	6
NMSTR	49	96	7
NMSI_	49	96	7	96	48	1
CNSI_	49	192	6	0	48	2
NMTAP	49	192	7
NMTAP	49	288	3
NMTAP	49	336	3
NMSTR	50	0	3
NMSI_	50	0	3	96	48	5
NMSTR	50	96	1
NMSI_	50	96	1	96	48	3
NMSTR	50	192	7
NMSI_	50	192	7	96	48	5
NMSTR	50	288	0
NMSI_	50	288	0	96	48	4
NMSTR	51	0	3
NMSI_	51	0	3	96	96	1
NMSTR	51	96	0
NMSI_	51	96	0	96	48	6
NMTAP	51	192	0
CNSI_	51	192	1	0	48	5
NMTAP	51	288	4
NMTAP	51	336	4
NMTAP	52	0	5
NMSTR	52	0	6
NMSI_	52	0	6	96	48	2
NMTAP	52	96	6
NMSTR	52	96	7
NMSI_	52	96	7	96	48	3
NMSTR	52	192	0
NMSI_	52	192	0	96	48	4
NMTAP	52	192	7
NMTAP	52	288	0
NMSTR	52	288	1
NMSI_	52	288	1	96	48	5
NMTAP	53	0	1
NMSTR	53	0	7
NMSF_	53	0	7	96	48	3
NMTAP	53	96	7
NMTAP	53	192	1
NMTAP	53	192	5
NMTAP	53	240	1
NMTAP	53	240	5
NMTAP	53	288	2
NMTAP	53	312	3
NMTAP	53	336	2
NMTAP	53	360	3
NMSTR	54	0	2
NMSI_	54	0	2	96	48	4
NMSTR	54	96	0
NMSI_	54	96	0	96	48	2
NMSTR	54	192	6
NMSI_	54	192	6	96	48	4
NMSTR	54	288	7
NMSI_	54	288	7	96	48	3
NMSTR	55	0	2
NMSI_	55	0	2	96	96	0
NMSTR	55	96	5
NMSI_	55	96	5	96	48	7
CNSI_	55	192	0	0	48	4
NMTAP	55	192	5
NMTAP	55	288	6
NMTAP	55	336	6
NMSTR	56	0	5
NMSI_	56	0	5	96	48	3
NMSTR	56	96	7
NMSI_	56	96	7	96	48	5
NMSTR	56	192	1
NMSI_	56	192	1	96	48	3
NMSTR	56	288	0
NMSI_	56	288	0	96	48	4
NMSTR	57	0	5
NMSI_	57	0	5	96	96	7
NMSTR	57	96	2
NMSI_	57	96	2	96	48	0
NMTAP	57	192	2
CNSI_	57	192	7	0	48	3
NMTAP	57	288	1
NMTAP	57	336	1
NMSTR	58	0	2
NMSI_	58	0	2	96	48	4
NMSTR	58	96	0
NMSI_	58	96	0	96	48	2
NMSTR	58	192	6
NMSI_	58	192	6	96	48	4
NMSTR	58	288	7
NMSI_	58	288	7	96	48	3
NMTAP	59	0	3
NMTAP	59	48	4
NMTAP	59	96	5
NMTAP	59	144	6
NMTAP	59	192	7
NMTAP	59	216	4
NMTAP	59	240	7
NMTAP	59	264	4
NMSTR	59	288	7
NMSI_	59	288	7	96	48	3
NMTAP	59	336	0
EXTAP	60	0	7
NMTAP	60	48	1
NMTAP	60	96	1
NMTAP	60	144	1
NMTAP	60	192	2
NMTAP	60	192	4
NMTAP	60	240	5
NMTAP	60	288	5
NMTAP	60	336	5
NMTAP	61	0	7
NMTAP	61	24	6
NMTAP	61	48	7
NMTAP	61	72	6
NMTAP	61	96	7
NMTAP	61	120	6
NMTAP	61	144	7
NMTAP	61	168	6
BRTAP	61	192	0
NMTAP	61	204	1
NMTAP	61	216	2
NMTAP	61	228	3
NMTAP	61	240	4
NMTAP	61	252	5
NMTAP	61	264	6
NMTAP	61	276	7
NMTAP	61	288	0
NMTAP	61	300	1
NMTAP	61	312	2
NMTAP	61	324	3
NMTAP	61	336	4
NMTAP	61	348	5
NMTAP	61	360	6
NMTAP	61	372	7
BXSTR	62	0	0
NMSSR	62	0	0	96	192	4
NMTTP	62	144	2	B	0	M1
NMTTP	62	168	0	C	0	M1
NMTTP	62	192	6	B	0	M1
NMSTR	63	0	7
NMSSL	63	0	7	96	192	3
NMTTP	63	144	5	B	0	M1
NMTTP	63	168	0	C	0	M1
NMTTP	63	192	1	B	0	M1
NMSTR	64	0	0
NMSCR	64	0	0	96	48	2
NMTTP	64	144	2	B	0	M1
CNSI_	64	144	2	0	48	6
NMTTP	64	168	0	C	0	M1
NMTTP	64	192	6	B	0	M1
CNSCL	64	192	6	0	96	4
NMSTR	65	0	7
NMSCL	65	0	7	96	48	5
NMTTP	65	144	5	B	0	M1
CNSI_	65	144	5	0	48	1
NMTTP	65	168	0	C	0	M1
NMTTP	65	192	1	B	0	M1
CNSCR	65	192	1	0	96	3
NMTAP	66	0	7
NMTAP	66	96	7
NMTAP	66	192	6
NMTAP	66	288	6
NMTAP	67	0	5
NMSTR	67	96	5
NMSI_	67	96	5	96	48	2
NMTAP	67	192	1
NMTAP	67	288	1
NMHLD	68	0	0	96
NMHLD	68	96	1	96
NMHLD	68	192	2	96
NMTAP	68	288	3
NMTAP	69	0	1
NMHLD	69	0	4	336
NMTAP	69	192	6
NMTAP	69	240	6
NMTAP	69	288	6
NMTAP	69	336	6
EXTAP	70	0	3
EXTAP	70	0	5
NMTAP	70	96	3
NMTAP	70	96	5
NMTTP	70	192	1	B	0	M1
NMTTP	70	192	2	B	0	M1
NMTTP	70	192	2	E	0	M1
NMTAP	71	0	3
NMTAP	71	0	5
NMTAP	71	96	4
NMTAP	71	144	4
NMTTP	71	192	1	B	0	M1
NMTTP	71	192	2	B	0	M1
NMTTP	71	192	2	E	0	M1
NMTTP	72	0	6	B	0	M1
NMTTP	72	96	1	B	0	M1
NMTTP	72	192	5	E	0	M1
NMTTP	72	240	4	B	0	M1
NMTTP	72	288	3	B	0	M1
NMTTP	73	0	2	E	0	M1
NMTTP	73	0	6	E	0	M1
NMTTP	73	192	2	B	0	M1
NMTTP	73	288	3	E	0	M1
NMTTP	74	0	3	A	0	M1
EXTAP	74	0	7
NMTTP	74	192	5	B	0	M1
NMTTP	74	288	5	E	0	M1
EXTAP	75	0	0
NMTTP	75	0	4	A	0	M1
NMTTP	75	192	2	B	0	M1
NMTTP	75	288	3	E	0	M1
NMTAP	75	336	7
NMTAP	75	352	6
NMTAP	75	368	5
NMTTP	76	0	3	A	0	M1
NMTTP	76	0	3	D	0	M1
EXTAP	76	0	4
NMTAP	76	144	0
NMTAP	76	160	1
NMTAP	76	176	2
EXTAP	76	192	3
NMTTP	76	192	4	A	0	M1
NMTTP	76	192	5	D	0	M1
NMTAP	76	336	0
NMTAP	76	336	7
NMTAP	76	352	1
NMTAP	76	352	6
NMTAP	76	368	2
NMTAP	76	368	5
BXTAP	77	0	3
BXTAP	77	0	4
NMTAP	77	96	1
NMTAP	77	96	6
BRTAP	77	192	0
BRTAP	77	192	7
NMSTR	78	0	4
NMSCL	78	0	4	96	384	0
NMSTR	78	0	7
NMSI_	78	0	7	96	288	5
CNSI_	79	0	5	0	96	3
NMTAP	79	288	5
NMTAP	79	312	4
NMTAP	79	336	5
NMTAP	79	360	4
NMSTR	80	0	6
NMSUL	80	0	6	96	384	4
NMSUR	80	0	6	96	384	0
NMTAP	81	192	2
NMTAP	81	216	3
NMTAP	81	240	2
NMTAP	81	264	3
NMTAP	81	288	2
NMTAP	81	312	3
NMTAP	81	336	2
NMTAP	81	360	3
NMSTR	82	0	1
NMSXL	82	0	1	96	96	3
NMTAP	82	336	3
NMTAP	82	336	6
NMHLD	83	0	3	192
NMSTR	83	0	6
NMSI_	83	0	6	96	48	4
CNSI_	83	144	4	0	48	7
NMTAP	83	288	1
NMTAP	83	312	0
NMTAP	83	336	1
NMTAP	83	360	0
NMSTR	84	0	2
NMSI_	84	0	2	96	48	5
NMSTR	84	192	7
NMSI_	84	192	7	96	48	4
NMTAP	84	336	1
NMHLD	85	0	1	48
NMHLD	85	0	3	48
NMHLD	85	96	4	48
NMHLD	85	96	6	48
NMTTP	85	192	0	C	1	M1
NMTTP	85	192	2	B	0	M1
NMTTP	85	192	3	B	0	M1
NMTTP	85	192	4	B	0	M1
NMTTP	85	192	5	B	0	M1
NMHLD	86	0	0	672
NMTTP	86	96	1	E	0	M1
NMTTP	86	192	2	E	0	M1
NMTTP	86	288	3	E	0	M1
NMTTP	87	0	4	E	0	M1
NMTTP	87	96	5	E	0	M1
NMTTP	87	192	6	E	0	M1
NMTTP	87	288	7	E	0	M1
NMTAP	88	0	0
NMTAP	88	96	0
NMTTP	88	96	1	E	0	M1
NMTAP	88	192	0
NMTTP	88	192	2	E	0	M1
NMTAP	88	288	0
NMTTP	88	288	3	E	0	M1
NMTAP	89	0	0
NMTTP	89	0	4	E	0	M1
NMTAP	89	96	0
NMTTP	89	96	5	E	0	M1
NMTAP	89	192	0
NMTTP	89	192	6	E	0	M1
NMTAP	89	288	0
NMTTP	89	288	7	E	0	M1
EXHLD	90	0	1	72
NMHLD	90	72	3	72
NMTAP	90	144	5
NMHLD	90	192	5	72
NMHLD	90	264	3	72
NMTAP	90	336	1
EXHLD	91	0	6	72
NMHLD	91	72	4	72
NMTAP	91	144	2
NMHLD	91	192	2	72
NMHLD	91	264	4	72
NMTAP	91	336	6
EXTAP	92	0	0
NMTAP	92	32	3
NMTAP	92	64	2
NMTAP	92	96	6
NMTAP	92	128	4
NMTAP	92	160	5
EXTAP	92	192	1
NMTAP	92	224	3
NMTAP	92	256	2
NMTAP	92	288	6
NMTAP	92	320	4
NMTAP	92	352	5
EXTAP	93	0	0
NMTAP	93	32	0
EXTAP	93	64	2
NMTAP	93	96	2
EXTAP	93	128	4
NMTAP	93	160	4
EXTAP	93	192	7
NMTAP	93	224	7
EXTAP	93	256	5
NMTAP	93	288	5
EXTAP	93	320	3
NMTAP	93	352	3
BXSTR	94	0	1
NMSI_	94	0	1	96	192	6
BXSTR	94	0	2
NMSI_	94	0	2	96	192	5
NMTAP	95	0	0
NMTAP	95	12	1
NMTAP	95	24	2
NMTAP	95	36	3
NMTAP	95	48	4
NMTAP	95	60	5
NMTAP	95	72	6
NMTAP	95	84	7
NMTAP	95	96	0
NMTAP	95	108	1
NMTAP	95	120	2
NMTAP	95	132	3
NMTAP	95	144	4
NMTAP	95	156	5
NMTAP	95	168	6
NMTAP	95	180	7
NMSTR	95	192	0
BRSF_	95	192	0	96	48	4
BRTAP	95	288	0
EXTAP	96	0	2
EXTAP	96	0	6
NMTAP	96	48	5
NMTAP	96	72	4
NMTAP	96	96	5
NMTAP	96	144	2
NMTAP	96	168	3
NMTAP	96	192	2
NMTAP	96	240	7
NMTAP	96	256	6
NMTAP	96	272	5
NMTAP	96	288	2
NMTAP	96	288	4
NMTAP	96	336	2
NMTAP	97	0	0
NMTAP	97	0	2
NMTAP	97	48	2
NMTAP	97	96	2
NMHLD	97	96	4	96
NMSTR	97	192	5
NMSI_	97	192	5	96	48	1
NMTAP	97	204	6
NMTAP	97	216	7
NMTAP	97	228	0
NMTAP	97	240	1
NMTAP	97	252	2
BRTAP	97	288	5
EXTAP	98	0	0
EXTAP	98	0	2
EXTAP	98	48	0
EXTAP	98	48	2
EXTAP	98	96	0
EXTAP	98	96	2
NMTAP	98	144	6
NMTAP	98	168	7
NMTAP	98	192	6
NMTAP	98	240	1
NMTAP	98	264	0
NMTAP	98	288	1
NMHLD	98	336	4	96
NMSTR	99	48	6
NMSI_	99	48	6	96	48	2
NMTAP	99	96	5
NMTAP	99	96	7
NMTAP	99	144	6
NMTAP	99	240	1
NMTAP	99	240	3
NMSTR	99	288	1
NMSI_	99	288	1	96	48	5
NMSTR	99	288	3
NMSI_	99	288	3	96	48	5
NMTAP	99	336	1
NMTAP	99	336	3
NMSTR	100	96	0
NMSI_	100	96	0	96	48	4
NMTAP	100	144	0
NMTAP	100	192	0
NMSTR	100	192	7
NMSI_	100	192	7	96	48	3
NMSTR	100	288	5
NMSI_	100	288	5	96	48	1
NMTAP	100	288	7
NMTAP	101	0	0
NMTAP	101	0	5
NMTAP	101	96	0
NMTAP	101	96	2
NMTAP	101	144	3
NMTAP	101	192	4
NMTAP	101	240	5
BRSTR	101	288	2
NMSI_	101	288	2	96	48	5
BRSTR	101	288	6
NMSI_	101	288	6	96	48	1
EXTAP	102	0	2
EXTAP	102	0	6
BXTAP	102	120	0
BXTAP	102	120	4
BXTAP	102	192	2
BXTAP	102	192	6
BXTAP	102	264	0
BXTAP	102	264	4
BXHLD	102	336	1	192
BXTAP	102	336	3
NMTAP	103	48	0
NMTAP	103	96	0
NMTAP	103	144	0
NMTAP	103	240	0
NMTAP	103	240	7
NMTAP	103	288	0
NMTAP	103	312	7
NMTAP	103	336	0
NMTAP	103	360	7
BRTAP	104	0	1
NMTAP	104	48	6
NMTAP	104	72	4
NMTAP	104	96	6
NMTAP	104	144	1
NMTAP	104	168	3
NMTAP	104	192	1
NMTAP	104	240	6
NMTAP	104	264	4
NMTAP	104	288	6
NMTAP	104	336	0
NMHLD	104	336	7	192
NMTAP	105	48	4
NMTAP	105	96	3
NMTAP	105	144	2
NMSTR	105	192	1
NMSI_	105	192	1	96	48	4
NMSI_	105	192	1	96	48	5
NMTAP	105	240	1
BRTAP	106	0	3
BRTAP	106	0	6
NMTAP	106	48	3
NMTAP	106	48	6
NMTAP	106	96	3
NMTAP	106	96	6
NMTAP	106	144	5
NMTAP	106	168	4
NMTAP	106	192	5
NMTAP	106	240	2
NMTAP	106	264	3
NMTAP	106	288	2
NMSTR	106	336	0
NMSI_	106	336	0	96	48	3
NMTAP	106	336	1
NMTAP	107	48	0
NMTAP	107	48	7
NMTAP	107	96	6
NMHLD	107	144	4	192
NMTAP	107	144	5
NMTAP	107	240	2
NMSTR	107	288	2
NMSI_	107	288	2	96	48	6
NMTAP	107	336	2
NMTTP	108	0	0	C	0	M1
NMTAP	108	96	0
NMTAP	108	96	7
NMTAP	108	144	1
NMTAP	108	168	0
NMTAP	108	192	1
NMTAP	108	240	6
NMTAP	108	264	7
NMTAP	108	288	6
NMTAP	108	336	1
NMTAP	108	360	0
NMTAP	109	0	1
NMTAP	109	96	2
NMTAP	109	96	7
NMTAP	109	144	2
NMTAP	109	144	7
NMSTR	109	192	3
NMSI_	109	192	3	96	48	7
NMSTR	109	192	6
NMSI_	109	192	6	96	48	4
EXTAP	109	288	3
EXTAP	109	288	6
BRTAP	110	0	0
BRTAP	110	0	3
BRTAP	110	72	1
BRTAP	110	72	6
BRTAP	110	144	4
BRTAP	110	144	7
BRTAP	110	216	3
BRTAP	110	216	6
BRTAP	110	288	2
BRTAP	110	288	4
BXHLD	110	336	2	96
BXTAP	110	336	4
NMTAP	111	48	1
NMTAP	111	96	0
NMTAP	111	144	3
NMTAP	111	144	7
BXTAP	111	216	4
BXTAP	111	216	5
NMTAP	111	288	1
NMTAP	111	288	3
NMTAP	111	336	2
NMTAP	111	336	7
NMTTP	112	0	0	C	1	M1
BXHLD	112	0	0	1536
NMSTR	116	0	7
NMSCL	116	0	7	96	384	4
NMSTR	117	0	0
NMSCR	117	0	0	96	384	3
NMTTP	118	0	0	A	0	M1
NMTTP	118	96	7	A	0	M1
NMTTP	118	192	6	A	0	M1
EXSTR	118	288	5
BRSF_	118	288	5	96	24	1
BXTAP	119	0	5
NMTTP	119	24	1	B	1	M1
NMTTP	119	24	1	D	0	M1
NMTTP	119	24	2	D	0	M1

T_REC_TAP	399
T_REC_BRK	25
T_REC_XTP	66
T_REC_BXX	16
T_REC_HLD	43
T_REC_XHO	3
T_REC_BHO	0
T_REC_BXH	3
T_REC_STR	93
T_REC_BST	3
T_REC_XST	5
T_REC_XBS	4
T_REC_TTP	92
T_REC_THO	0
T_REC_SLD	103
T_REC_BSL	4
T_REC_ALL	859
T_NUM_TAP	655
T_NUM_BRK	55
T_NUM_HLD	46
T_NUM_SLD	103
T_NUM_ALL	859
T_JUDGE_TAP	703
T_JUDGE_HLD	152
T_JUDGE_SLD	107
T_JUDGE_ALL	962
TTM_EACHPAIRS	119
TTM_SCR_TAP	327500
TTM_SCR_BRK	143000
TTM_SCR_HLD	46000
TTM_SCR_SLD	154500
TTM_SCR_ALL	671000
TTM_SCR_S	645550
TTM_SCR_SS	665500
TTM_RAT_ACV	10082

