VERSION	0.00.00	1.05.00
FES_MODE	0
BPM_DEF	130.000	222.000	222.000	130.000
MET_DEF	4	4
RESOLUTION	384
CLK_DEF	384
COMPATIBLE_CODE	MA2

BPM	0	0	130.000
BPM	10	0	222.000
BPM	116	0	130.000
MET	0	0	4	4

EXSTR	2	0	2
NMSCR	2	0	2	96	192	5
EXSTR	3	0	6
NMSUL	3	0	6	96	192	2
EXSTR	4	0	1
NMSUR	4	0	1	96	192	5
EXHLD	5	0	7	192
NMTTP	5	192	0	C	0	M1
EXTAP	6	0	1
EXTAP	6	96	1
EXTAP	6	192	1
EXTAP	7	0	6
EXTAP	7	96	6
EXTAP	7	192	6
EXTAP	8	0	5
EXTAP	8	96	4
EXTAP	8	192	3
BXSTR	8	288	2
NMSUR	8	288	2	96	192	0
NMTAP	10	0	1
NMTAP	10	96	1
NMTAP	10	192	0
NMTAP	10	192	1
NMTAP	11	0	0
NMTAP	11	0	7
NMTAP	11	96	6
NMHLD	11	144	6	240
NMTAP	12	0	7
NMTAP	12	96	0
NMTAP	12	192	1
NMTAP	12	240	1
NMTAP	12	288	0
NMTAP	13	0	2
NMSTR	13	0	7
NMSI_	13	0	7	96	96	3
NMTAP	13	288	2
NMTAP	13	288	4
NMTAP	14	0	1
NMHLD	14	96	1	192
NMTAP	14	192	3
NMTAP	14	288	4
NMTAP	15	0	5
NMHLD	15	96	5	192
NMTAP	15	192	3
NMTAP	15	288	3
NMTAP	16	0	2
NMTAP	16	0	4
NMTAP	16	96	2
NMTAP	16	96	4
NMTAP	16	192	1
NMTAP	16	192	3
NMTAP	16	288	1
NMTAP	16	288	3
NMSTR	17	0	0
NMSI_	17	0	0	96	96	4
BXTAP	17	192	7
NMTAP	18	0	6
NMTAP	18	96	6
NMTAP	18	192	4
NMHLD	18	192	5	480
NMTAP	19	0	4
NMTAP	19	96	3
NMHLD	19	144	3	144
NMTAP	20	0	2
NMTAP	20	0	4
NMTAP	20	96	2
NMTAP	20	96	4
NMTAP	20	192	1
NMTAP	20	240	1
NMTAP	20	288	3
NMSTR	21	0	2
NMSI_	21	0	2	96	96	5
NMTAP	21	0	4
NMTAP	21	192	6
NMHLD	21	288	6	480
NMHLD	22	0	4	192
NMTAP	22	288	5
NMHLD	23	0	5	384
NMTAP	23	192	7
NMTAP	23	288	7
NMSTR	24	0	7
NMSCL	24	0	7	96	288	4
NMSTR	25	0	3
NMSCL	25	0	3	96	288	0
NMTTP	26	0	0	C	1	M1
NMTAP	29	0	0
NMTAP	29	0	7
NMSTR	29	96	0
NMSI_	29	96	0	96	96	3
NMSTR	29	96	7
NMSI_	29	96	7	96	96	4
NMTAP	30	0	0
NMTAP	30	0	1
NMTAP	30	96	0
NMTAP	30	96	1
NMTAP	30	192	6
NMTAP	30	192	7
NMTAP	30	288	6
NMTAP	30	288	7
NMTAP	31	0	1
NMTAP	31	48	1
NMTAP	31	96	0
NMTAP	31	192	2
NMTAP	31	192	3
NMTAP	31	288	4
NMTAP	31	288	5
NMTAP	32	0	6
NMTAP	32	48	6
NMTAP	32	96	7
NMTAP	32	192	0
NMTAP	32	192	5
NMTAP	32	288	0
NMTAP	32	288	5
NMTAP	33	0	1
NMTAP	33	48	1
NMTAP	33	96	3
BRTAP	33	192	0
BRTAP	33	192	4
NMTAP	34	0	5
NMTAP	34	96	6
NMTAP	34	96	7
NMTAP	34	192	2
NMTAP	34	288	0
NMTAP	34	288	1
NMTAP	35	0	7
NMTAP	35	96	3
NMTAP	35	96	5
NMTAP	35	192	0
NMTAP	35	288	2
NMTAP	35	288	4
NMSTR	36	0	5
NMSI_	36	0	5	96	96	0
NMSTR	36	192	1
NMSI_	36	192	1	96	96	4
NMTAP	37	0	5
NMTAP	37	96	5
NMTAP	37	192	3
NMTAP	37	192	6
NMTAP	38	0	4
NMTAP	38	0	5
NMTAP	38	96	4
NMTAP	38	96	5
NMTAP	38	192	5
NMTAP	38	192	7
NMTAP	38	288	5
NMTAP	38	288	7
NMTAP	39	0	5
NMTAP	39	0	6
NMTAP	39	96	4
NMTAP	39	96	5
NMTAP	39	192	3
NMTAP	39	192	5
NMTAP	39	288	2
NMTAP	39	288	6
NMHLD	40	0	1	96
NMHLD	40	96	3	96
NMHLD	40	192	4	96
NMSTR	40	288	6
NMSI_	40	288	6	96	96	2
BRTAP	41	192	0
BRTAP	41	192	1
NMHLD	42	0	2	96
NMHLD	42	0	7	96
NMHLD	42	192	0	96
NMHLD	42	192	5	96
NMHLD	43	0	4	96
NMHLD	43	0	6	96
NMHLD	43	192	1	96
NMHLD	43	192	3	96
NMTAP	44	0	2
NMTAP	44	0	3
NMTAP	44	96	1
NMTAP	44	192	0
NMTAP	44	192	7
NMTAP	44	288	6
NMTAP	45	0	4
NMTAP	45	0	5
NMTAP	45	96	4
NMTAP	45	96	5
BXTAP	45	192	2
BXTAP	45	192	6
NMTAP	46	0	4
NMTAP	46	0	5
NMTAP	46	96	4
NMTAP	46	96	5
NMTAP	46	192	6
NMTAP	46	192	7
NMTAP	46	288	0
NMTAP	46	288	1
NMTAP	47	0	0
NMSTR	47	0	1
NMSUL	47	0	1	96	144	4
NMTAP	47	288	6
NMTAP	47	336	6
NMTAP	48	0	4
NMTAP	48	96	4
NMTAP	48	96	5
NMTAP	48	192	2
NMTAP	48	192	3
NMTAP	48	288	0
NMTAP	48	288	1
NMSTR	49	0	0
NMSLR	49	0	0	96	144	4
NMTAP	49	0	1
NMTAP	49	288	7
NMTAP	49	336	7
NMTAP	50	0	6
NMTAP	50	96	0
NMTAP	50	96	5
NMTAP	50	192	2
NMTAP	50	192	7
NMTAP	50	288	1
NMTAP	50	288	4
NMHLD	51	0	3	192
NMSTR	51	0	6
NMSI_	51	0	6	96	96	1
NMTAP	51	288	0
NMTAP	51	288	3
NMTAP	52	0	1
NMTAP	52	0	2
NMTAP	52	96	3
NMTAP	52	96	4
NMTAP	52	192	5
NMTAP	52	192	6
NMTAP	52	288	0
NMTAP	52	288	7
NMTAP	53	0	2
EXTAP	53	96	1
EXTAP	53	96	3
NMTAP	53	192	5
NMTAP	53	240	5
EXTAP	53	288	4
NMTAP	54	0	4
NMHLD	54	0	6	96
NMTAP	54	96	7
NMHLD	54	192	1	96
NMTAP	54	192	3
NMTAP	54	288	0
NMHLD	55	0	2	192
NMSTR	55	0	7
NMSCL	55	0	7	96	96	3
NMTAP	55	288	1
NMTAP	56	0	0
NMHLD	56	0	1	96
NMTAP	56	96	3
NMTAP	56	192	4
NMHLD	56	192	6	96
NMTAP	56	288	7
NMHLD	57	0	0	192
NMSTR	57	0	5
NMSCL	57	0	5	96	96	2
NMTAP	57	288	1
NMTAP	58	0	1
NMTAP	58	0	3
NMTAP	58	96	2
NMTAP	58	192	4
NMTAP	58	192	6
NMTAP	58	288	5
NMTAP	59	0	2
NMTAP	59	0	3
NMTAP	59	96	0
NMTAP	59	96	1
NMHLD	59	192	6	144
NMTAP	59	192	7
NMTAP	59	336	4
NMTAP	60	0	4
NMTAP	60	96	6
NMTAP	60	96	7
NMTAP	60	192	0
NMTAP	60	192	1
NMTAP	60	288	2
NMTAP	60	288	3
NMTAP	61	0	4
NMTAP	61	0	5
NMTAP	61	96	6
NMTAP	61	96	7
BXTAP	61	192	1
BXTAP	61	192	5
NMHLD	62	0	2	384
NMTTP	62	192	4	B	0	M1
NMTTP	62	192	4	E	0	M1
NMTAP	63	0	3
NMTAP	63	96	3
EXTAP	63	192	2
NMHLD	64	0	1	384
NMTAP	64	0	3
NMTTP	64	192	0	C	0	M1
NMTTP	64	192	2	B	0	M1
NMTTP	64	192	3	B	0	M1
NMTAP	65	0	0
NMTAP	65	96	0
EXTAP	65	192	1
EXTAP	65	192	7
NMTAP	66	0	0
NMHLD	66	0	6	384
NMTTP	66	192	0	C	0	M1
NMTTP	66	192	4	B	0	M1
NMTTP	66	192	5	B	0	M1
NMTAP	67	0	7
NMTAP	67	96	7
EXTAP	67	192	6
NMTAP	68	0	4
NMHLD	68	0	5	576
NMTTP	68	192	5	B	0	M1
NMTTP	68	192	5	E	0	M1
NMTAP	69	0	4
NMTAP	69	96	3
BRTAP	69	192	2
NMTAP	70	0	5
NMTAP	70	96	5
NMSTR	70	192	4
NMSUL	70	192	4	96	96	0
NMTAP	70	192	5
NMHLD	71	0	6	96
NMTAP	71	96	0
NMHLD	71	144	0	96
NMTAP	71	240	3
NMTAP	71	288	3
NMTAP	72	0	1
NMTAP	72	0	4
NMTAP	72	96	1
NMTAP	72	96	4
NMTAP	72	192	2
NMTAP	72	240	2
NMTAP	72	288	3
NMSTR	73	0	2
NMSI_	73	0	2	96	96	5
NMTAP	73	0	4
NMTAP	73	192	6
NMTAP	73	288	6
NMSTR	74	0	4
NMSCL	74	0	4	96	144	1
NMTAP	74	0	5
NMTAP	74	288	4
NMTAP	75	0	1
NMSTR	75	0	3
NMSCR	75	0	3	96	144	6
NMTAP	75	288	3
NMSTR	76	0	2
NMSI_	76	0	2	96	96	7
NMSTR	76	0	6
NMSI_	76	0	6	96	96	3
EXTAP	76	288	0
EXTAP	76	288	4
NMTAP	77	0	1
NMTAP	77	0	3
NMTAP	77	96	4
NMTAP	77	96	6
BRTAP	77	192	0
BRTAP	77	192	7
BRSTR	78	0	2
NMSXL	78	0	2	96	480	5
NMHLD	78	0	4	1248
NMTAP	79	288	6
BRSTR	80	0	6
NMSV_	80	0	6	96	216	4
CNSI_	80	312	4	0	168	2
NMTAP	81	192	2
NMTAP	81	192	4
NMTAP	81	288	2
NMTAP	81	288	4
EXSTR	82	0	1
NMSI_	82	0	1	96	192	6
EXSTR	82	0	5
NMSI_	82	0	5	96	192	2
EXSTR	83	0	0
NMSI_	83	0	0	96	192	3
EXSTR	83	0	4
NMSI_	83	0	4	96	192	7
NMTAP	84	0	4
BRTAP	84	0	6
NMTAP	84	192	1
BRTAP	84	192	3
BXTAP	85	0	0
EXTAP	85	0	7
BXTAP	85	96	1
EXTAP	85	96	6
BXTAP	85	192	2
EXTAP	85	192	5
NMTTP	86	0	3	E	0	M1
NMTTP	86	192	2	E	0	M1
NMTTP	87	0	1	E	0	M1
NMTTP	87	192	0	E	0	M1
NMTTP	88	0	7	E	0	M1
NMTTP	88	192	6	E	0	M1
NMTTP	89	0	5	E	0	M1
NMTTP	89	192	0	C	0	M1
NMTTP	89	192	4	E	0	M1
NMTAP	90	0	1
NMHLD	90	96	1	96
NMTAP	90	192	2
NMHLD	90	288	2	96
NMTAP	91	0	3
NMHLD	91	96	3	96
NMTAP	91	192	4
NMHLD	91	288	4	96
NMTAP	92	0	5
NMHLD	92	96	5	96
NMTAP	92	192	6
NMHLD	92	288	6	96
NMTAP	93	0	7
NMHLD	93	96	7	96
NMTAP	93	192	0
NMTAP	93	288	0
NMSTR	94	0	1
NMSI_	94	0	1	96	288	5
NMSTR	94	0	6
NMSI_	94	0	6	96	288	2
EXTAP	95	288	0
EXTAP	95	288	7
NMTAP	96	0	0
NMTAP	96	0	1
NMTAP	96	96	5
NMTAP	96	96	6
NMTAP	96	192	1
NMTAP	96	192	3
NMTAP	96	288	5
NMTAP	96	336	5
NMTAP	97	0	4
NMTAP	97	48	4
NMSTR	97	96	6
NMSI_	97	96	6	96	48	2
NMTAP	97	288	1
NMTAP	97	288	3
EXTAP	98	0	0
EXTAP	98	48	7
EXTAP	98	96	0
EXTAP	98	96	7
NMTAP	98	192	1
NMTAP	98	192	2
NMTAP	98	288	4
NMTAP	98	288	5
NMTAP	98	336	4
NMTAP	98	336	5
EXTAP	99	48	6
EXTAP	99	96	7
EXTAP	99	144	0
EXTAP	99	144	5
NMTAP	99	240	2
NMTAP	99	240	7
NMTAP	99	288	2
NMTAP	99	288	7
NMHLD	100	0	0	48
NMHLD	100	0	1	48
NMHLD	100	96	6	48
NMHLD	100	96	7	48
NMTAP	100	192	4
NMTAP	100	192	5
NMTAP	100	288	2
NMTAP	100	288	3
NMTAP	100	336	2
NMTAP	100	336	3
NMTAP	101	48	0
NMTAP	101	48	1
NMSTR	101	96	0
NMSUR	101	96	0	96	96	5
NMSTR	101	96	1
NMSCR	101	96	1	96	96	4
EXTAP	102	0	6
EXTAP	102	48	6
EXTAP	102	120	4
EXTAP	102	120	5
EXTAP	102	192	3
EXTAP	102	192	4
EXTAP	102	264	2
EXTAP	102	264	3
EXHLD	102	336	1	96
NMTAP	103	48	3
NMTAP	103	96	3
NMTAP	103	144	2
NMTAP	103	144	4
NMTAP	103	240	0
NMTAP	103	240	7
BRTAP	103	288	0
BRTAP	103	288	7
NMTAP	104	0	6
NMTAP	104	48	6
NMTAP	104	96	5
NMTAP	104	96	7
NMSTR	104	192	6
NMSI_	104	192	6	96	48	4
NMSTR	104	288	0
NMSI_	104	288	0	96	48	2
NMSTR	105	0	7
NMSI_	105	0	7	96	48	3
EXTAP	105	96	1
NMTAP	105	192	2
NMTAP	105	192	4
NMTAP	105	288	2
NMTAP	105	288	4
NMTAP	106	0	1
NMTAP	106	48	1
NMTAP	106	96	0
NMTAP	106	96	2
NMSTR	106	192	1
NMSI_	106	192	1	96	48	3
NMSTR	106	288	7
NMSI_	106	288	7	96	48	5
NMSTR	107	0	0
NMSI_	107	0	0	96	48	4
NMHLD	107	96	6	192
EXTAP	107	240	4
EXTAP	107	288	4
NMTAP	108	0	5
NMTAP	108	96	6
NMTAP	108	96	7
NMTAP	108	192	0
NMTAP	108	192	1
NMTAP	108	288	2
NMTAP	108	288	3
NMTAP	109	0	4
NMTAP	109	0	5
NMTAP	109	96	6
NMTAP	109	96	7
NMTAP	109	192	0
NMTAP	109	192	1
NMTAP	109	288	2
NMTAP	109	288	3
EXHLD	110	0	2	72
EXHLD	110	72	0	72
EXHLD	110	144	7	72
EXHLD	110	216	5	72
EXTAP	110	288	4
EXTAP	110	336	4
NMTAP	111	48	3
NMTAP	111	96	4
NMSTR	111	144	2
NMSI_	111	144	2	96	72	7
NMSTR	111	144	5
NMSI_	111	144	5	96	72	0
BXTAP	112	0	1
BXTAP	112	0	6
NMTAP	116	0	7
NMTAP	116	96	7
NMSTR	116	192	7
NMSI_	116	192	7	96	96	4
NMTAP	117	0	0
NMTAP	117	96	1
NMSTR	117	144	1
NMSCR	117	144	1	96	144	4
NMTAP	118	0	5
NMTAP	118	96	4
NMTAP	118	96	5
NMTAP	118	192	2
NMTAP	118	192	3
BRSTR	118	288	3
BRSV_	118	288	3	96	48	0
NMSTR	118	288	4
NMSI_	118	288	4	96	48	7

T_REC_TAP	314
T_REC_BRK	11
T_REC_XTP	44
T_REC_BXX	10
T_REC_HLD	46
T_REC_XHO	6
T_REC_BHO	0
T_REC_BXH	0
T_REC_STR	37
T_REC_BST	3
T_REC_XST	7
T_REC_XBS	1
T_REC_TTP	21
T_REC_THO	0
T_REC_SLD	47
T_REC_BSL	1
T_REC_ALL	548
T_NUM_TAP	423
T_NUM_BRK	26
T_NUM_HLD	52
T_NUM_SLD	47
T_NUM_ALL	548
T_JUDGE_TAP	448
T_JUDGE_HLD	195
T_JUDGE_SLD	48
T_JUDGE_ALL	691
TTM_EACHPAIRS	149
TTM_SCR_TAP	211500
TTM_SCR_BRK	67600
TTM_SCR_HLD	52000
TTM_SCR_SLD	70500
TTM_SCR_ALL	401600
TTM_SCR_S	387050
TTM_SCR_SS	399000
TTM_RAT_ACV	10065

