VERSION	0.00.00	1.05.00
FES_MODE	0
BPM_DEF	130.000	222.000	222.000	130.000
MET_DEF	4	4
RESOLUTION	384
CLK_DEF	384
COMPATIBLE_CODE	MA2

BPM	0	0	130.000
BPM	10	0	222.000
BPM	116	0	130.000
MET	0	0	4	4

NMHLD	2	0	5	192
NMTAP	2	192	4
NMHLD	3	0	2	192
NMTAP	3	192	3
NMHLD	4	0	5	192
NMTAP	4	192	4
NMHLD	5	0	2	192
NMTAP	5	192	3
NMTAP	6	0	4
NMTAP	6	96	4
NMTAP	6	192	4
NMTAP	7	0	3
NMTAP	7	96	3
NMTAP	7	192	3
NMTAP	8	0	4
NMTAP	8	96	4
NMTAP	8	192	3
NMTAP	8	192	4
NMHLD	8	288	3	288
NMHLD	8	288	4	288
EXTAP	10	0	3
EXTAP	10	96	3
EXTAP	10	192	3
NMTAP	11	0	2
NMTAP	11	96	2
NMTAP	11	192	2
NMTAP	12	0	1
NMTAP	12	96	1
NMTAP	12	192	1
NMTAP	13	0	0
NMTAP	13	0	7
NMTAP	13	192	0
NMTAP	13	192	7
NMTAP	14	0	7
NMTAP	14	96	7
NMTAP	14	192	7
NMTAP	15	0	6
NMTAP	15	96	6
NMTAP	15	192	6
NMTAP	16	0	5
NMTAP	16	96	5
NMTAP	16	192	5
NMTAP	17	0	3
NMTAP	17	0	4
NMTAP	17	192	3
NMTAP	17	192	4
NMTAP	18	0	5
NMTAP	18	96	5
NMTAP	18	192	4
NMTAP	18	192	5
NMTAP	19	0	6
NMTAP	19	96	6
NMTAP	19	192	6
NMTAP	19	192	7
NMTAP	20	0	0
NMTAP	20	96	0
NMTAP	20	192	0
NMTAP	20	192	1
NMTAP	21	0	2
NMTAP	21	0	3
NMTAP	21	96	2
NMTAP	21	96	3
NMTAP	21	192	2
NMTAP	21	192	3
NMTAP	22	0	2
NMTAP	22	96	2
NMTAP	22	192	2
NMTAP	22	192	3
NMTAP	23	0	1
NMTAP	23	96	1
NMTAP	23	192	0
NMTAP	23	192	1
NMTAP	24	0	7
NMTAP	24	96	7
NMTAP	24	192	6
NMTAP	24	192	7
NMTAP	25	0	4
NMTAP	25	0	5
NMTAP	25	96	4
NMTAP	25	96	5
NMTAP	25	192	4
NMTAP	25	192	5
EXSTR	26	0	3
NMSXR	26	0	3	96	1056	4
NMTAP	30	0	5
NMTAP	30	96	5
NMTAP	30	192	6
NMTAP	30	288	6
NMTAP	31	0	7
NMTAP	31	96	7
NMTAP	31	192	0
NMTAP	31	192	1
NMTAP	32	0	2
NMTAP	32	96	2
NMTAP	32	192	1
NMTAP	32	288	1
NMTAP	33	0	0
NMTAP	33	96	0
NMTAP	33	192	6
NMTAP	33	192	7
NMTAP	34	0	6
NMTAP	34	96	6
NMTAP	34	192	5
NMTAP	34	288	5
NMTAP	35	0	4
NMTAP	35	96	4
NMTAP	35	192	2
NMTAP	35	192	3
NMTAP	36	0	1
NMTAP	36	96	1
NMTAP	36	192	2
NMTAP	36	288	2
NMTAP	37	0	3
NMTAP	37	96	3
BXTAP	37	192	4
BXTAP	37	192	5
NMTAP	38	0	5
NMTAP	38	96	5
NMTAP	38	192	6
NMTAP	38	288	6
NMTAP	39	0	7
NMTAP	39	96	7
NMTAP	39	192	0
NMTAP	39	192	1
NMTAP	39	288	0
NMTAP	39	288	1
NMTAP	40	0	2
NMTAP	40	96	2
NMTAP	40	192	1
NMTAP	40	288	1
NMTAP	41	0	0
NMTAP	41	96	0
NMTAP	41	192	6
NMTAP	41	192	7
NMTAP	42	0	6
NMTAP	42	96	6
NMTAP	42	192	5
NMTAP	42	288	5
NMTAP	43	0	4
NMTAP	43	96	4
NMTAP	43	192	2
NMTAP	43	192	3
NMTAP	43	288	2
NMTAP	43	288	3
NMTAP	44	0	1
NMTAP	44	96	1
NMTAP	44	192	2
NMTAP	44	288	2
NMTAP	45	0	3
NMTAP	45	96	3
BXTAP	45	192	4
BXTAP	45	192	5
NMTAP	46	0	5
NMTAP	46	96	5
NMTAP	46	192	6
NMTAP	46	192	7
NMTAP	46	288	6
NMTAP	46	288	7
NMTAP	47	0	0
NMTAP	47	96	0
NMTAP	47	192	0
NMTAP	47	192	1
NMTAP	48	0	2
NMTAP	48	96	2
NMTAP	48	192	0
NMTAP	48	192	1
NMTAP	48	288	0
NMTAP	48	288	1
NMTAP	49	0	7
NMTAP	49	96	7
NMTAP	49	192	6
NMTAP	49	192	7
NMTAP	50	0	6
NMTAP	50	96	6
NMTAP	50	192	4
NMTAP	50	192	5
NMTAP	50	288	4
NMTAP	50	288	5
NMTAP	51	0	3
NMTAP	51	96	3
NMTAP	51	192	2
NMTAP	51	192	3
NMTAP	52	0	1
NMTAP	52	96	1
NMTAP	52	192	2
NMTAP	52	192	3
NMTAP	52	288	2
NMTAP	52	288	3
NMTAP	53	0	4
NMTAP	53	96	4
NMTAP	53	192	4
NMTAP	53	192	5
NMTAP	54	0	6
NMTAP	54	96	6
NMTAP	54	192	6
NMTAP	54	288	6
NMTAP	54	288	7
NMTAP	55	0	5
NMTAP	55	96	5
NMTAP	55	192	5
NMTAP	55	288	4
NMTAP	55	288	5
NMTAP	56	0	3
NMTAP	56	96	3
NMTAP	56	192	3
NMTAP	56	288	2
NMTAP	56	288	3
NMTAP	57	0	1
NMTAP	57	96	1
NMTAP	57	192	0
NMTAP	57	192	1
NMTAP	58	0	1
NMTAP	58	96	1
NMTAP	58	192	1
NMTAP	58	288	0
NMTAP	58	288	1
NMTAP	59	0	2
NMTAP	59	96	2
NMTAP	59	192	2
NMTAP	59	288	2
NMTAP	59	288	3
NMTAP	60	0	4
NMTAP	60	96	4
NMTAP	60	192	4
NMTAP	60	288	4
NMTAP	60	288	5
NMTAP	61	0	6
NMTAP	61	96	6
BXTAP	61	192	6
BXTAP	61	192	7
NMHLD	62	0	5	192
NMHLD	62	192	4	192
NMHLD	63	0	3	192
NMTAP	63	192	2
NMHLD	64	0	2	192
NMHLD	64	192	3	192
NMHLD	65	0	4	192
NMTAP	65	192	5
NMHLD	66	0	6	192
NMHLD	66	192	5	192
NMHLD	67	0	4	192
NMTAP	67	192	3
NMHLD	68	0	1	192
NMHLD	68	192	2	192
NMHLD	69	0	3	192
NMTAP	69	192	4
NMTTP	70	0	6	B	0	L1
NMTTP	70	192	5	B	0	L1
NMTTP	71	0	4	B	0	L1
NMTTP	72	0	1	B	0	L1
NMTTP	72	192	2	B	0	L1
NMTTP	73	0	3	B	0	L1
NMTTP	74	0	6	B	0	L1
NMTTP	74	192	5	B	0	L1
NMTTP	75	0	4	B	0	L1
NMTTP	75	192	3	B	0	L1
NMTTP	76	0	2	B	0	L1
NMTTP	76	192	1	B	0	L1
NMTTP	77	0	0	C	1	L1
NMTAP	78	0	7
NMTAP	78	96	7
NMTAP	78	192	6
NMTAP	78	288	6
NMTAP	79	0	5
NMTAP	79	96	5
NMTAP	79	192	3
NMTAP	79	192	4
NMTAP	80	0	3
NMTAP	80	96	3
NMTAP	80	192	2
NMTAP	80	288	2
NMTAP	81	0	1
NMTAP	81	96	1
NMTAP	81	192	0
NMTAP	81	192	7
NMTAP	82	0	0
NMTAP	82	96	0
NMTAP	82	192	1
NMTAP	82	288	1
NMTAP	83	0	2
NMTAP	83	96	2
NMTAP	83	192	3
NMTAP	83	192	4
NMTAP	84	0	4
NMTAP	84	96	4
NMTAP	84	192	5
NMTAP	84	288	5
NMTAP	85	0	6
NMTAP	85	96	6
NMTAP	85	192	0
NMTAP	85	192	7
NMSTR	86	0	1
NMSI_	86	0	1	96	288	5
NMTAP	87	192	6
NMSTR	88	0	6
NMSI_	88	0	6	96	288	2
NMTAP	89	192	1
NMSTR	90	0	0
NMSI_	90	0	0	96	288	4
NMTAP	91	192	5
NMSTR	92	0	6
NMSUL	92	0	6	96	672	3
NMTAP	95	0	2
NMTAP	95	0	3
NMTAP	96	0	2
NMTAP	96	96	2
NMTAP	96	192	0
NMTAP	96	192	1
NMTAP	96	288	0
NMTAP	96	288	1
NMTAP	97	0	7
NMTAP	97	96	7
NMTAP	97	192	6
NMTAP	97	192	7
NMTAP	97	288	6
NMTAP	97	288	7
NMTAP	98	0	5
NMTAP	98	96	5
NMTAP	98	192	6
NMTAP	98	192	7
NMTAP	98	288	6
NMTAP	98	288	7
NMTAP	99	0	0
NMTAP	99	96	0
NMTAP	99	192	0
NMTAP	99	192	1
NMTAP	100	0	1
NMTAP	100	96	1
NMTAP	100	192	2
NMTAP	100	192	3
NMTAP	100	288	2
NMTAP	100	288	3
NMTAP	101	0	4
NMTAP	101	96	4
NMTAP	101	192	4
NMTAP	101	192	5
NMTAP	101	288	4
NMTAP	101	288	5
NMTAP	102	0	6
NMTAP	102	96	6
NMTAP	102	192	4
NMTAP	102	192	5
NMTAP	102	288	4
NMTAP	102	288	5
NMTAP	103	0	3
NMTAP	103	96	3
NMTAP	103	192	2
NMTAP	103	192	3
NMTAP	104	0	0
NMTAP	104	0	1
NMTAP	104	96	0
NMTAP	104	96	1
NMTAP	104	192	2
NMTAP	104	288	2
NMTAP	105	0	3
NMTAP	105	0	4
NMTAP	105	96	3
NMTAP	105	96	4
NMTAP	105	192	5
NMTAP	105	288	5
NMTAP	106	0	6
NMTAP	106	0	7
NMTAP	106	96	6
NMTAP	106	96	7
NMTAP	106	192	5
NMTAP	106	288	5
NMTAP	107	0	3
NMTAP	107	0	4
NMTAP	107	96	3
NMTAP	107	96	4
NMTAP	107	192	2
NMTAP	107	192	5
NMTAP	108	0	4
NMTAP	108	0	5
NMTAP	108	96	4
NMTAP	108	96	5
NMTAP	108	192	6
NMTAP	108	288	6
NMTAP	109	0	0
NMTAP	109	0	7
NMTAP	109	96	0
NMTAP	109	96	7
NMTAP	109	192	1
NMTAP	109	288	1
NMTAP	110	0	2
NMTAP	110	0	3
NMTAP	110	96	2
NMTAP	110	96	3
NMTAP	110	192	1
NMTAP	110	288	1
NMTAP	111	0	0
NMTAP	111	0	7
NMTAP	111	96	0
NMTAP	111	96	7
NMTAP	111	192	1
NMTAP	111	192	6
NMSTR	112	0	0
NMSXL	112	0	0	96	864	3
NMSTR	112	0	7
NMSXR	112	0	7	96	864	4
EXTAP	116	0	2
EXTAP	116	96	2
EXTAP	116	192	2
EXTAP	116	192	3
EXTAP	117	0	5
EXTAP	117	96	5
EXTAP	117	192	4
EXTAP	117	192	5
NMTAP	118	0	3
NMTAP	118	0	4
NMTAP	118	96	3
NMTAP	118	96	4
NMTAP	118	192	2
NMTAP	118	192	5
NMTAP	118	288	2
NMTAP	118	288	5
BRTAP	119	0	1
BRTAP	119	0	6

T_REC_TAP	354
T_REC_BRK	2
T_REC_XTP	11
T_REC_BXX	6
T_REC_HLD	18
T_REC_XHO	0
T_REC_BHO	0
T_REC_BXH	0
T_REC_STR	6
T_REC_BST	0
T_REC_XST	1
T_REC_XBS	0
T_REC_TTP	13
T_REC_THO	0
T_REC_SLD	7
T_REC_BSL	0
T_REC_ALL	418
T_NUM_TAP	385
T_NUM_BRK	8
T_NUM_HLD	18
T_NUM_SLD	7
T_NUM_ALL	418
T_JUDGE_TAP	393
T_JUDGE_HLD	76
T_JUDGE_SLD	7
T_JUDGE_ALL	476
TTM_EACHPAIRS	93
TTM_SCR_TAP	192500
TTM_SCR_BRK	20800
TTM_SCR_HLD	18000
TTM_SCR_SLD	10500
TTM_SCR_ALL	241800
TTM_SCR_S	233800
TTM_SCR_SS	241000
TTM_RAT_ACV	10033

