VERSION	0.00.00	1.05.00
FES_MODE	0
BPM_DEF	130.000	222.000	222.000	130.000
MET_DEF	4	4
RESOLUTION	384
CLK_DEF	384
COMPATIBLE_CODE	MA2

BPM	0	0	130.000
BPM	10	0	222.000
BPM	116	0	130.000
MET	0	0	4	4

NMTAP	6	0	0
NMTAP	6	192	0
NMTAP	7	0	0
NMTAP	8	0	7
NMTAP	8	192	7
EXTAP	9	0	0
EXTAP	9	0	7
EXTAP	10	0	0
NMTAP	10	192	0
EXTAP	11	0	0
NMTAP	12	0	1
NMTAP	13	0	1
NMTAP	14	0	2
NMTAP	14	192	2
NMTAP	15	0	2
NMTAP	16	0	3
NMTAP	16	0	4
NMTAP	17	0	3
NMTAP	17	0	4
NMTAP	18	0	4
NMTAP	18	192	4
NMTAP	19	0	4
NMTAP	20	0	5
NMTAP	21	0	5
NMTAP	22	0	6
NMTAP	22	192	6
NMTAP	23	0	6
NMTAP	24	0	0
NMTAP	24	0	7
NMTAP	25	0	0
NMTAP	25	0	7
EXHLD	26	0	0	1152
EXHLD	26	0	7	1152
NMTAP	30	0	7
NMTAP	30	192	7
NMTAP	31	0	6
NMTAP	31	192	6
NMTAP	32	0	5
NMTAP	32	192	5
EXTAP	33	0	3
EXTAP	33	0	4
NMTAP	34	0	3
NMTAP	34	192	3
NMTAP	35	0	2
NMTAP	35	192	2
NMTAP	36	0	1
NMTAP	36	192	1
EXTAP	37	0	0
EXTAP	37	0	7
NMHLD	38	0	0	192
NMHLD	38	0	1	192
NMTAP	39	0	0
NMTAP	39	0	1
NMHLD	40	0	2	192
NMHLD	40	0	3	192
NMTAP	41	0	2
NMTAP	41	0	3
NMHLD	42	0	4	192
NMHLD	42	0	5	192
NMTAP	43	0	4
NMTAP	43	0	5
NMHLD	44	0	6	192
NMHLD	44	0	7	192
NMTAP	45	0	6
NMTAP	45	0	7
NMTAP	46	0	7
NMTAP	46	192	7
NMTAP	47	0	6
NMTAP	47	0	7
NMTAP	47	192	6
NMTAP	47	192	7
NMTAP	48	0	5
NMTAP	48	192	5
NMTAP	49	0	3
NMTAP	49	0	4
NMTAP	50	0	3
NMTAP	50	192	3
NMTAP	51	0	2
NMTAP	51	0	3
NMTAP	51	192	2
NMTAP	51	192	3
NMTAP	52	0	1
NMTAP	52	192	1
NMTAP	53	0	0
NMTAP	53	0	7
NMTAP	54	0	0
NMTAP	54	96	0
NMTAP	54	192	0
NMTAP	55	0	1
NMTAP	55	192	1
NMTAP	56	0	2
NMTAP	56	96	2
NMTAP	56	192	2
NMTAP	57	0	3
NMTAP	57	0	4
NMTAP	58	0	4
NMTAP	58	96	4
NMTAP	58	192	4
NMTAP	59	0	5
NMTAP	59	192	5
NMTAP	60	0	6
NMTAP	60	96	6
NMTAP	60	192	6
BRTAP	61	0	0
BRTAP	61	0	7
NMSTR	62	0	7
NMSI_	62	0	7	96	288	3
NMSTR	64	0	0
NMSI_	64	0	0	96	288	4
NMSTR	66	0	6
NMSI_	66	0	6	96	288	2
NMSTR	68	0	1
NMSI_	68	0	1	96	288	5
NMTTP	70	0	7	E	0	L1
NMTTP	71	0	6	E	0	L1
NMTTP	72	0	5	E	0	L1
NMTTP	73	0	4	E	0	L1
NMTTP	74	0	3	E	0	L1
NMTTP	75	0	2	E	0	L1
NMTTP	76	0	1	E	0	L1
NMTTP	77	0	0	C	0	L1
BRTAP	78	0	7
NMTAP	78	192	0
NMTAP	79	0	1
NMTAP	79	192	1
NMTAP	80	0	2
NMTAP	80	0	3
NMTAP	80	192	2
NMTAP	80	192	3
NMTAP	81	0	2
NMTAP	81	0	3
NMTAP	82	0	4
NMTAP	82	192	4
NMTAP	83	0	5
NMTAP	83	192	5
NMTAP	84	0	6
NMTAP	84	0	7
NMTAP	84	192	6
NMTAP	84	192	7
NMTAP	85	0	6
NMTAP	85	0	7
NMSTR	86	0	6
NMSI_	86	0	6	96	288	2
NMSTR	88	0	1
NMSI_	88	0	1	96	288	5
NMSTR	90	0	6
NMSI_	90	0	6	96	288	3
NMSTR	92	0	1
NMSI_	92	0	1	96	288	4
EXTAP	94	0	7
EXTAP	95	0	0
EXTAP	95	0	7
BRTAP	96	0	0
NMTAP	96	96	0
NMTAP	96	192	0
NMTAP	97	0	1
NMTAP	97	96	1
NMTAP	97	192	1
NMTAP	98	0	2
NMTAP	98	96	2
NMTAP	98	192	2
NMTAP	99	0	3
NMTAP	99	0	4
NMTAP	99	192	3
NMTAP	99	192	4
NMTAP	100	0	4
NMTAP	100	96	4
NMTAP	100	192	4
NMTAP	101	0	5
NMTAP	101	96	5
NMTAP	101	192	5
NMTAP	102	0	6
NMTAP	102	96	6
NMTAP	102	192	6
NMTAP	103	0	0
NMTAP	103	0	7
NMTAP	104	0	7
NMTAP	104	96	7
NMTAP	104	192	7
NMTAP	105	0	6
NMTAP	105	96	6
NMTAP	105	192	6
NMTAP	105	192	7
NMTAP	106	0	5
NMTAP	106	96	5
NMTAP	106	192	5
NMTAP	107	0	4
NMTAP	107	96	4
NMTAP	107	192	3
NMTAP	107	192	4
NMTAP	108	0	3
NMTAP	108	96	3
NMTAP	108	192	3
NMTAP	109	0	2
NMTAP	109	96	2
NMTAP	109	192	2
EXTAP	110	0	1
EXTAP	110	96	1
EXTAP	110	192	1
EXTAP	111	0	0
EXTAP	111	96	0
EXTAP	111	192	0
EXHLD	112	0	0	1536
EXHLD	112	0	7	1536
NMTTP	117	0	0	E	0	L1
NMTTP	118	0	0	B	0	L1
NMTTP	118	0	7	B	0	L1
NMTTP	119	0	0	C	1	L1

T_REC_TAP	147
T_REC_BRK	4
T_REC_XTP	17
T_REC_BXX	0
T_REC_HLD	8
T_REC_XHO	4
T_REC_BHO	0
T_REC_BXH	0
T_REC_STR	8
T_REC_BST	0
T_REC_XST	0
T_REC_XBS	0
T_REC_TTP	12
T_REC_THO	0
T_REC_SLD	8
T_REC_BSL	0
T_REC_ALL	208
T_NUM_TAP	184
T_NUM_BRK	4
T_NUM_HLD	12
T_NUM_SLD	8
T_NUM_ALL	208
T_JUDGE_TAP	188
T_JUDGE_HLD	144
T_JUDGE_SLD	8
T_JUDGE_ALL	340
TTM_EACHPAIRS	37
TTM_SCR_TAP	92000
TTM_SCR_BRK	10400
TTM_SCR_HLD	12000
TTM_SCR_SLD	12000
TTM_SCR_ALL	126400
TTM_SCR_S	122250
TTM_SCR_SS	126000
TTM_RAT_ACV	10031

