VERSION	0.00.00	1.05.00
FES_MODE	0
BPM_DEF	127.000	127.000	127.000	127.000
MET_DEF	4	4
RESOLUTION	384
CLK_DEF	384
COMPATIBLE_CODE	MA2

BPM	0	0	127.000
MET	0	0	4	4

NMHLD	1	0	2	192
NMHLD	1	192	3	192
NMHLD	2	0	4	192
NMSTR	2	192	5
NMSCR	2	192	5	96	96	0
NMHLD	3	0	1	192
NMTAP	3	240	7
NMTAP	3	256	0
NMTAP	3	272	7
BRTAP	3	288	1
BRTAP	3	288	6
EXTAP	4	0	4
EXTAP	4	0	5
EXTAP	4	72	1
EXTAP	4	72	2
EXTAP	4	144	6
EXTAP	4	144	7
EXSTR	4	192	6
NMSCL	4	192	6	96	48	3
EXSTR	4	192	7
NMSCR	4	192	7	96	48	2
BXTAP	4	288	6
BXTAP	4	288	7
NMTAP	5	0	0
NMTAP	5	24	0
NMHLD	5	72	1	72
NMTAP	5	72	7
NMTAP	5	144	3
NMTAP	5	192	5
NMTAP	5	216	5
NMTAP	5	264	4
NMHLD	5	264	6	72
NMTAP	5	336	7
NMTAP	6	0	1
NMTAP	6	24	1
NMTAP	6	72	0
NMHLD	6	72	2	72
NMTAP	6	144	3
NMSTR	6	192	1
NMSCR	6	192	1	96	48	4
NMTAP	6	192	4
NMTAP	6	240	0
NMTAP	6	240	5
NMTAP	6	288	6
NMTAP	7	0	7
NMTAP	7	24	7
NMTAP	7	72	0
NMHLD	7	72	6	72
NMTAP	7	144	4
NMTAP	7	192	2
NMTAP	7	216	2
NMHLD	7	264	1	72
NMTAP	7	264	3
NMTAP	7	336	0
NMTAP	8	0	2
NMSTR	8	0	7
NMSI_	8	0	7	96	48	3
NMTAP	8	48	6
NMSTR	8	96	1
NMSI_	8	96	1	96	48	5
NMTAP	8	144	0
EXSTR	8	192	6
NMSCL	8	192	6	96	48	3
NMSTR	8	288	2
NMSUR	8	288	2	96	192	4
EXTAP	8	288	6
EXTAP	9	0	2
BRTAP	9	0	7
NMTAP	9	192	5
NMSTR	9	288	2
NMSCR	9	288	2	96	48	5
NMTAP	9	288	4
BRTAP	10	0	2
NMSTR	10	0	6
NMSI_	10	0	6	96	48	2
NMSTR	10	96	1
NMSCL	10	96	1	96	48	6
BRTAP	10	96	6
BRTAP	10	192	1
NMTAP	10	192	3
BRTAP	10	288	1
BRTAP	10	288	5
NMHLD	11	0	4	72
NMHLD	11	72	5	72
NMTAP	11	144	6
NMHLD	11	192	0	72
NMHLD	11	264	1	72
NMTAP	11	336	2
NMHLD	12	0	4	72
NMHLD	12	72	5	72
NMTAP	12	144	6
NMHLD	12	192	0	96
NMTTP	12	240	2	B	0	M1
NMTTP	12	240	3	B	0	M1
NMTTP	12	288	3	A	0	M1
NMTTP	12	288	3	D	0	M1
NMHLD	13	0	7	72
NMHLD	13	72	6	72
NMTAP	13	144	5
NMHLD	13	192	1	72
NMHLD	13	264	2	72
NMTAP	13	336	3
NMHLD	14	0	5	72
NMHLD	14	72	6	72
NMTAP	14	144	7
NMSTR	14	192	7
NMSI_	14	192	7	96	48	2
NMSI_	14	192	7	96	48	4
BXTAP	14	288	7
NMHLD	15	0	3	72
NMHLD	15	72	2	72
NMTAP	15	144	1
NMHLD	15	192	7	72
NMHLD	15	264	6	72
NMTAP	15	336	5
NMHLD	16	0	3	72
NMHLD	16	72	2	72
NMTAP	16	144	1
NMHLD	16	192	7	96
NMTTP	16	240	4	B	0	M1
NMTTP	16	240	5	B	0	M1
NMTTP	16	288	4	A	0	M1
NMTTP	16	288	5	D	0	M1
NMHLD	17	0	0	72
NMHLD	17	72	1	72
NMTAP	17	144	2
NMHLD	17	192	6	72
NMHLD	17	264	5	72
NMTAP	17	336	4
NMHLD	18	0	2	72
NMHLD	18	72	1	72
NMTAP	18	144	0
NMSTR	18	192	0
NMSCL	18	192	0	96	48	5
NMSCR	18	192	0	96	48	3
NMTAP	19	0	4
NMTAP	19	144	3
NMTAP	19	144	5
NMTAP	19	192	2
NMSTR	19	192	6
NMSI_	19	192	6	96	48	0
NMTAP	19	288	4
NMHLD	20	0	1	72
NMTAP	20	72	3
NMTAP	20	144	2
NMTAP	20	192	2
NMSTR	20	192	3
NMSCR	20	192	3	96	48	6
NMTAP	21	0	1
NMTAP	21	48	1
NMTAP	21	96	3
NMTAP	21	144	2
NMSTR	21	192	1
NMSI_	21	192	1	96	48	4
NMTAP	21	192	4
NMTAP	21	288	5
NMHLD	22	0	6	72
NMTAP	22	72	4
NMTAP	22	144	5
NMTAP	22	192	4
NMTAP	22	192	5
NMTAP	22	288	3
NMTAP	22	312	3
NMTAP	22	336	4
NMTAP	23	0	3
NMTAP	23	0	5
NMTAP	23	144	2
NMTAP	23	144	4
NMSTR	23	192	1
NMSI_	23	192	1	96	48	7
NMTAP	23	192	5
NMTAP	23	288	3
NMHLD	24	0	6	72
NMSTR	24	72	4
NMSCL	24	72	4	96	72	0
NMTAP	24	144	5
NMSTR	24	192	7
NMSCL	24	192	7	96	48	4
NMTAP	25	0	1
NMTAP	25	48	1
NMTAP	25	96	3
NMTAP	25	144	2
NMTAP	25	192	5
NMTAP	25	240	4
NMTAP	25	288	6
NMTAP	25	336	6
NMSTR	26	0	0
NMSCR	26	0	0	96	48	3
NMSTR	26	96	7
NMSI_	26	96	7	96	48	4
NMSTR	26	192	0
NMSXL	26	192	0	96	96	0
NMHLD	27	0	7	96
NMTTP	27	96	3	E	0	M1
NMHLD	27	192	6	96
NMTTP	27	288	2	E	0	M1
NMHLD	28	0	5	96
NMTTP	28	96	1	E	0	M1
NMHLD	28	192	4	96
NMTTP	28	288	0	E	0	M1
NMHLD	29	0	3	96
NMTTP	29	96	7	E	0	M1
NMHLD	29	192	2	96
NMTTP	29	288	6	E	0	M1
NMHLD	30	0	1	96
NMTTP	30	96	5	E	0	M1
NMHLD	30	192	0	96
NMTTP	30	288	4	E	0	M1
EXTAP	31	0	6
EXTAP	31	0	7
EXTAP	31	72	1
EXTAP	31	72	2
EXTAP	31	144	4
EXTAP	31	144	5
EXSTR	31	192	3
BRSCL	31	192	3	96	48	0
EXSTR	31	192	6
BRSCL	31	192	6	96	48	3
EXTAP	31	288	3
EXTAP	31	288	6
NMTAP	32	0	7
NMTAP	32	24	7
NMTAP	32	72	0
NMTAP	32	72	6
NMTAP	32	120	1
NMTAP	32	144	3
NMTAP	32	192	3
NMTAP	32	216	2
NMTAP	32	264	0
NMTAP	32	264	4
NMTAP	32	312	6
NMTAP	32	336	4
NMTAP	33	0	4
NMTAP	33	24	5
NMTAP	33	72	3
NMTAP	33	72	7
NMTAP	33	120	0
NMTAP	33	144	0
NMSTR	33	192	1
NMSI_	33	192	1	96	48	3
NMSTR	33	192	7
NMSI_	33	192	7	96	48	3
NMTAP	33	240	2
NMTAP	33	240	6
EXTAP	33	288	1
EXTAP	33	288	7
NMTAP	34	0	5
NMTAP	34	24	5
NMSTR	34	72	4
NMSI_	34	72	4	96	48	0
NMHLD	34	72	6	72
NMTAP	34	192	7
NMTAP	34	240	6
NMHLD	34	264	6	72
NMTAP	34	336	0
NMTAP	34	360	0
NMSTR	35	0	5
NMSV_	35	0	5	96	48	0
NMSTR	35	48	1
NMSI_	35	48	1	96	48	4
EXTAP	35	96	5
EXTAP	35	144	1
NMSTR	35	192	7
NMSF_	35	192	7	96	48	3
BRTAP	35	288	7
NMTAP	36	0	1
NMTAP	36	0	5
NMTAP	36	24	1
NMTAP	36	24	5
NMTAP	36	72	6
NMTAP	36	120	6
NMTAP	36	144	4
NMTAP	36	192	4
NMTAP	36	216	5
NMTAP	36	264	3
NMTAP	36	264	7
NMTAP	36	312	1
NMTAP	36	336	3
NMTAP	37	0	3
NMTAP	37	24	2
NMTAP	37	72	0
NMTAP	37	72	4
NMTAP	37	120	7
NMTAP	37	144	7
NMSTR	37	192	0
NMSI_	37	192	0	96	48	4
NMSTR	37	192	6
NMSI_	37	192	6	96	48	4
NMTAP	37	240	1
NMTAP	37	240	5
EXTAP	37	288	0
EXTAP	37	288	6
NMTAP	38	0	2
NMTAP	38	24	2
NMHLD	38	72	1	72
NMSTR	38	72	3
NMSI_	38	72	3	96	48	7
NMTAP	38	192	0
NMTAP	38	216	0
NMSTR	38	264	1
NMSCR	38	264	1	96	48	4
NMHLD	38	264	7	72
NMTAP	39	0	5
NMTAP	39	48	6
NMTAP	39	96	0
NMTAP	39	96	7
NMTAP	39	144	1
NMTAP	39	192	2
NMSTR	39	192	3
NMSLL	39	192	3	96	96	7
NMSTR	39	288	7
NMSLL	39	288	7	96	96	3
NMTAP	40	0	3
NMTAP	40	144	4
NMTAP	40	144	5
NMTAP	40	192	6
NMTAP	40	192	7
NMTAP	40	240	0
NMTAP	40	240	1
NMTAP	40	288	2
NMTAP	40	288	3
NMTAP	40	336	4
NMTAP	40	336	5
NMSTR	41	0	6
NMSI_	41	0	6	96	48	2
NMSTR	41	0	7
NMSI_	41	0	7	96	48	3
NMTTP	41	96	0	C	1	M1
NMSTR	41	192	0
NMSI_	41	192	0	96	48	4
NMSTR	41	192	1
NMSI_	41	192	1	96	48	5
NMTTP	41	288	0	C	1	M1
NMHLD	42	0	1	48
NMHLD	42	0	7	48
NMHLD	42	72	4	48
NMHLD	42	72	5	48
NMHLD	42	144	0	48
NMHLD	42	144	6	48
NMHLD	42	216	2	48
NMHLD	42	216	3	48
BRTAP	42	288	0
BRTAP	42	288	7
NMTAP	43	0	4
NMTAP	43	0	5
NMTAP	43	48	1
NMTAP	43	72	3
NMTAP	43	96	2
NMTAP	43	144	6
NMTAP	43	168	6
NMTAP	43	192	4
NMTAP	43	216	5
NMTAP	43	240	4
NMTAP	43	264	5
NMTAP	43	288	3
NMTAP	43	312	4
NMTAP	43	336	3
NMTAP	43	360	4
NMTAP	44	0	2
NMTAP	44	24	3
NMTAP	44	48	2
NMTAP	44	72	5
NMTAP	44	96	4
NMTAP	44	120	6
NMTAP	44	144	2
NMTAP	44	168	3
NMTAP	44	192	1
NMTAP	44	216	7
NMTAP	44	240	0
NMTAP	44	264	7
NMSTR	44	288	1
NMSCL	44	288	1	96	48	6
NMTAP	44	336	3
NMTAP	45	0	3
NMTAP	45	96	5
NMTAP	45	120	5
NMTAP	45	144	4
NMTAP	45	168	6
NMTAP	45	240	0
NMTAP	45	264	7
NMTAP	45	288	0
NMTAP	45	336	1
NMTAP	45	336	6
EXTAP	46	0	2
NMTAP	46	24	2
NMTAP	46	48	3
EXHLD	46	72	1	48
NMTAP	46	120	7
EXHLD	46	144	7	48
NMTAP	46	192	5
EXHLD	46	216	5	48
NMTAP	46	264	3
EXHLD	46	288	3	48
NMTAP	46	336	1
BRTAP	47	0	0
BRTAP	47	0	4
NMTAP	47	144	4
NMTAP	47	192	3
NMTAP	47	240	2
NMSTR	47	288	1
NMSUR	47	288	1	96	144	2
NMTAP	47	336	0
NMTAP	48	0	7
NMTAP	48	144	3
NMTAP	48	192	4
NMTAP	48	240	5
NMSTR	48	288	6
NMSUL	48	288	6	96	144	5
NMTAP	48	336	7
NMTAP	49	0	0
NMTAP	49	144	4
NMTAP	49	192	3
NMTAP	49	240	2
NMTAP	49	288	1
NMTAP	49	288	5
NMTAP	49	336	6
NMHLD	50	0	3	72
NMTAP	50	0	7
NMHLD	50	72	1	72
NMTAP	50	144	0
NMSTR	50	192	0
NMSI_	50	192	0	96	48	3
NMSTR	50	192	7
NMSI_	50	192	7	96	48	4
NMTAP	50	288	0
NMTAP	50	288	7
NMTAP	51	0	2
NMTAP	51	24	3
NMTAP	51	48	1
NMTAP	51	72	4
NMTAP	51	96	0
NMTAP	51	120	5
NMTAP	51	144	7
NMSTR	51	168	6
NMSCL	51	168	6	96	48	3
NMHLD	51	192	0	72
NMTAP	51	336	0
NMTAP	52	0	5
NMTAP	52	24	4
NMTAP	52	48	6
NMTAP	52	72	3
NMTAP	52	96	7
NMTAP	52	120	2
NMTAP	52	144	0
NMSTR	52	168	1
NMSCR	52	168	1	96	48	4
NMHLD	52	192	7	72
NMTAP	52	336	7
NMTAP	53	0	0
NMTAP	53	0	6
NMTAP	53	48	1
NMTAP	53	48	5
NMTAP	53	96	2
NMTAP	53	96	4
NMTAP	53	144	3
NMHLD	53	192	6	72
NMTAP	53	192	7
NMHLD	53	264	4	72
NMTAP	53	336	3
NMTAP	54	0	0
NMTAP	54	0	1
NMTAP	54	72	5
NMTAP	54	72	6
NMTAP	54	144	2
NMTAP	54	144	3
NMHLD	54	192	6	48
NMHLD	54	192	7	48
NMHLD	54	264	3	48
NMHLD	54	264	4	48
NMTAP	54	336	0
NMTAP	54	336	1
NMTTP	55	0	7	E	0	M1
NMTTP	55	12	6	B	0	M1
NMTTP	55	24	5	B	0	M1
NMTTP	55	72	1	B	0	M1
NMTTP	55	84	2	B	0	M1
NMTTP	55	96	3	E	0	M1
NMTAP	55	144	7
BRTAP	55	192	0
NMHLD	55	192	6	192
NMHLD	56	0	4	336
NMTAP	56	336	2
NMHLD	57	0	2	336
NMTAP	57	336	0
NMHLD	58	0	0	336
NMTAP	58	336	5
NMTAP	59	0	5
NMSTR	59	96	6
NMSCL	59	96	6	96	96	3
NMHLD	60	0	2	144
NMTAP	60	144	3
NMSTR	60	192	1
NMSI_	60	192	1	96	48	3
NMHLD	61	0	5	72
NMHLD	61	72	4	72
NMTAP	61	144	6
NMSTR	61	192	6
NMSI_	61	192	6	96	48	4
NMTAP	61	288	3
NMHLD	62	0	1	72
NMHLD	62	72	2	72
NMTAP	62	144	3
NMHLD	62	192	5	72
NMHLD	62	264	4	72
NMTAP	62	336	3
NMTAP	63	0	1
NMTAP	63	48	2
NMSTR	63	96	3
NMSCL	63	96	3	96	48	0
NMTAP	63	144	4
NMTAP	63	192	5
NMSTR	63	288	4
NMSXL	63	288	4	96	144	3
BRTAP	64	0	0
NMTAP	64	192	1
NMTAP	64	208	3
NMTAP	64	224	1
NMTAP	64	240	3
NMTAP	64	256	1
NMTAP	64	272	3
EXTAP	64	288	2
BXTAP	64	336	6
NMTAP	65	0	1
NMTAP	65	0	7
NMTAP	65	24	1
NMTAP	65	24	7
NMTAP	65	72	3
NMTAP	65	72	5
NMTAP	65	120	6
NMTAP	65	144	4
NMTAP	65	192	4
NMTAP	65	216	4
NMTAP	65	216	5
NMTAP	65	264	3
NMTAP	65	264	7
NMTAP	65	312	1
NMTAP	65	336	3
NMTAP	66	0	3
NMTAP	66	24	2
NMTAP	66	24	3
NMTAP	66	72	0
NMTAP	66	72	4
NMTAP	66	120	7
NMTAP	66	144	7
NMSTR	66	192	1
NMSLR	66	192	1	96	48	5
NMSTR	66	192	5
NMSCR	66	192	5	96	48	0
NMTAP	66	240	0
NMTAP	66	240	4
EXTAP	66	288	1
EXTAP	66	288	5
NMTAP	67	0	7
NMTAP	67	24	7
NMTAP	67	72	1
NMTAP	67	96	0
NMTAP	67	120	1
EXTAP	67	144	2
EXTAP	67	144	7
NMTAP	67	192	3
NMTAP	67	216	3
NMTAP	67	264	1
NMHLD	67	264	5	72
NMTAP	67	336	4
NMSTR	68	0	2
NMSV_	68	0	2	96	48	7
NMSTR	68	48	6
NMSI_	68	48	6	96	48	3
EXTAP	68	96	2
EXTAP	68	144	6
NMSTR	68	192	0
NMSF_	68	192	0	96	48	4
BRTAP	68	288	0
NMTAP	69	0	2
NMTAP	69	0	6
NMTAP	69	24	2
NMTAP	69	24	6
NMTAP	69	72	1
NMTAP	69	120	1
NMTAP	69	144	3
NMTAP	69	192	3
NMTAP	69	216	2
NMTAP	69	216	3
NMTAP	69	264	0
NMTAP	69	264	4
NMTAP	69	312	6
NMTAP	69	336	4
NMTAP	70	0	4
NMTAP	70	24	4
NMTAP	70	24	5
NMTAP	70	72	3
NMTAP	70	72	7
NMTAP	70	120	0
NMTAP	70	144	0
NMSTR	70	192	2
NMSCL	70	192	2	96	48	7
NMTAP	70	192	3
NMSTR	70	240	7
NMSCL	70	240	7	96	48	4
EXTAP	70	288	4
NMTAP	71	0	0
NMSTR	71	48	1
NMSI_	71	48	1	96	48	5
NMTAP	71	48	7
NMTAP	71	72	1
NMHLD	71	72	7	72
NMTAP	71	192	7
NMTAP	71	216	7
NMHLD	71	264	0	72
NMSTR	71	264	6
NMSCL	71	264	6	96	48	3
NMTAP	72	0	2
NMTAP	72	48	1
NMTAP	72	96	3
NMTAP	72	144	4
EXTAP	72	192	3
NMTAP	72	208	5
NMTAP	72	224	3
NMTAP	72	240	5
NMTAP	72	256	3
NMTAP	72	272	5
NMTAP	72	288	2
NMTAP	72	304	6
NMTAP	72	320	2
NMTAP	72	336	6
NMTAP	72	352	2
NMTAP	72	368	6
BXTAP	73	0	1
BXHLD	73	0	7	288
NMTAP	73	144	2
NMTAP	73	192	4
NMTAP	73	240	6
NMSTR	73	288	0
NMSI_	73	288	0	96	48	4
NMTAP	73	336	2
BRTAP	74	0	0
NMSTR	74	0	6
NMSCL	74	0	6	96	48	3
NMSTR	74	96	2
NMSCL	74	96	2	96	48	7
BRTAP	74	96	6
BRTAP	74	192	2
NMSTR	74	192	5
NMSV_	74	192	5	96	48	0
NMSTR	74	288	3
NMSXR	74	288	3	96	192	4
BRTAP	74	288	5
BXTAP	75	0	3
NMTTP	75	0	6	B	0	M1
NMTTP	75	0	7	B	0	M1
NMTTP	75	0	7	E	1	M1
CNSCR	75	192	4	0	384	3
NMTAP	76	192	5
NMTAP	76	240	6
NMSTR	76	288	7
NMSXR	76	288	7	96	192	2
NMTTP	77	0	2	B	0	M1
NMTTP	77	0	3	B	0	M1
NMTTP	77	0	3	E	1	M1
NMTAP	77	192	1
CNSCR	77	192	2	0	336	6
NMTAP	77	288	1
NMTAP	78	0	0
NMTAP	78	96	0
NMSTR	78	192	7
NMSF_	78	192	7	96	48	3
BRTAP	78	288	7
NMTAP	79	0	1
NMTAP	79	0	5
NMTAP	79	24	2
NMTAP	79	48	3
NMTAP	79	72	4
NMTAP	79	120	7
NMTAP	79	144	7
NMTAP	79	192	1
NMTAP	79	192	5
NMTAP	79	216	2
NMTAP	79	240	3
NMTAP	79	264	4
NMTAP	79	312	7
NMTAP	79	336	7
NMTAP	80	0	1
NMTAP	80	0	5
NMTAP	80	24	2
NMTAP	80	48	3
NMTAP	80	72	4
NMTAP	80	120	7
NMTAP	80	144	7
NMTAP	80	192	1
NMTAP	80	216	0
EXTAP	80	240	2
EXTAP	80	240	7
EXTAP	80	288	2
EXTAP	80	288	7
NMTAP	80	336	4
NMTAP	80	336	5
NMTAP	81	0	2
NMTAP	81	0	6
NMTAP	81	24	5
NMTAP	81	48	4
NMTAP	81	72	3
NMTAP	81	120	0
NMTAP	81	144	0
NMTAP	81	192	2
NMTAP	81	192	6
NMTAP	81	216	5
NMTAP	81	240	4
NMTAP	81	264	3
NMTAP	81	312	0
NMTAP	81	336	0
NMTAP	82	0	1
NMTAP	82	24	3
NMTAP	82	48	2
NMTAP	82	72	6
NMTAP	82	96	4
NMTAP	82	120	5
NMTAP	82	144	3
EXTAP	82	192	0
EXSTR	82	192	6
NMSCL	82	192	6	96	72	0
NMTTP	82	240	1	A	0	M1
NMTTP	82	248	2	E	0	M1
NMTTP	82	256	2	B	0	M1
NMTTP	82	264	3	B	0	M1
NMTTP	82	272	4	E	0	M1
NMTTP	82	280	4	A	0	M1
BXTAP	82	288	6

T_REC_TAP	397
T_REC_BRK	21
T_REC_XTP	37
T_REC_BXX	7
T_REC_HLD	82
T_REC_XHO	4
T_REC_BHO	0
T_REC_BXH	1
T_REC_STR	63
T_REC_BST	0
T_REC_XST	6
T_REC_XBS	0
T_REC_TTP	36
T_REC_THO	0
T_REC_SLD	69
T_REC_BSL	2
T_REC_ALL	725
T_NUM_TAP	539
T_NUM_BRK	31
T_NUM_HLD	86
T_NUM_SLD	69
T_NUM_ALL	725
T_JUDGE_TAP	567
T_JUDGE_HLD	188
T_JUDGE_SLD	71
T_JUDGE_ALL	826
TTM_EACHPAIRS	118
TTM_SCR_TAP	269500
TTM_SCR_BRK	80600
TTM_SCR_HLD	86000
TTM_SCR_SLD	103500
TTM_SCR_ALL	539600
TTM_SCR_S	520450
TTM_SCR_SS	536500
TTM_RAT_ACV	10057

