VERSION	0.00.00	1.05.00
FES_MODE	0
BPM_DEF	127.000	127.000	127.000	127.000
MET_DEF	4	4
RESOLUTION	384
CLK_DEF	384
COMPATIBLE_CODE	MA2

BPM	0	0	127.000
MET	0	0	4	4

NMHLD	1	0	2	576
NMTTP	1	192	3	E	0	M1
NMTTP	2	0	4	E	0	M1
NMTTP	2	192	5	E	0	M1
NMHLD	3	0	5	384
NMTTP	3	192	4	E	0	M1
NMTAP	4	0	3
NMTAP	4	48	3
NMTAP	4	96	2
NMTAP	4	96	4
NMTAP	4	192	0
NMTAP	4	192	6
BXTAP	4	288	1
BXTAP	4	288	5
NMTAP	5	0	6
NMTAP	5	48	6
NMTAP	5	96	6
NMTAP	5	96	7
NMTAP	5	192	1
NMTAP	5	240	1
NMTAP	5	288	0
NMTAP	5	288	1
NMTAP	6	0	2
NMTAP	6	96	1
NMTAP	6	96	3
NMTAP	6	192	4
NMTAP	6	288	3
NMTAP	6	288	5
NMTAP	7	0	6
NMTAP	7	48	6
NMTAP	7	96	4
NMTAP	7	96	6
NMTAP	7	192	1
NMTAP	7	240	1
NMTAP	7	288	1
NMTAP	7	288	3
NMTAP	8	0	2
NMTAP	8	48	2
NMTAP	8	96	4
NMTAP	8	144	4
NMTAP	8	192	3
NMTAP	8	288	4
NMTAP	8	288	5
NMTAP	9	0	3
NMSTR	9	0	6
NMSXR	9	0	6	96	288	7
NMTAP	10	0	0
NMTAP	10	96	0
NMTAP	10	96	7
NMTAP	10	192	2
NMTAP	10	192	5
NMHLD	11	0	6	72
NMHLD	11	72	4	72
NMTAP	11	144	5
NMTAP	11	192	5
NMTAP	11	288	2
NMTAP	11	288	4
NMHLD	12	0	1	72
NMHLD	12	72	3	72
NMTAP	12	144	2
NMTAP	12	192	2
NMTAP	12	288	3
NMTAP	12	288	5
NMHLD	13	0	6	72
NMHLD	13	72	4	72
NMTAP	13	144	5
NMTAP	13	192	5
NMTAP	13	288	2
NMTAP	13	288	4
NMHLD	14	0	1	72
NMHLD	14	72	3	72
NMTAP	14	144	2
NMTAP	14	192	2
NMTAP	14	288	1
NMTAP	14	288	3
NMHLD	15	0	2	72
NMHLD	15	72	0	72
NMTAP	15	144	1
NMTAP	15	192	1
NMTAP	15	288	0
NMTAP	15	288	6
NMHLD	16	0	5	72
NMHLD	16	72	7	72
NMTAP	16	144	6
NMTAP	16	192	6
NMTAP	16	288	1
NMTAP	16	288	7
NMHLD	17	0	2	72
NMHLD	17	72	0	72
NMTAP	17	144	1
NMTAP	17	192	1
NMTAP	17	288	0
NMTAP	17	288	6
NMHLD	18	0	5	72
NMHLD	18	72	7	72
NMTAP	18	144	6
NMTAP	18	192	6
BXTAP	18	288	0
BXTAP	18	288	5
NMTAP	19	0	2
NMSTR	19	96	2
NMSI_	19	96	2	96	96	4
NMHLD	20	0	5	192
NMTAP	20	192	4
NMTAP	20	288	4
NMTAP	21	0	5
NMSTR	21	96	5
NMSI_	21	96	5	96	96	3
NMHLD	22	0	2	192
NMTAP	22	192	3
NMTAP	22	288	3
NMTAP	23	0	2
NMSTR	23	96	2
NMSI_	23	96	2	96	96	7
NMHLD	24	0	6	192
NMTAP	24	192	4
NMTAP	25	0	5
NMTAP	25	48	5
NMTAP	25	96	3
NMTAP	25	144	3
NMTAP	25	192	4
NMTAP	25	240	4
NMHLD	25	288	2	96
NMTAP	26	0	3
NMTAP	26	96	1
BXTAP	26	192	0
BXTAP	26	192	7
NMTTP	27	0	0	B	0	M1
NMTTP	27	0	1	E	0	M1
NMTTP	27	192	2	B	0	M1
NMTTP	27	192	3	E	0	M1
NMTTP	28	0	4	B	0	M1
NMTTP	28	0	5	E	0	M1
NMTTP	28	192	6	B	0	M1
NMTTP	28	192	7	E	0	M1
NMSTR	29	0	0
NMSCR	29	0	0	96	192	5
NMSTR	30	0	7
NMSCL	30	0	7	96	192	2
NMSTR	31	0	0
NMSCR	31	0	0	96	96	3
NMSTR	31	0	7
NMSCL	31	0	7	96	96	4
EXTAP	31	288	0
EXTAP	31	288	7
NMHLD	32	0	0	72
NMHLD	32	72	1	72
NMTAP	32	144	2
NMHLD	32	192	7	72
NMHLD	32	264	6	72
NMTAP	32	336	5
NMHLD	33	0	1	72
NMHLD	33	72	2	72
NMTAP	33	144	3
NMTAP	33	192	3
BRTAP	33	288	1
BRTAP	33	288	4
EXTAP	34	0	1
EXTAP	34	0	3
EXTAP	34	72	3
EXTAP	34	72	4
EXTAP	34	144	4
EXTAP	34	144	6
EXTAP	34	192	4
EXTAP	34	192	6
EXTAP	34	264	3
EXTAP	34	264	4
EXTAP	34	336	1
EXTAP	34	336	3
EXTAP	35	0	1
EXTAP	35	0	3
NMTAP	35	96	2
NMTAP	35	144	2
NMTAP	35	192	4
BRTAP	35	288	0
BRTAP	35	288	7
NMHLD	36	0	7	72
NMHLD	36	72	6	72
NMTAP	36	144	5
NMHLD	36	192	0	72
NMHLD	36	264	1	72
NMTAP	36	336	2
NMHLD	37	0	6	72
NMHLD	37	72	5	72
NMTAP	37	144	4
NMTAP	37	192	4
BRTAP	37	288	3
BRTAP	37	288	6
EXTAP	38	0	4
EXTAP	38	0	6
EXTAP	38	72	3
EXTAP	38	72	4
EXTAP	38	144	1
EXTAP	38	144	3
EXTAP	38	192	1
EXTAP	38	192	3
EXTAP	38	264	3
EXTAP	38	264	4
EXTAP	38	336	4
EXTAP	38	336	6
EXSTR	39	0	4
BRSI_	39	0	4	96	96	0
EXSTR	39	0	6
BRSI_	39	0	6	96	96	2
NMTAP	39	288	0
NMTAP	39	288	1
EXHLD	40	0	2	96
EXHLD	40	0	7	96
EXHLD	40	192	0	96
EXHLD	40	192	5	96
NMTAP	41	0	6
NMTAP	41	0	7
NMTAP	41	96	4
NMTAP	41	96	5
NMTAP	41	192	3
NMTAP	41	192	4
NMTAP	41	288	2
NMTAP	41	288	3
EXTAP	42	0	1
EXTAP	42	72	0
EXTAP	42	72	1
EXTAP	42	144	6
EXTAP	42	216	6
EXTAP	42	216	7
BXTAP	42	288	0
BXTAP	42	288	7
NMTAP	43	0	1
NMTAP	43	48	1
NMTAP	43	96	3
NMTAP	43	192	4
NMTAP	43	240	4
NMTAP	43	288	2
NMTAP	44	0	1
NMTAP	44	96	1
NMTAP	44	96	3
NMTAP	44	192	4
NMTAP	44	288	2
NMTAP	44	288	4
NMTAP	45	0	6
NMTAP	45	48	6
NMTAP	45	96	4
NMTAP	45	192	2
NMTAP	45	240	2
NMTAP	45	288	4
NMTAP	46	0	5
NMTAP	46	48	5
NMTAP	46	96	3
NMTAP	46	144	4
NMTAP	46	192	2
NMTAP	46	240	2
BRTAP	46	288	1
BRTAP	46	288	3
NMHLD	47	0	0	96
NMHLD	47	0	1	96
NMTAP	47	144	2
NMTAP	47	144	7
NMTAP	47	192	2
NMTAP	47	192	7
NMTAP	47	288	4
NMTAP	47	288	5
NMHLD	48	0	6	96
NMHLD	48	0	7	96
NMTAP	48	144	0
NMTAP	48	144	5
NMTAP	48	192	0
NMTAP	48	192	5
NMTAP	48	288	2
NMTAP	48	288	3
NMHLD	49	0	0	96
NMHLD	49	0	1	96
NMTAP	49	144	2
NMTAP	49	144	7
NMTAP	49	192	2
NMTAP	49	192	7
NMTAP	49	288	4
NMTAP	49	288	5
NMTAP	50	0	6
NMTAP	50	0	7
NMSTR	50	96	0
NMSI_	50	96	0	96	96	5
NMSTR	50	96	1
NMSI_	50	96	1	96	96	4
NMTAP	51	0	6
NMTAP	51	48	6
NMTAP	51	96	4
NMTAP	51	144	4
NMTAP	51	192	5
NMTAP	51	288	6
NMTAP	51	288	7
NMTAP	52	0	2
NMTAP	52	48	2
NMTAP	52	96	3
NMTAP	52	144	3
NMSTR	52	192	1
NMSI_	52	192	1	96	48	5
NMTAP	53	0	6
NMTAP	53	48	6
NMTAP	53	96	5
NMTAP	53	96	7
NMTAP	53	192	1
NMTAP	53	240	1
NMTAP	53	288	0
NMTAP	53	288	2
NMTAP	54	0	1
NMTAP	54	0	3
NMTAP	54	96	3
NMTAP	54	96	4
NMTAP	54	192	4
NMTAP	54	192	6
NMTAP	54	288	0
NMTAP	54	288	7
NMTAP	55	0	4
NMTAP	55	0	6
NMTAP	55	96	3
NMTAP	55	96	5
BRTAP	55	192	1
BRTAP	55	192	7
NMSTR	56	0	6
NMSCL	56	0	6	96	96	3
NMTAP	56	288	2
NMSTR	57	0	1
NMSCR	57	0	1	96	96	4
NMTAP	57	288	5
NMSTR	58	0	6
NMSCR	58	0	6	96	96	1
NMSTR	58	192	2
NMSCR	58	192	2	96	96	5
NMSTR	59	0	7
NMSUL	59	0	7	96	96	2
NMTAP	59	288	1
NMSTR	60	0	2
NMSCL	60	0	2	96	96	7
NMTAP	60	288	6
NMSTR	61	0	5
NMSCR	61	0	5	96	96	0
NMTAP	61	288	2
NMSTR	62	0	1
NMSUR	62	0	1	96	96	5
NMSTR	62	192	7
NMSUL	62	192	7	96	96	3
NMTAP	63	0	0
NMSTR	63	96	0
NMSI_	63	96	0	96	96	3
NMSUL	63	96	0	96	96	4
NMTAP	64	0	3
NMTAP	64	48	2
NMTAP	64	96	4
NMTAP	64	144	5
NMTAP	64	192	3
NMTAP	64	192	6
EXTAP	64	288	1
EXTAP	64	288	4
BXHLD	65	0	2	72
NMHLD	65	72	1	72
NMTAP	65	144	0
NMHLD	65	192	5	72
NMHLD	65	264	6	72
NMTAP	65	336	7
NMHLD	66	0	3	72
NMHLD	66	72	2	72
NMTAP	66	144	1
NMTAP	66	192	1
NMTAP	66	288	2
NMTAP	66	288	3
EXTAP	67	0	1
EXTAP	67	0	3
EXTAP	67	72	0
EXTAP	67	72	7
EXTAP	67	144	4
EXTAP	67	144	6
EXTAP	67	192	4
EXTAP	67	192	6
EXTAP	67	264	0
EXTAP	67	264	7
EXTAP	67	336	1
EXTAP	67	336	3
NMTAP	68	0	1
NMTAP	68	0	3
NMTAP	68	48	2
NMTAP	68	96	3
NMTAP	68	144	4
NMTAP	68	192	3
NMTAP	68	192	5
BRTAP	68	288	2
BRTAP	68	288	6
NMHLD	69	0	5	72
NMHLD	69	72	6	72
NMTAP	69	144	7
NMHLD	69	192	2	72
NMHLD	69	264	1	72
NMTAP	69	336	0
NMHLD	70	0	4	72
NMHLD	70	72	5	72
NMTAP	70	144	6
NMTAP	70	192	6
NMTAP	70	288	4
NMTAP	70	288	5
EXTAP	71	0	4
EXTAP	71	0	6
EXTAP	71	72	0
EXTAP	71	72	7
EXTAP	71	144	1
EXTAP	71	144	3
EXTAP	71	192	1
EXTAP	71	192	3
EXTAP	71	264	0
EXTAP	71	264	7
EXTAP	71	336	4
EXTAP	71	336	6
EXTAP	72	0	4
EXTAP	72	0	6
NMSTR	72	96	4
NMSI_	72	96	4	96	96	0
NMSTR	72	96	6
NMSI_	72	96	6	96	96	3
EXHLD	73	0	1	96
EXHLD	73	0	2	96
EXHLD	73	192	5	96
EXHLD	73	192	6	96
NMTAP	74	0	0
NMTAP	74	0	7
NMTAP	74	96	1
NMTAP	74	96	2
NMTAP	74	192	3
NMTAP	74	192	4
NMTAP	74	288	5
NMTAP	74	288	6
NMTTP	75	0	0	B	0	M1
NMTTP	75	0	0	C	1	M1
NMTTP	75	0	3	B	0	M1
NMTTP	75	0	4	B	0	M1
NMTTP	75	0	7	B	0	M1
EXTAP	76	0	1
EXTAP	76	0	6
EXTAP	76	96	1
EXTAP	76	96	6
NMTAP	76	192	0
NMTAP	76	192	7
NMTAP	76	288	0
NMTAP	76	288	7
NMTAP	77	0	6
NMTAP	77	48	6
NMTAP	77	96	7
NMTAP	77	192	1
NMTAP	77	240	1
NMTAP	77	288	0
NMTAP	78	0	2
NMTAP	78	96	1
NMTAP	78	96	3
NMTAP	78	192	4
NMTAP	78	288	3
NMTAP	78	288	5
NMTAP	79	0	1
NMTAP	79	48	1
NMTAP	79	96	0
NMTAP	79	192	6
NMTAP	79	240	6
NMTAP	79	288	7
NMTAP	80	0	5
NMTAP	80	96	4
NMTAP	80	96	6
NMTAP	80	192	2
NMTAP	80	288	1
NMTAP	80	288	3
NMTAP	81	0	0
NMTAP	81	0	1
NMTAP	81	96	2
NMTAP	81	96	7
NMTAP	81	192	6
NMTAP	81	192	7
NMTAP	81	288	0
NMTAP	81	288	5
NMTAP	82	0	2
NMTAP	82	0	3
NMTAP	82	96	4
NMTAP	82	96	5
BRTAP	82	192	2
BRTAP	82	192	6
BRTAP	82	288	1
BRTAP	82	288	5

T_REC_TAP	262
T_REC_BRK	16
T_REC_XTP	66
T_REC_BXX	8
T_REC_HLD	51
T_REC_XHO	8
T_REC_BHO	0
T_REC_BXH	1
T_REC_STR	23
T_REC_BST	0
T_REC_XST	2
T_REC_XBS	0
T_REC_TTP	17
T_REC_THO	0
T_REC_SLD	24
T_REC_BSL	2
T_REC_ALL	480
T_NUM_TAP	370
T_NUM_BRK	27
T_NUM_HLD	59
T_NUM_SLD	24
T_NUM_ALL	480
T_JUDGE_TAP	394
T_JUDGE_HLD	142
T_JUDGE_SLD	26
T_JUDGE_ALL	562
TTM_EACHPAIRS	121
TTM_SCR_TAP	185000
TTM_SCR_BRK	70200
TTM_SCR_HLD	59000
TTM_SCR_SLD	36000
TTM_SCR_ALL	350200
TTM_SCR_S	337100
TTM_SCR_SS	347500
TTM_RAT_ACV	10077

