VERSION	0.00.00	1.05.00
FES_MODE	0
BPM_DEF	127.000	127.000	127.000	127.000
MET_DEF	4	4
RESOLUTION	384
CLK_DEF	384
COMPATIBLE_CODE	MA2

BPM	0	0	127.000
MET	0	0	4	4

NMTAP	4	0	0
NMTAP	4	0	7
BXTAP	4	192	0
BXTAP	4	192	7
NMTAP	5	0	6
NMTAP	5	96	6
NMTAP	5	192	6
NMTAP	6	0	7
NMTAP	6	96	7
NMTAP	6	192	7
NMTAP	7	0	0
NMTAP	7	96	0
NMTAP	7	192	0
NMTAP	8	0	1
NMTAP	8	96	1
NMTAP	8	192	1
NMTAP	9	0	0
NMTAP	9	0	1
NMTAP	9	192	0
NMTAP	9	192	1
NMSTR	10	0	7
NMSI_	10	0	7	96	192	3
NMHLD	11	0	2	192
NMHLD	11	192	3	192
NMHLD	12	0	4	192
NMTAP	12	192	5
NMHLD	13	0	5	192
NMHLD	13	192	4	192
NMHLD	14	0	3	192
NMTAP	14	192	2
NMHLD	15	0	1	192
NMHLD	15	192	2	192
NMHLD	16	0	3	192
NMTAP	16	192	4
NMHLD	17	0	6	192
NMHLD	17	192	5	192
NMHLD	18	0	4	192
NMTAP	18	192	3
NMTAP	19	0	4
NMTAP	19	96	4
NMTAP	19	192	5
NMTAP	20	0	6
NMTAP	20	96	6
NMTAP	20	192	7
NMTAP	21	0	0
NMTAP	21	96	0
NMTAP	21	192	1
NMTAP	22	0	2
NMTAP	22	96	2
NMTAP	22	192	2
NMTAP	22	192	3
NMTAP	23	0	3
NMTAP	23	96	3
NMTAP	23	192	2
NMTAP	24	0	1
NMTAP	24	96	1
NMTAP	24	192	0
NMTAP	25	0	7
NMTAP	25	96	7
NMTAP	25	192	6
NMTAP	26	0	5
NMTAP	26	96	5
NMTAP	26	192	4
NMTAP	26	192	5
NMSTR	27	0	5
NMSI_	27	0	5	96	192	2
NMSTR	28	0	1
NMSI_	28	0	1	96	192	5
NMSTR	29	0	7
NMSI_	29	0	7	96	192	3
NMSTR	30	0	1
NMSI_	30	0	1	96	192	4
NMTAP	31	0	5
NMTAP	31	192	4
NMTAP	31	192	5
NMTAP	32	0	5
NMTAP	32	96	5
NMTAP	32	192	6
NMTAP	32	288	6
NMTAP	33	0	7
NMTAP	33	96	7
NMTAP	33	192	0
NMTAP	33	192	1
NMTAP	34	0	2
NMTAP	34	96	2
NMTAP	34	192	1
NMTAP	34	288	1
NMTAP	35	0	0
NMTAP	35	96	0
BXTAP	35	192	6
BXTAP	35	192	7
NMTAP	36	0	6
NMTAP	36	96	6
NMTAP	36	192	5
NMTAP	36	288	5
NMTAP	37	0	4
NMTAP	37	96	4
NMTAP	37	192	2
NMTAP	37	192	3
NMTAP	38	0	1
NMTAP	38	96	1
NMTAP	38	192	2
NMTAP	38	288	2
NMTAP	39	0	3
NMTAP	39	96	3
NMTAP	39	192	4
NMTAP	39	192	5
NMHLD	40	0	6	192
NMTAP	40	192	7
NMHLD	41	0	1	192
NMTAP	41	192	0
BRTAP	42	0	0
BRTAP	42	0	7
NMTTP	43	0	1	B	0	L1
NMTTP	43	96	2	B	0	L1
NMTTP	43	192	3	B	0	L1
NMTTP	44	0	6	B	0	L1
NMTTP	44	96	5	B	0	L1
NMTTP	44	192	4	B	0	L1
NMTTP	45	0	1	B	0	L1
NMTTP	45	96	2	B	0	L1
NMTTP	45	192	3	B	0	L1
NMTTP	45	288	4	B	0	L1
NMTTP	46	0	5	B	0	L1
NMTTP	46	96	6	B	0	L1
NMTTP	46	192	0	C	0	L1
EXTAP	47	0	1
EXTAP	47	96	1
EXTAP	47	192	0
EXTAP	47	192	1
NMTAP	48	0	2
NMTAP	48	96	2
NMTAP	48	192	2
NMTAP	48	192	3
NMTAP	49	0	4
NMTAP	49	96	4
NMTAP	49	192	4
NMTAP	49	192	5
NMTAP	50	0	6
NMTAP	50	0	7
NMTAP	50	96	6
NMTAP	50	96	7
NMTAP	50	192	6
NMTAP	50	192	7
NMTAP	51	0	6
NMTAP	51	96	6
NMTAP	51	192	6
NMTAP	51	192	7
NMTAP	52	0	5
NMTAP	52	96	5
NMTAP	52	192	4
NMTAP	52	192	5
NMTAP	53	0	3
NMTAP	53	96	3
NMTAP	53	192	2
NMTAP	53	192	3
NMTAP	54	0	0
NMTAP	54	0	1
NMTAP	54	96	0
NMTAP	54	96	1
NMTAP	54	192	0
NMTAP	54	192	1
NMHLD	55	0	0	192
NMHLD	55	0	7	192
NMSTR	56	0	1
NMSXR	56	0	1	96	480	4
NMSTR	58	0	6
NMSXL	58	0	6	96	480	3
NMTTP	60	0	2	B	0	L1
NMTTP	60	0	3	B	0	L1
NMTTP	60	192	0	B	0	L1
NMTTP	60	192	1	B	0	L1
NMTTP	61	0	6	B	0	L1
NMTTP	61	0	7	B	0	L1
NMTTP	61	192	4	B	0	L1
NMTTP	61	192	5	B	0	L1
NMTTP	62	0	2	B	0	L1
NMTTP	62	0	3	E	0	L1
NMTTP	62	192	0	B	0	L1
NMTTP	62	192	1	E	0	L1
NMTTP	63	0	6	B	0	L1
NMTTP	63	0	7	E	0	L1
NMTTP	63	192	4	B	0	L1
NMTTP	63	192	5	E	0	L1
NMTTP	64	0	0	C	1	L1
NMTAP	65	0	6
NMTAP	65	96	6
NMTAP	65	192	6
NMTAP	65	192	7
NMTAP	65	288	6
NMTAP	65	288	7
NMTAP	66	0	0
NMTAP	66	96	0
NMTAP	66	192	0
NMTAP	66	192	1
NMTAP	67	0	2
NMTAP	67	96	2
NMTAP	67	192	0
NMTAP	67	192	1
NMTAP	67	288	0
NMTAP	67	288	1
NMTAP	68	0	7
NMTAP	68	96	7
BXTAP	68	192	6
BXTAP	68	192	7
NMTAP	69	0	6
NMTAP	69	96	6
NMTAP	69	192	4
NMTAP	69	192	5
NMTAP	69	288	4
NMTAP	69	288	5
NMTAP	70	0	3
NMTAP	70	96	3
NMTAP	70	192	2
NMTAP	70	192	3
NMTAP	71	0	1
NMTAP	71	96	1
NMTAP	71	192	2
NMTAP	71	192	3
NMTAP	71	288	2
NMTAP	71	288	3
NMTAP	72	0	4
NMTAP	72	96	4
NMTAP	72	192	4
NMTAP	72	192	5
NMHLD	73	0	6	192
NMTAP	73	192	7
NMHLD	74	0	1	192
NMTAP	74	192	0
NMTAP	75	0	0
NMTAP	75	96	1
NMTAP	75	192	2
NMTAP	75	288	3
NMTAP	76	0	4
NMTAP	76	96	5
NMTAP	76	192	6
NMTAP	76	192	7
NMTAP	77	0	7
NMTAP	77	96	6
NMTAP	77	192	5
NMTAP	77	288	4
NMTAP	78	0	3
NMTAP	78	96	2
NMTAP	78	192	0
NMTAP	78	192	1
NMTAP	79	0	0
NMTAP	79	96	1
NMTAP	79	192	2
NMTAP	79	288	3
NMTAP	80	0	4
NMTAP	80	96	5
NMTAP	80	192	6
NMTAP	80	288	7
NMTAP	81	0	0
NMTAP	81	96	1
NMTAP	81	192	2
NMTAP	81	288	3
NMTAP	82	0	3
NMTAP	82	0	4
NMTAP	82	96	3
NMTAP	82	96	4
NMTAP	82	192	2
NMTAP	82	192	5
BRTAP	82	288	1
BRTAP	82	288	6

T_REC_TAP	189
T_REC_BRK	4
T_REC_XTP	4
T_REC_BXX	6
T_REC_HLD	18
T_REC_XHO	0
T_REC_BHO	0
T_REC_BXH	0
T_REC_STR	7
T_REC_BST	0
T_REC_XST	0
T_REC_XBS	0
T_REC_TTP	30
T_REC_THO	0
T_REC_SLD	7
T_REC_BSL	0
T_REC_ALL	265
T_NUM_TAP	230
T_NUM_BRK	10
T_NUM_HLD	18
T_NUM_SLD	7
T_NUM_ALL	265
T_JUDGE_TAP	240
T_JUDGE_HLD	72
T_JUDGE_SLD	7
T_JUDGE_ALL	319
TTM_EACHPAIRS	43
TTM_SCR_TAP	115000
TTM_SCR_BRK	26000
TTM_SCR_HLD	18000
TTM_SCR_SLD	10500
TTM_SCR_ALL	169500
TTM_SCR_S	163450
TTM_SCR_SS	168500
TTM_RAT_ACV	10059

