VERSION	0.00.00	1.05.00
FES_MODE	0
BPM_DEF	127.000	127.000	127.000	127.000
MET_DEF	4	4
RESOLUTION	384
CLK_DEF	384
COMPATIBLE_CODE	MA2

BPM	0	0	127.000
MET	0	0	4	4

EXTAP	4	0	0
EXTAP	4	0	7
EXTAP	4	192	0
EXTAP	4	192	7
NMTAP	5	0	1
NMTAP	5	192	1
NMTAP	6	0	0
NMTAP	6	192	0
NMTAP	7	0	7
NMTAP	7	192	7
NMTAP	8	0	6
NMTAP	8	192	6
NMTAP	9	0	0
NMTAP	9	0	7
NMTAP	10	0	0
NMTAP	10	0	7
NMTAP	11	0	0
NMTAP	11	192	0
NMTAP	12	0	1
NMTAP	13	0	2
NMTAP	13	192	2
NMTAP	14	0	3
NMTAP	14	0	4
NMTAP	15	0	4
NMTAP	15	192	4
NMTAP	16	0	5
NMTAP	17	0	6
NMTAP	17	192	6
NMTAP	18	0	0
NMTAP	18	0	7
NMTAP	19	0	7
NMTAP	19	192	7
NMTAP	20	0	6
NMTAP	20	0	7
NMTAP	21	0	5
NMTAP	21	192	5
NMTAP	22	0	3
NMTAP	22	0	4
NMTAP	23	0	3
NMTAP	23	192	3
NMTAP	24	0	2
NMTAP	24	0	3
NMTAP	25	0	1
NMTAP	25	192	1
NMTAP	26	0	0
NMTAP	26	0	7
NMTTP	27	0	0	E	0	L1
NMTTP	28	0	0	B	0	L1
NMTTP	28	0	7	B	0	L1
NMTTP	29	0	1	B	0	L1
NMTTP	29	0	6	B	0	L1
NMTTP	30	0	2	B	0	L1
NMTTP	30	0	5	B	0	L1
NMTTP	31	0	0	C	1	L1
BXTAP	32	0	0
NMTAP	32	96	0
NMTAP	32	192	0
NMTAP	33	0	1
NMTAP	33	192	1
NMTAP	34	0	2
NMTAP	34	96	2
NMTAP	34	192	2
NMTAP	35	0	3
NMTAP	35	0	4
NMTAP	35	192	3
NMTAP	35	192	4
NMTAP	36	0	4
NMTAP	36	96	4
NMTAP	36	192	4
NMTAP	37	0	5
NMTAP	37	192	5
NMTAP	38	0	6
NMTAP	38	96	6
NMTAP	38	192	6
NMTAP	39	0	0
NMTAP	39	0	7
NMTAP	39	192	0
NMTAP	39	192	7
EXHLD	40	0	0	384
EXHLD	40	0	7	384
NMTAP	41	192	0
NMTAP	41	192	7
BRTAP	42	0	0
BRTAP	42	0	7
NMSTR	43	0	7
NMSI_	43	0	7	96	288	4
NMSTR	45	0	3
NMSI_	45	0	3	96	288	0
NMTAP	47	0	7
NMTAP	47	192	7
NMTAP	48	0	6
NMTAP	48	0	7
NMTAP	48	192	6
NMTAP	48	192	7
NMTAP	49	0	5
NMTAP	49	192	5
NMTAP	50	0	3
NMTAP	50	0	4
NMTAP	50	192	3
NMTAP	50	192	4
NMTAP	51	0	3
NMTAP	51	192	3
NMTAP	52	0	2
NMTAP	52	0	3
NMTAP	52	192	2
NMTAP	52	192	3
NMTAP	53	0	1
NMTAP	53	192	1
NMTAP	54	0	0
NMTAP	54	0	7
NMTAP	54	192	0
NMTAP	54	192	7
BRTAP	55	0	0
BRTAP	55	0	7
NMHLD	56	0	0	384
NMHLD	56	0	1	384
NMHLD	58	0	2	384
NMHLD	58	0	3	384
NMHLD	60	0	4	384
NMHLD	60	0	5	384
NMHLD	62	0	6	384
NMHLD	62	0	7	384
NMTAP	64	0	0
NMTAP	64	0	7
NMTAP	64	192	0
NMTAP	64	192	7
BRTAP	65	0	7
NMTAP	65	96	7
NMTAP	65	192	7
NMTAP	66	0	6
NMTAP	66	96	6
NMTAP	66	192	6
NMTAP	67	0	5
NMTAP	67	96	5
NMTAP	67	192	5
NMTAP	68	0	3
NMTAP	68	0	4
NMTAP	68	192	3
NMTAP	68	192	4
NMTAP	69	0	3
NMTAP	69	96	3
NMTAP	69	192	3
NMTAP	70	0	2
NMTAP	70	96	2
NMTAP	70	192	2
NMTAP	71	0	1
NMTAP	71	96	1
NMTAP	71	192	1
NMTAP	72	0	0
NMTAP	72	96	0
NMTAP	72	192	0
NMTAP	73	0	7
NMTAP	73	96	7
NMTAP	73	192	7
BRTAP	74	0	0
BRTAP	74	0	7
NMSTR	75	0	0
NMSI_	75	0	0	96	288	4
NMSTR	77	0	7
NMSI_	77	0	7	96	288	3
NMTAP	79	0	1
NMTAP	79	96	1
NMTAP	79	192	1
NMTAP	80	0	0
NMTAP	80	96	0
NMTAP	80	192	0
NMTAP	80	192	7
NMTAP	81	0	6
NMTAP	81	96	6
NMTAP	81	192	6
NMTAP	82	0	7
NMTAP	82	96	7
NMTAP	82	192	0
NMTAP	82	192	7
BXTAP	82	288	0
BXTAP	82	288	7

T_REC_TAP	136
T_REC_BRK	7
T_REC_XTP	4
T_REC_BXX	3
T_REC_HLD	8
T_REC_XHO	2
T_REC_BHO	0
T_REC_BXH	0
T_REC_STR	4
T_REC_BST	0
T_REC_XST	0
T_REC_XBS	0
T_REC_TTP	8
T_REC_THO	0
T_REC_SLD	4
T_REC_BSL	0
T_REC_ALL	176
T_NUM_TAP	152
T_NUM_BRK	10
T_NUM_HLD	10
T_NUM_SLD	4
T_NUM_ALL	176
T_JUDGE_TAP	162
T_JUDGE_HLD	80
T_JUDGE_SLD	4
T_JUDGE_ALL	246
TTM_EACHPAIRS	38
TTM_SCR_TAP	76000
TTM_SCR_BRK	26000
TTM_SCR_HLD	10000
TTM_SCR_SLD	6000
TTM_SCR_ALL	118000
TTM_SCR_S	113500
TTM_SCR_SS	117000
TTM_RAT_ACV	10085

