VERSION	0.00.00	1.05.00
FES_MODE	0
BPM_DEF	239.000	239.000	239.000	239.000
MET_DEF	4	4
RESOLUTION	384
CLK_DEF	384
COMPATIBLE_CODE	MA2

BPM	0	0	239.000
MET	0	0	4	4

NMTTP	2	0	2	E	1	M1
NMTTP	2	96	3	B	1	M1
NMTTP	2	192	5	E	1	M1
NMTAP	2	288	6
NMHLD	2	336	6	96
NMTAP	3	48	4
NMTAP	3	96	4
NMTAP	3	192	2
NMTAP	3	288	1
NMTAP	3	288	4
NMTTP	4	0	2	E	1	M1
NMTTP	4	96	3	B	1	M1
NMTTP	4	192	5	E	1	M1
NMTAP	4	288	6
NMHLD	4	336	6	96
NMTAP	5	48	4
NMTAP	5	96	4
NMTAP	5	192	6
NMTAP	5	192	7
NMTAP	5	288	0
NMTAP	5	288	1
NMSTR	6	0	2
NMSI_	6	0	2	96	96	7
NMTAP	6	0	3
NMSTR	6	192	5
NMSUL	6	192	5	96	192	3
NMTAP	7	192	2
NMTAP	7	288	2
NMTAP	7	288	3
NMTAP	8	0	0
NMTAP	8	0	1
NMTAP	8	96	6
NMTAP	8	96	7
NMTAP	8	192	4
NMTAP	8	192	5
NMTAP	8	288	2
NMTAP	8	288	3
NMTAP	9	0	1
NMTAP	9	0	4
NMTAP	9	96	4
NMTAP	9	96	5
NMTAP	9	192	3
NMTAP	9	192	6
NMSTR	9	288	2
NMSI_	9	288	2	96	48	0
NMHLD	10	0	3	288
NMHLD	10	288	0	288
NMTAP	11	0	3
NMTAP	11	96	3
NMTAP	11	192	3
NMTAP	11	288	2
NMTAP	11	288	4
NMSTR	12	0	1
NMSI_	12	0	1	96	48	3
NMTAP	12	96	5
NMSTR	12	144	6
NMSI_	12	144	6	96	48	0
NMTAP	12	240	2
NMHLD	12	288	2	96
NMHLD	13	0	0	96
NMHLD	13	96	7	96
NMTAP	13	192	5
NMTAP	13	240	5
NMTAP	13	288	4
NMSTR	14	0	6
NMSI_	14	0	6	96	48	4
NMTAP	14	96	2
NMSTR	14	144	1
NMSI_	14	144	1	96	48	7
NMTAP	14	240	5
NMHLD	14	288	5	96
NMHLD	15	0	7	96
NMHLD	15	96	0	96
NMSTR	15	192	2
NMSI_	15	192	2	96	48	7
NMTAP	15	288	4
NMSTR	16	0	6
NMSI_	16	0	6	96	48	4
NMTAP	16	96	2
NMSTR	16	144	1
NMSI_	16	144	1	96	48	7
NMTAP	16	240	5
NMHLD	16	288	5	96
NMHLD	17	0	7	96
NMHLD	17	96	0	96
NMTAP	17	192	2
NMTAP	17	240	2
NMTAP	17	288	3
NMTAP	18	0	0
NMTAP	18	0	1
NMTAP	18	96	4
NMTAP	18	96	6
NMTAP	18	192	6
NMTAP	18	192	7
NMTAP	18	288	1
NMTAP	18	288	3
NMTAP	19	0	0
NMTAP	19	0	1
NMTAP	19	96	0
NMTAP	19	96	7
NMTAP	19	192	6
NMTAP	19	192	7
NMTAP	19	288	4
NMTAP	19	288	5
NMHLD	20	0	3	96
NMHLD	20	0	5	96
NMTAP	20	192	4
NMTAP	20	288	4
NMHLD	20	336	4	96
NMTAP	21	96	3
NMTAP	21	96	5
NMHLD	21	192	4	96
NMTAP	22	0	5
NMTAP	22	48	4
NMTAP	22	96	3
NMHLD	22	144	2	144
NMTAP	22	288	4
NMTAP	23	0	3
NMTAP	23	96	4
NMTAP	23	144	3
NMTAP	23	144	5
EXTAP	23	192	3
EXTAP	23	192	5
EXTAP	23	288	2
EXTAP	23	288	4
EXTAP	24	0	1
EXTAP	24	0	5
NMTAP	24	96	1
NMTAP	24	96	4
NMTAP	24	192	1
NMTAP	24	240	3
NMTAP	24	288	1
NMHLD	24	336	3	96
NMTAP	25	0	1
NMTAP	25	96	1
NMTAP	25	96	4
NMTAP	25	192	1
NMTAP	25	240	3
NMTAP	25	288	1
NMTAP	26	0	4
NMTAP	26	48	4
NMTAP	26	96	2
NMTAP	26	144	2
NMTAP	26	192	3
NMTAP	26	216	4
NMTAP	26	240	5
NMTAP	26	264	6
NMTAP	26	288	7
NMTAP	26	312	0
NMTAP	26	336	1
NMTAP	26	360	2
NMTAP	27	0	3
EXTAP	27	96	4
EXTAP	27	96	5
EXTAP	27	192	1
EXTAP	27	192	3
BRTAP	27	288	7
NMTAP	28	0	4
NMTAP	28	0	6
NMTAP	28	72	3
NMTAP	28	72	5
NMTAP	28	144	2
NMTAP	28	144	4
NMTAP	28	240	1
NMHLD	28	288	1	192
NMTAP	29	0	3
NMTAP	29	48	4
NMHLD	29	96	5	192
NMTAP	29	192	2
NMTAP	29	240	1
NMTAP	29	288	0
NMSTR	30	0	0
NMSLR	30	0	0	96	96	4
NMSTR	30	96	4
NMSLR	30	96	4	96	96	0
NMTAP	30	192	0
NMTAP	30	288	4
NMTAP	31	0	1
NMTAP	31	0	3
NMTAP	31	72	2
NMTAP	31	72	4
NMTAP	31	144	3
NMTAP	31	144	5
NMTAP	31	240	6
NMTAP	31	288	6
NMHLD	32	0	5	96
NMHLD	32	0	7	96
NMTAP	32	144	4
NMTAP	32	192	4
NMTAP	32	240	3
NMTAP	32	288	3
NMTAP	32	336	5
NMTAP	33	0	5
NMSTR	33	48	1
NMSUL	33	48	1	96	48	5
NMHLD	33	144	7	96
NMTAP	33	240	4
NMHLD	33	288	4	96
NMTAP	34	0	6
NMTAP	34	48	5
NMTAP	34	96	4
NMTAP	34	144	3
NMTAP	34	192	2
NMTAP	34	192	6
NMTAP	34	240	1
NMTAP	34	288	0
NMTAP	34	336	7
NMTAP	35	0	2
NMTAP	35	0	6
NMTAP	35	48	5
NMTAP	35	96	4
BRSTR	35	144	3
NMSLL	35	144	3	96	96	4
CNSI_	35	336	4	0	96	0
NMHLD	36	48	5	96
NMTAP	36	144	7
NMHLD	36	192	7	96
NMHLD	36	288	0	96
EXTAP	37	0	2
EXTAP	37	48	2
NMTAP	37	144	2
NMTAP	37	144	3
NMTAP	37	192	2
NMTAP	37	192	3
NMTAP	37	288	3
NMTAP	37	288	4
NMSTR	38	0	4
NMSCL	38	0	4	96	96	1
NMSTR	38	0	5
NMSUL	38	0	5	96	96	0
NMSTR	38	288	0
NMSI_	38	288	0	96	48	2
NMSTR	38	288	7
NMSI_	38	288	7	96	48	5
NMTAP	39	0	0
NMTAP	39	0	7
BRTAP	39	96	0
BRTAP	39	144	0
NMTAP	39	240	4
NMSTR	39	288	4
NMSF_	39	288	4	96	72	0
NMTAP	40	144	2
NMTAP	40	144	6
NMTAP	40	192	2
NMHLD	40	192	6	96
NMHLD	40	288	4	96
NMHLD	41	0	3	96
NMHLD	41	96	1	96
NMTAP	41	192	0
NMTAP	41	240	0
NMTAP	41	336	1
NMTAP	41	336	3
NMTAP	42	0	1
NMTAP	42	0	3
NMTAP	42	48	0
NMTAP	42	144	4
NMTAP	42	144	6
NMTAP	42	192	4
NMTAP	42	192	6
NMTAP	42	240	7
EXSTR	42	288	7
NMSCR	42	288	7	96	72	1
CNSV_	43	72	1	0	72	2
CNSCR	43	144	2	0	48	4
BRTAP	43	288	0
BRSTR	43	288	7
BRSUR	43	288	7	96	48	3
NMHLD	44	0	2	144
BRTAP	44	0	7
NMTAP	44	144	4
NMTAP	44	192	4
NMTAP	44	288	1
NMTAP	44	288	5
NMTAP	45	0	6
NMTAP	45	48	6
NMTAP	45	96	5
NMTAP	45	96	7
NMTAP	45	192	1
NMTAP	45	240	1
NMTAP	45	288	0
NMTAP	45	288	2
NMSTR	46	0	7
NMSCL	46	0	7	96	96	3
NMSTR	46	96	3
NMSCL	46	96	3	96	96	7
NMTAP	46	192	7
NMTAP	46	288	3
NMSTR	47	0	1
NMSI_	47	0	1	96	48	6
NMSTR	47	0	5
NMSI_	47	0	5	96	48	2
EXTAP	47	192	0
EXTAP	47	192	4
NMSTR	48	0	5
NMSCR	48	0	5	96	288	2
NMTAP	48	96	3
NMTAP	48	192	3
NMTAP	48	288	3
CNSCL	49	0	2	0	288	5
NMTAP	49	0	4
NMTAP	49	96	4
NMTAP	49	192	3
NMTAP	49	288	3
NMSTR	50	0	1
NMSI_	50	0	1	96	48	4
NMTAP	50	96	5
NMSTR	50	192	6
NMSI_	50	192	6	96	48	3
NMTAP	50	288	1
NMSTR	51	0	0
NMSCR	51	0	0	96	48	3
NMSTR	51	96	7
NMSCL	51	96	7	96	48	4
BRTAP	51	192	2
NMTAP	52	0	4
NMTAP	52	0	6
NMHLD	52	48	4	144
NMHLD	52	48	6	432
NMTAP	53	0	4
NMTAP	53	96	4
EXTAP	53	192	6
EXTAP	53	192	7
EXTAP	53	288	0
EXTAP	53	288	1
NMTAP	54	0	1
NMTAP	54	0	3
NMHLD	54	48	1	432
NMHLD	54	48	3	144
NMTAP	55	0	3
NMTAP	55	96	3
EXTAP	55	192	0
EXTAP	55	192	1
EXTAP	55	288	6
EXTAP	55	288	7
NMTAP	56	0	5
NMTAP	56	48	5
NMTAP	56	96	4
NMTAP	56	144	4
NMTAP	56	192	6
NMTAP	56	240	6
NMTAP	56	288	2
NMTAP	56	336	2
NMTAP	57	0	3
NMTAP	57	48	3
NMTAP	57	96	1
NMTAP	57	144	1
NMTAP	57	192	7
NMTAP	57	240	7
NMHLD	57	288	0	96
NMSTR	58	0	6
NMSCR	58	0	6	96	48	1
NMTAP	58	48	6
NMSTR	58	144	2
NMSCR	58	144	2	96	48	5
NMTAP	58	192	2
NMSTR	58	288	7
NMSCL	58	288	7	96	144	0
NMHLD	58	336	7	336
EXSTR	59	288	0
BRSI_	59	288	0	96	48	4
BRTAP	60	0	0
NMSTR	60	0	6
BRSI_	60	0	6	96	48	2
NMSTR	60	96	1
BRSI_	60	96	1	96	48	5
BRTAP	60	96	6
BRTAP	60	192	1
NMTAP	60	192	7
NMTAP	60	288	2
NMHLD	60	336	2	96
NMTAP	61	48	0
NMSTR	61	96	0
NMSI_	61	96	0	96	48	3
NMSI_	61	96	0	96	48	5
EXTAP	61	192	0
NMTAP	61	288	4
EXSTR	61	288	6
BRSI_	61	288	6	96	48	1
NMSTR	62	0	2
BRSI_	62	0	2	96	48	5
BRTAP	62	0	6
BRTAP	62	96	2
NMSTR	62	96	4
BRSI_	62	96	4	96	48	7
NMTAP	62	192	0
BRTAP	62	192	4
NMTAP	62	288	6
NMHLD	62	336	6	96
NMTAP	63	48	4
NMTAP	63	96	4
NMTAP	63	192	0
NMTAP	63	192	7
NMTAP	63	288	1
NMTAP	63	288	3
NMSTR	64	0	6
NMSCL	64	0	6	96	48	3
NMTAP	64	96	2
NMTAP	64	144	1
NMSTR	64	192	0
NMSCR	64	192	0	96	48	3
NMTAP	64	288	5
NMTAP	64	336	6
NMSTR	65	0	7
NMSI_	65	0	7	96	48	3
NMTAP	65	96	2
NMTAP	65	144	1
NMTAP	65	192	0
EXSTR	65	288	0
NMSCR	65	288	0	96	96	4
NMSTR	66	0	4
NMSCR	66	0	4	96	96	0
NMSTR	66	96	0
NMSCR	66	96	0	96	96	4
NMSTR	66	192	4
NMSCR	66	192	4	96	96	0
NMSTR	66	288	0
NMSCR	66	288	0	96	96	4
NMTAP	67	0	4
NMTAP	67	96	0
NMTAP	67	192	2
NMTAP	67	192	6
EXSTR	67	288	7
BRSI_	67	288	7	96	48	3
NMSTR	68	0	1
BRSI_	68	0	1	96	48	5
BRTAP	68	0	7
BRTAP	68	96	1
NMSTR	68	96	6
BRSI_	68	96	6	96	48	2
NMTAP	68	192	0
BRTAP	68	192	6
NMTAP	68	288	4
NMTAP	69	0	6
NMTAP	69	48	6
NMSTR	69	96	7
NMSI_	69	96	7	96	48	2
NMSI_	69	96	7	96	48	4
EXTAP	69	192	7
EXSTR	69	288	1
BRSI_	69	288	1	96	48	6
NMTAP	69	288	3
BRTAP	70	0	1
NMSTR	70	0	5
BRSI_	70	0	5	96	48	2
NMSTR	70	96	3
BRSI_	70	96	3	96	48	0
BRTAP	70	96	5
BRTAP	70	192	3
NMTAP	70	192	7
NMTAP	70	288	1
NMHLD	70	336	1	96
NMSTR	71	48	3
NMSLR	71	48	3	96	96	7
NMSTR	71	144	7
NMSLR	71	144	7	96	96	3
NMTAP	71	240	3
NMTAP	71	336	7
NMSTR	72	0	7
NMSF_	72	0	7	96	48	3
NMSTR	72	192	0
NMSF_	72	192	0	96	48	4
NMTAP	73	0	7
NMTAP	73	96	1
NMTAP	73	96	5
NMTAP	73	192	2
NMTAP	73	240	3
NMTAP	73	288	4
NMTAP	73	336	5
NMSTR	74	0	6
NMSI_	74	0	6	96	48	1
NMTAP	74	96	4
NMTAP	74	144	3
NMSTR	74	192	2
NMSI_	74	192	2	96	48	5
NMTAP	74	288	0
NMSTR	75	0	6
NMSI_	75	0	6	96	48	3
NMSTR	75	96	2
NMSI_	75	96	2	96	48	7
NMSTR	75	192	5
NMSI_	75	192	5	96	48	0
NMSTR	75	288	1
NMSI_	75	288	1	96	48	4
NMSTR	76	0	7
NMSCL	76	0	7	96	480	1
NMTAP	76	288	0
NMTAP	77	0	0
NMTAP	77	96	0
NMTAP	77	192	0
NMSTR	77	288	0
NMSI_	77	288	0	96	192	6
NMTAP	78	0	5
NMTAP	78	96	5
NMTAP	78	192	5
CNSI_	78	192	6	0	192	2
NMTAP	78	288	5
CNSI_	79	0	2	0	192	4
NMTAP	79	0	5
NMTAP	79	96	5
NMTAP	79	192	5
NMSTR	79	288	5
NMSI_	79	288	5	96	192	2
NMTAP	80	0	3
NMTAP	80	96	3
CNSI_	80	192	2	0	192	7
NMTAP	80	192	3
NMTAP	80	288	3
NMTAP	81	0	3
CNSI_	81	0	7	0	192	4
NMTAP	81	96	3
NMTAP	81	192	3
NMSTR	81	288	3
NMSI_	81	288	3	96	192	5
NMTAP	82	0	7
NMTAP	82	96	7
CNSI_	82	192	5	0	192	0
NMTAP	82	192	7
NMTAP	82	288	7
CNSLR	83	0	0	0	192	4
NMTAP	83	0	7
NMTAP	83	96	7
NMTAP	83	192	7
NMSTR	83	288	7
NMSI_	83	288	7	96	48	3
NMTAP	84	0	7
NMTAP	84	96	2
NMTAP	84	128	4
NMTAP	84	160	2
NMTAP	84	192	4
NMTAP	84	224	2
NMTAP	84	256	4
NMTAP	84	288	2
NMTAP	84	320	4
NMTAP	84	352	2
EXTAP	85	0	3
NMTAP	85	32	1
NMTAP	85	64	3
NMTAP	85	96	1
NMTAP	85	128	3
NMTAP	85	160	1
NMTAP	85	192	3
NMTAP	85	224	1
NMTAP	85	256	3
NMSTR	85	288	0
NMSI_	85	288	0	96	48	4
NMTAP	86	0	0
NMTAP	86	96	5
NMTAP	86	128	3
NMTAP	86	160	5
NMTAP	86	192	3
NMTAP	86	224	5
NMTAP	86	256	3
NMTAP	86	288	5
NMTAP	86	320	3
NMTAP	86	352	5
EXTAP	87	0	4
NMTAP	87	32	6
NMTAP	87	64	4
NMTAP	87	96	6
NMTAP	87	128	4
NMTAP	87	160	6
NMTAP	87	192	4
NMTAP	87	224	6
NMTAP	87	256	4
NMSTR	87	288	7
NMSI_	87	288	7	96	48	3
NMTAP	88	0	7
NMTAP	88	96	2
NMTAP	88	128	4
NMTAP	88	160	2
NMTAP	88	192	4
NMTAP	88	224	2
NMTAP	88	256	4
NMTAP	88	288	2
NMTAP	88	320	4
NMTAP	88	352	2
EXTAP	89	0	5
NMTAP	89	32	3
NMTAP	89	64	5
NMTAP	89	96	3
NMTAP	89	128	5
NMTAP	89	160	2
NMTAP	89	192	4
NMTAP	89	224	1
NMTAP	89	256	3
NMSTR	89	288	0
NMSI_	89	288	0	96	48	4
NMTAP	90	0	0
NMTAP	90	96	5
NMTAP	90	128	3
NMTAP	90	160	5
NMTAP	90	192	3
NMTAP	90	224	5
NMTAP	90	256	3
NMTAP	90	288	5
NMTAP	90	320	3
NMTAP	90	352	5
EXTAP	91	0	2
NMTAP	91	32	4
NMTAP	91	64	2
NMTAP	91	96	4
NMTAP	91	128	2
NMTAP	91	160	5
NMTAP	91	192	3
NMTAP	91	224	6
NMTAP	91	256	4
BRHLD	91	288	7	96
EXSTR	92	0	4
NMSI_	92	0	4	96	48	1
EXTAP	92	32	4
EXSTR	92	96	0
NMSI_	92	96	0	96	48	5
EXTAP	92	128	0
EXSTR	92	192	7
NMSI_	92	192	7	96	48	2
EXTAP	92	224	7
EXSTR	92	288	3
NMSI_	92	288	3	96	48	6
EXTAP	92	320	3
EXSTR	93	0	4
NMSI_	93	0	4	96	48	1
EXTAP	93	32	4
EXSTR	93	96	0
NMSI_	93	96	0	96	48	5
EXTAP	93	128	0
EXSTR	93	192	7
NMSI_	93	192	7	96	48	2
EXTAP	93	224	7
EXSTR	93	288	3
NMSI_	93	288	3	96	48	6
EXTAP	93	320	3
EXSTR	94	0	4
NMSI_	94	0	4	96	48	1
EXTAP	94	32	4
EXSTR	94	96	0
NMSI_	94	96	0	96	48	5
EXTAP	94	128	0
EXSTR	94	192	7
NMSI_	94	192	7	96	48	2
EXTAP	94	224	7
EXSTR	94	288	3
NMSI_	94	288	3	96	48	6
EXTAP	94	320	3
EXSTR	95	0	4
NMSI_	95	0	4	96	48	1
EXTAP	95	32	4
EXSTR	95	96	0
NMSI_	95	96	0	96	48	5
EXTAP	95	128	0
EXTAP	95	192	7
EXTAP	95	224	7
NMTAP	95	288	0
NMTAP	95	288	4
NMTAP	96	0	1
NMTAP	96	32	3
NMTAP	96	64	1
NMSTR	96	96	3
NMSI_	96	96	3	96	48	6
NMSTR	96	192	3
NMSI_	96	192	3	96	48	0
NMSI_	96	192	3	96	48	7
NMTAP	96	288	3
NMTAP	97	0	6
NMTAP	97	32	4
NMTAP	97	64	6
NMSTR	97	96	4
NMSI_	97	96	4	96	48	1
NMSTR	97	192	4
NMSI_	97	192	4	96	48	0
NMSI_	97	192	4	96	48	7
NMTAP	97	288	4
NMTAP	98	0	1
NMTAP	98	32	3
NMTAP	98	64	1
NMSTR	98	96	3
NMSCR	98	96	3	96	48	6
NMSTR	98	192	3
NMSI_	98	192	3	96	48	7
NMSCL	98	192	3	96	48	0
NMTAP	98	288	3
NMTAP	99	0	6
NMTAP	99	32	5
NMTAP	99	64	4
NMTAP	99	96	1
NMTAP	99	128	2
NMTAP	99	160	3
BRHLD	99	192	6	96
EXTAP	99	288	0
NMSTR	100	0	1
NMSI_	100	0	1	96	48	5
NMTAP	100	96	5
NMSTR	100	144	6
NMSI_	100	144	6	96	48	3
NMTAP	100	240	2
NMHLD	100	288	2	96
NMHLD	101	0	0	96
NMHLD	101	96	7	96
NMTAP	101	192	5
NMTAP	101	240	5
NMTAP	101	288	4
NMSTR	102	0	6
NMSI_	102	0	6	96	48	2
NMTAP	102	96	2
NMSTR	102	144	1
NMSI_	102	144	1	96	48	4
NMTAP	102	240	5
NMHLD	102	288	5	96
NMHLD	103	0	7	96
NMHLD	103	96	0	96
NMSTR	103	192	2
NMSI_	103	192	2	96	48	7
NMTAP	103	288	4
NMSTR	104	0	6
NMSI_	104	0	6	96	48	2
NMTAP	104	96	2
NMSTR	104	144	1
NMSI_	104	144	1	96	48	4
NMTAP	104	240	5
NMHLD	104	288	5	96
NMHLD	105	0	7	96
NMHLD	105	96	0	96
NMHLD	105	192	2	96
NMTAP	105	288	3
NMTAP	106	0	5
NMTAP	106	48	5
NMTAP	106	96	3
NMTAP	106	144	3
NMTAP	106	192	4
NMTAP	106	240	4
NMTAP	106	288	2
NMTAP	106	336	2
NMTAP	107	0	3
NMTAP	107	96	1
NMTAP	107	96	4
NMTAP	107	192	4
NMTAP	107	192	5
NMTAP	107	288	3
NMTAP	107	288	6
NMTTP	108	0	2	E	0	M1
NMTTP	108	96	3	B	0	M1
NMTTP	108	192	5	E	0	M1
NMTAP	108	288	6
NMHLD	108	336	6	96
NMTAP	109	48	4
NMTAP	109	96	4
NMTAP	109	192	3
NMTAP	109	288	2
NMTAP	109	288	4
NMSTR	110	0	1
NMSCR	110	0	1	96	48	3
NMTAP	110	48	1
NMTAP	110	96	7
NMSTR	110	192	6
NMSCL	110	192	6	96	48	4
NMTAP	110	240	6
NMTAP	110	288	0
NMTTP	111	0	1	E	0	M1
NMTTP	111	24	1	B	0	M1
NMTTP	111	48	2	B	0	M1
NMTTP	111	72	3	E	0	M1
NMTTP	111	96	6	E	0	M1
NMTTP	111	120	5	B	0	M1
NMTTP	111	144	4	B	0	M1
NMTTP	111	168	4	E	0	M1
NMTAP	111	192	0
NMTAP	111	240	0
NMTAP	111	288	3
NMTTP	112	0	2	E	0	M1
NMTTP	112	96	3	B	0	M1
NMTTP	112	192	5	E	0	M1
NMTAP	112	288	6
NMHLD	112	336	6	96
NMTAP	113	48	4
NMTAP	113	96	4
NMTAP	113	192	3
NMTAP	113	288	2
NMTAP	113	288	4
NMTAP	114	0	5
NMTAP	114	48	5
NMTAP	114	96	3
NMTAP	114	144	4
NMTAP	114	192	2
NMTAP	114	240	2
NMTAP	114	288	4
NMTAP	114	336	3
NMTAP	115	0	5
NMTAP	115	48	5
NMTAP	115	96	3
NMTAP	115	144	3
NMTAP	115	192	4
NMTAP	115	240	4
NMSTR	115	288	2
NMSI_	115	288	2	96	48	4
NMSTR	116	0	5
NMSI_	116	0	5	96	48	7
NMSTR	116	96	1
NMSI_	116	96	1	96	48	3
EXTAP	116	192	6
NMTAP	116	288	7
NMHLD	116	336	7	96
NMTAP	117	48	5
NMTAP	117	96	5
NMTAP	117	192	3
NMTAP	117	192	4
NMSTR	117	288	2
NMSI_	117	288	2	96	48	4
NMSTR	118	0	5
NMSI_	118	0	5	96	48	7
NMSTR	118	96	1
NMSI_	118	96	1	96	48	3
EXTAP	118	192	6
NMTAP	118	288	7
NMHLD	118	336	7	96
NMTAP	119	48	4
NMSTR	119	96	4
NMSI_	119	96	4	96	48	0
NMSTR	119	192	6
NMSXR	119	192	6	96	384	2
NMTAP	119	288	1
NMTAP	120	0	0
NMTAP	120	96	0
NMTAP	120	192	0
NMTAP	120	288	0
NMTAP	121	0	1
NMTAP	121	48	1
NMTAP	121	96	3
NMTAP	121	144	3
NMTAP	121	192	4
NMTAP	121	240	4
NMTAP	121	288	6
NMTAP	121	336	6
NMSTR	122	0	3
NMSI_	122	0	3	96	96	0
NMSTR	122	192	4
NMSI_	122	192	4	96	96	7
NMHLD	123	0	0	192
NMTAP	123	192	7
NMSTR	123	288	6
NMSCR	123	288	6	96	96	1
NMSTR	124	288	5
BRSCR	124	288	5	96	96	2
NMSTR	125	192	1
NMSI_	125	192	1	96	48	4
NMSTR	125	192	6
NMSI_	125	192	6	96	48	3
BXSTR	125	288	1
NMSI_	125	288	1	96	48	7
BXTAP	125	288	6
BRTAP	126	0	1
NMSTR	126	0	5
NMSI_	126	0	5	96	48	1
NMSTR	126	96	2
NMSI_	126	96	2	96	48	7
BRTAP	126	96	5
BRTAP	126	192	2
NMTAP	126	192	6
NMTAP	126	288	5
NMHLD	126	336	5	96
NMTAP	127	48	4
NMSTR	127	96	4
NMSI_	127	96	4	96	48	1
NMSI_	127	96	4	96	48	7
EXTAP	127	192	4
EXSTR	127	288	0
BRSI_	127	288	0	96	48	5
BRTAP	128	0	0
NMSTR	128	0	4
BRSI_	128	0	4	96	48	7
NMSTR	128	96	3
BRSI_	128	96	3	96	48	0
BRTAP	128	96	4
BRTAP	128	192	3
NMTAP	128	192	6
NMTAP	128	288	5
NMHLD	128	336	5	96
NMTAP	129	48	7
NMTAP	129	96	0
NMTAP	129	144	7
NMTAP	129	192	6
NMTAP	129	240	0
NMTAP	129	288	1
NMTAP	129	336	6
NMSTR	130	0	5
NMSCR	130	0	5	96	48	0
NMTAP	130	96	1
NMTAP	130	144	2
NMSTR	130	192	3
NMSCL	130	192	3	96	48	0
NMTAP	130	288	6
NMTAP	130	336	5
NMSTR	131	0	4
NMSI_	131	0	4	96	48	0
NMTAP	131	96	1
NMTAP	131	144	2
NMTAP	131	192	3
EXSTR	131	288	3
NMSCL	131	288	3	96	96	7
NMSTR	132	0	7
NMSCL	132	0	7	96	96	3
NMSTR	132	96	3
NMSCL	132	96	3	96	96	7
NMSTR	132	192	7
NMSCL	132	192	7	96	96	3
NMTAP	132	288	3
NMTAP	133	0	7
NMSTR	133	96	2
NMSI_	133	96	2	96	48	5
NMSTR	133	96	6
NMSI_	133	96	6	96	48	1
BRTAP	133	192	2
BRTAP	133	192	6
EXTAP	133	288	3
EXSTR	133	288	7
BRSI_	133	288	7	96	48	2
NMSTR	134	0	3
BRSI_	134	0	3	96	48	7
BRTAP	134	0	7
BRTAP	134	96	3
NMSTR	134	96	6
BRSI_	134	96	6	96	48	2
NMTAP	134	192	0
BRTAP	134	192	6
NMTAP	134	288	1
NMTAP	134	288	4
NMTAP	135	0	6
NMTAP	135	48	6
NMSTR	135	96	7
NMSI_	135	96	7	96	48	2
NMSI_	135	96	7	96	48	4
EXTAP	135	192	7
EXSTR	135	288	1
BRSI_	135	288	1	96	48	6
NMTAP	135	288	3
BRTAP	136	0	1
NMSTR	136	0	5
BRSI_	136	0	5	96	48	7
NMSTR	136	96	4
BRSI_	136	96	4	96	48	0
BRTAP	136	96	5
BRTAP	136	192	4
NMTAP	136	288	1
NMHLD	136	336	1	96
NMSTR	137	48	0
NMSLL	137	48	0	96	96	4
NMSTR	137	144	4
NMSLL	137	144	4	96	96	0
NMTAP	137	240	0
NMTAP	137	336	4
NMSTR	138	0	4
NMSF_	138	0	4	96	48	0
NMSTR	138	192	3
NMSF_	138	192	3	96	48	7
NMTAP	139	0	4
NMTAP	139	96	2
NMTAP	139	96	6
NMTAP	139	192	2
NMTAP	139	240	3
NMTAP	139	288	4
NMTAP	139	336	5
NMSTR	140	0	6
NMSI_	140	0	6	96	48	3
NMTAP	140	96	2
NMTAP	140	144	2
NMTAP	140	240	0
NMSTR	140	288	0
NMSCR	140	288	0	96	48	3
NMSTR	141	0	0
NMSI_	141	0	0	96	48	4
NMSCL	141	0	0	96	48	5
NMTAP	141	96	0
NMTAP	141	288	2
NMTAP	141	288	4
NMTAP	142	0	1
NMTAP	142	24	3
NMTAP	142	48	1
NMTAP	142	72	3
NMTAP	142	96	1
NMTAP	142	120	3
NMTAP	142	144	1
NMTAP	142	168	3
EXTAP	142	192	2
NMTAP	142	216	3
EXTAP	142	240	1
NMTAP	142	264	3
EXTAP	142	288	0
NMTAP	143	0	6
NMTAP	143	24	4
NMTAP	143	48	6
NMTAP	143	72	4
NMTAP	143	96	6
NMTAP	143	120	4
NMTAP	143	144	6
NMTAP	143	168	4
EXTAP	143	192	5
NMTAP	143	216	4
EXTAP	143	240	6
NMTAP	143	264	4
EXSTR	143	288	7
NMSCL	143	288	7	96	576	0
NMTTP	144	0	0	C	1	M1
NMTAP	146	0	3
NMTAP	146	48	3
NMTAP	146	96	5
NMTAP	146	144	5
NMTAP	146	192	2
NMTAP	146	240	2
NMTAP	146	288	6
NMTAP	146	336	6
NMTAP	147	0	0
NMTAP	147	24	7
NMTAP	147	48	0
NMTAP	147	72	7
NMTAP	147	96	0
NMTAP	147	120	7
NMTAP	147	144	0
NMTAP	147	168	7
NMTAP	147	192	0
NMTAP	147	216	7
NMTAP	147	240	0
NMTAP	147	264	7
NMTAP	147	288	0
NMTAP	147	312	7
NMTAP	147	336	0
NMTAP	147	360	7
NMSTR	148	0	1
NMSI_	148	0	1	96	48	4
NMTAP	148	96	4
NMSTR	148	144	5
NMSI_	148	144	5	96	48	0
NMTAP	148	240	2
NMHLD	148	288	2	96
NMHLD	149	0	0	96
NMHLD	149	96	7	96
NMTAP	149	192	5
NMTAP	149	240	5
NMTAP	149	288	4
NMSTR	150	0	6
NMSI_	150	0	6	96	48	3
NMTAP	150	96	3
NMSTR	150	144	2
NMSI_	150	144	2	96	48	7
NMTAP	150	240	5
NMHLD	150	288	5	96
NMHLD	151	0	7	96
NMHLD	151	96	0	96
NMSTR	151	192	2
NMSCL	151	192	2	96	48	7
NMTAP	151	288	4
NMSTR	152	0	6
NMSI_	152	0	6	96	48	3
NMTAP	152	96	3
NMSTR	152	144	2
NMSI_	152	144	2	96	48	7
NMTAP	152	240	5
NMHLD	152	288	5	96
NMHLD	153	0	7	96
NMHLD	153	96	0	96
NMTAP	153	192	2
NMTAP	153	240	2
NMTAP	153	288	3
NMTAP	154	0	0
NMTAP	154	0	1
NMTAP	154	96	4
NMTAP	154	96	6
NMTAP	154	192	6
NMTAP	154	192	7
NMTAP	154	288	1
NMTAP	154	288	3
NMTAP	155	0	0
NMTAP	155	0	1
NMTAP	155	96	0
NMTAP	155	96	7
NMTAP	155	192	6
NMTAP	155	192	7
NMSTR	155	288	4
NMSXR	155	288	4	96	672	0
NMTAP	155	288	5
BRTAP	156	0	6
NMTAP	156	192	5
NMTAP	157	0	6
NMTAP	157	96	6
NMTAP	157	192	5
NMTAP	157	288	5
NMTAP	158	0	6
NMTAP	158	48	6
NMTAP	158	96	0
NMTAP	158	144	0
NMTAP	158	192	7
NMTAP	158	240	7
NMTAP	158	288	1
NMTAP	158	336	1
NMTAP	159	0	6
NMTAP	159	24	0
NMTAP	159	48	6
NMTAP	159	72	0
NMTAP	159	96	6
NMTAP	159	192	1
NMTAP	159	216	7
NMTAP	159	240	1
NMTAP	159	264	7
NMTAP	159	288	1
NMTAP	160	0	2
NMTAP	160	24	3
NMTAP	160	48	2
NMTAP	160	96	1
NMTAP	160	96	4
NMTAP	160	144	1
NMTAP	160	144	4
NMTAP	160	288	5
NMTAP	160	312	4
NMTAP	160	336	5
NMTAP	161	0	3
NMTAP	161	0	6
NMTAP	161	48	3
NMTAP	161	48	6
NMSTR	161	192	0
NMSI_	161	192	0	96	48	3
NMSTR	161	192	7
NMSI_	161	192	7	96	48	4
NMTAP	161	240	1
NMTAP	161	240	6

T_REC_TAP	608
T_REC_BRK	33
T_REC_XTP	55
T_REC_BXX	1
T_REC_HLD	69
T_REC_XHO	0
T_REC_BHO	2
T_REC_BXH	0
T_REC_STR	129
T_REC_BST	2
T_REC_XST	25
T_REC_XBS	1
T_REC_TTP	21
T_REC_THO	0
T_REC_SLD	142
T_REC_BSL	23
T_REC_ALL	1111
T_NUM_TAP	838
T_NUM_BRK	62
T_NUM_HLD	69
T_NUM_SLD	142
T_NUM_ALL	1111
T_JUDGE_TAP	875
T_JUDGE_HLD	179
T_JUDGE_SLD	165
T_JUDGE_ALL	1219
TTM_EACHPAIRS	126
TTM_SCR_TAP	419000
TTM_SCR_BRK	161200
TTM_SCR_HLD	69000
TTM_SCR_SLD	213000
TTM_SCR_ALL	862200
TTM_SCR_S	830350
TTM_SCR_SS	856000
TTM_RAT_ACV	10072

