VERSION	0.00.00	1.05.00
FES_MODE	0
BPM_DEF	239.000	239.000	239.000	239.000
MET_DEF	4	4
RESOLUTION	384
CLK_DEF	384
COMPATIBLE_CODE	MA2

BPM	0	0	239.000
MET	0	0	4	4

BXTAP	2	0	1
BXTAP	2	96	1
BXTAP	2	192	7
EXTAP	2	288	0
EXTAP	2	288	6
EXTAP	2	336	0
EXSTR	2	336	6
NMSCL	2	336	6	96	144	3
NMTAP	3	288	2
BXTAP	4	0	1
BXTAP	4	96	1
BXTAP	4	192	7
EXTAP	4	288	0
EXTAP	4	288	6
EXHLD	4	336	0	144
EXHLD	4	336	6	144
NMTAP	5	192	1
NMTAP	5	192	5
NMTAP	5	288	2
NMTAP	5	288	4
NMTAP	6	0	5
NMHLD	6	96	5	96
NMTAP	6	192	4
NMHLD	6	288	4	96
NMTAP	7	0	3
NMHLD	7	96	3	96
NMTAP	7	192	2
NMTAP	7	288	2
NMTAP	8	0	1
NMTAP	8	0	3
NMTAP	8	96	1
NMTAP	8	96	3
NMTAP	8	192	4
NMTAP	8	288	4
NMTAP	9	0	3
NMTAP	9	0	5
NMTAP	9	96	6
NMTAP	9	192	7
NMSTR	9	288	0
BRSCR	9	288	0	96	384	5
NMTAP	9	288	6
BXTAP	11	288	3
BXTAP	11	288	5
NMHLD	12	0	2	96
NMTAP	12	96	3
NMHLD	12	144	3	96
NMTAP	12	240	1
NMTAP	12	288	1
NMTAP	13	0	0
NMTAP	13	0	1
NMTAP	13	96	2
NMTAP	13	96	3
NMTAP	13	192	4
NMTAP	13	192	5
NMTAP	13	288	4
NMTAP	13	288	5
NMHLD	14	0	5	96
NMTAP	14	96	4
NMHLD	14	144	4	96
NMTAP	14	240	6
NMTAP	14	288	6
EXTAP	15	0	6
EXTAP	15	0	7
EXTAP	15	96	6
EXTAP	15	96	7
BXTAP	15	192	0
BXTAP	15	192	5
NMHLD	16	0	1	96
NMTAP	16	96	0
NMHLD	16	144	0	96
NMTAP	16	240	2
NMTAP	16	288	2
NMTAP	17	0	1
NMTAP	17	0	3
NMTAP	17	96	3
NMTAP	17	96	4
NMTAP	17	192	4
NMTAP	17	192	6
NMTAP	17	288	4
NMTAP	17	288	6
NMTAP	18	0	6
NMTAP	18	0	7
NMTAP	18	96	4
NMTAP	18	96	5
NMTAP	18	192	2
NMTAP	18	192	3
NMTAP	18	288	0
NMTAP	18	288	1
EXTAP	19	0	0
EXTAP	19	0	1
NMTAP	19	96	2
NMTAP	19	96	3
EXTAP	19	192	4
EXTAP	19	192	5
NMTAP	19	288	4
NMTAP	19	288	5
BXTAP	20	0	3
BXHLD	20	0	6	1248
NMTAP	20	288	4
NMTAP	21	96	4
NMTAP	21	288	4
NMTAP	22	96	5
NMTAP	22	288	5
NMTAP	23	96	7
EXTAP	23	192	0
EXTAP	23	288	0
EXTAP	23	288	7
NMTAP	24	0	1
NMTAP	24	96	3
NMTAP	24	192	2
NMTAP	24	192	4
NMTAP	24	288	2
NMTAP	24	288	4
NMTAP	25	0	6
NMTAP	25	96	4
NMTAP	25	192	3
NMTAP	25	192	5
NMTAP	25	288	3
NMTAP	25	288	5
NMTAP	26	0	2
NMTAP	26	48	2
NMTAP	26	96	4
NMTAP	26	192	5
NMTAP	26	240	5
NMTAP	26	288	3
NMTAP	27	0	2
NMTAP	27	0	4
NMTAP	27	96	0
NMTAP	27	96	6
NMTAP	27	192	1
NMTAP	27	192	5
EXTAP	27	288	6
EXSTR	28	0	7
NMSI_	28	0	7	96	96	3
NMTAP	28	288	2
NMHLD	29	0	1	96
NMTAP	29	96	3
NMHLD	29	192	6	96
NMTAP	29	288	4
NMTAP	30	0	4
NMTAP	30	0	5
NMTAP	30	96	4
NMTAP	30	96	5
NMTAP	30	192	3
NMTAP	30	192	4
NMTAP	30	288	2
NMTAP	30	288	3
NMSTR	31	0	4
NMSI_	31	0	4	96	96	7
NMTAP	31	288	0
NMHLD	32	0	0	96
NMHLD	32	0	1	96
NMTAP	32	192	2
NMTAP	32	240	2
NMTAP	32	288	3
NMTAP	33	0	5
NMTAP	33	48	5
NMTAP	33	96	4
NMTAP	33	192	6
NMTAP	33	192	7
NMTAP	33	288	0
NMHLD	34	0	1	96
NMHLD	34	96	3	96
NMHLD	34	192	2	96
NMTAP	34	288	4
NMTAP	35	0	3
NMTAP	35	0	5
BXTAP	35	96	2
BXTAP	35	96	6
BXHLD	35	144	2	144
BXHLD	35	144	6	144
NMTAP	36	0	1
NMTAP	36	0	5
NMTAP	36	96	6
NMTAP	36	144	6
NMTAP	36	192	7
NMTAP	36	288	4
NMTAP	36	288	5
NMTAP	37	0	2
NMTAP	37	0	3
NMTAP	37	96	1
NMTAP	37	144	1
NMTAP	37	192	0
NMTAP	37	288	2
NMTAP	37	288	3
NMTAP	38	0	5
NMTAP	38	96	3
NMTAP	38	96	6
NMTAP	38	192	2
NMTAP	38	288	1
NMTAP	38	288	4
NMTAP	39	0	6
NMTAP	39	96	4
NMTAP	39	96	7
NMTAP	39	192	1
NMTAP	39	288	0
NMTAP	39	288	3
NMHLD	40	0	1	96
NMHLD	40	0	3	96
NMHLD	40	192	4	96
NMHLD	40	192	6	96
NMTAP	41	0	5
NMTAP	41	96	4
NMTAP	41	96	6
NMTAP	41	192	2
NMTAP	41	288	1
NMTAP	41	288	3
NMSTR	42	0	0
NMSI_	42	0	0	96	96	3
NMSTR	42	192	7
NMSI_	42	192	7	96	96	4
NMTTP	43	0	0	C	1	M1
BXTAP	43	288	0
BXTAP	43	288	7
NMHLD	44	0	6	96
NMTAP	44	96	7
NMTAP	44	192	7
NMTAP	44	288	4
NMTAP	44	288	5
NMTAP	45	0	2
NMTAP	45	0	3
NMTAP	45	96	1
NMSTR	45	192	1
NMSI_	45	192	1	96	96	5
NMHLD	46	96	6	96
NMTAP	46	192	4
NMTAP	46	288	5
EXTAP	47	0	4
EXTAP	47	0	5
NMSTR	47	96	7
NMSI_	47	96	7	96	96	3
EXHLD	48	0	0	96
NMTAP	48	96	3
NMTAP	48	192	1
NMTAP	48	192	4
NMTAP	48	288	2
NMTAP	48	288	3
NMTAP	49	0	4
NMTAP	49	0	5
NMHLD	49	96	6	96
NMTAP	49	192	7
NMTAP	49	288	4
NMTAP	49	288	5
NMTAP	50	0	2
NMTAP	50	0	3
NMTAP	50	96	0
NMTAP	50	96	1
NMSTR	50	192	7
NMSI_	50	192	7	96	96	4
CNSCL	51	0	4	0	48	3
CNSI_	51	48	3	0	144	0
NMTAP	52	0	0
NMTAP	52	0	1
NMHLD	52	48	0	336
NMHLD	52	48	1	336
BRTAP	53	192	2
BRTAP	53	192	3
BRTAP	53	288	4
BRTAP	53	288	5
NMTAP	54	0	6
NMTAP	54	0	7
NMHLD	54	48	6	336
NMHLD	54	48	7	336
BRTAP	55	192	0
BRTAP	55	192	5
BRTAP	55	288	0
BRTAP	55	288	5
NMSTR	56	0	1
NMSCR	56	0	1	96	96	4
NMSTR	56	192	5
NMSCR	56	192	5	96	96	0
NMSTR	57	0	1
NMSCR	57	0	1	96	96	4
NMTAP	57	192	5
NMHLD	57	288	6	96
NMTAP	58	0	4
NMTAP	58	48	4
NMTAP	58	144	1
NMTAP	58	144	3
NMTAP	58	192	1
NMTAP	58	192	3
NMTAP	58	288	3
NMTAP	58	288	5
NMHLD	58	336	3	240
NMHLD	58	336	5	240
BRTAP	59	288	7
BRTAP	60	0	0
NMTAP	60	0	5
BRTAP	60	96	0
NMTAP	60	96	5
NMTAP	60	192	2
BRTAP	60	192	7
NMTAP	60	288	5
NMTAP	60	336	5
NMTAP	61	0	4
NMTAP	61	96	6
NMTAP	61	96	7
NMTAP	61	192	0
NMTAP	61	192	1
NMTAP	61	288	2
NMTAP	61	288	3
BRTAP	62	0	0
NMTAP	62	0	5
BRTAP	62	96	0
NMTAP	62	96	5
NMTAP	62	192	2
BRTAP	62	192	7
NMTAP	62	288	5
NMTAP	62	336	5
NMTAP	63	0	4
NMTAP	63	96	2
NMTAP	63	144	2
NMTAP	63	192	3
NMTAP	63	288	6
NMTAP	63	336	6
NMTAP	64	0	4
NMTAP	64	96	6
NMTAP	64	96	7
NMTAP	64	192	4
NMTAP	64	192	5
NMTAP	64	288	2
NMTAP	64	288	3
NMTAP	65	0	0
NMTAP	65	0	1
NMTAP	65	96	6
NMTAP	65	96	7
EXTAP	65	192	0
EXTAP	65	192	5
EXHLD	65	288	1	96
EXTAP	65	288	4
NMTAP	66	0	3
NMSTR	66	96	2
NMSCL	66	96	2	96	192	5
EXTAP	67	96	3
EXTAP	67	192	2
EXTAP	67	192	4
EXTAP	67	288	3
EXTAP	67	288	5
NMTAP	68	0	2
BRTAP	68	0	7
NMTAP	68	96	2
BRTAP	68	96	7
BRTAP	68	192	0
NMTAP	68	192	5
NMTAP	68	288	2
NMTAP	68	288	3
NMTAP	69	0	0
NMTAP	69	0	1
NMTAP	69	96	6
NMTAP	69	96	7
NMTAP	69	192	4
NMTAP	69	192	5
NMTAP	69	288	4
NMTAP	69	288	5
NMTAP	70	0	2
BRTAP	70	0	7
NMTAP	70	96	2
BRTAP	70	96	7
BRTAP	70	192	0
NMTAP	70	192	5
NMHLD	70	288	2	96
NMHLD	71	0	0	96
NMHLD	71	96	7	96
NMHLD	71	192	5	96
NMTAP	71	288	4
NMSTR	72	0	7
NMSCL	72	0	7	96	96	4
NMSTR	72	192	0
NMSCR	72	192	0	96	96	3
NMTAP	73	0	7
NMTAP	73	96	7
NMTAP	73	192	4
NMTAP	73	192	5
NMTAP	73	288	2
NMTAP	73	288	3
NMTAP	74	0	1
NMTAP	74	0	3
NMTAP	74	96	0
NMTAP	74	96	7
NMTAP	74	192	4
NMTAP	74	192	6
NMTAP	74	288	0
NMTAP	74	288	7
NMTAP	75	0	1
NMTAP	75	0	3
NMTAP	75	96	0
NMTAP	75	96	7
NMTAP	75	192	4
NMTAP	75	192	6
BRSTR	75	288	3
NMSXR	75	288	3	96	384	0
BRSTR	75	288	4
NMSXL	75	288	4	96	384	7
NMTAP	77	192	0
NMTAP	77	192	7
NMSTR	77	288	1
NMSXR	77	288	1	96	384	4
NMSTR	77	288	6
NMSXL	77	288	6	96	384	3
NMTAP	79	192	2
NMTAP	79	192	5
NMTAP	79	288	4
NMTAP	79	288	6
NMTAP	80	0	6
NMTAP	80	0	7
NMTAP	80	96	0
NMTAP	80	96	1
NMTAP	80	192	2
NMTAP	80	240	2
NMTAP	80	288	3
NMTAP	81	0	0
NMTAP	81	0	1
NMTAP	81	96	6
NMTAP	81	96	7
NMTAP	81	192	5
NMTAP	81	240	5
NMTAP	81	288	4
NMTAP	82	0	6
NMTAP	82	0	7
NMTAP	82	96	0
NMTAP	82	96	1
NMTAP	82	192	2
NMTAP	82	240	2
NMTAP	82	288	3
NMHLD	83	0	0	96
NMHLD	83	96	2	96
NMHLD	83	192	4	96
NMTAP	83	288	5
BRTAP	84	0	3
BRSTR	84	0	6
NMSI_	84	0	6	96	96	0
CNSI_	84	192	0	0	96	5
CNSI_	84	288	5	0	144	3
EXTAP	85	192	2
EXTAP	85	224	3
EXTAP	85	256	2
EXTAP	85	288	3
BRSTR	86	0	1
NMSI_	86	0	1	96	96	7
BRTAP	86	0	4
CNSI_	86	192	7	0	96	2
CNSI_	86	288	2	0	144	4
EXTAP	87	192	6
EXTAP	87	224	7
EXTAP	87	256	6
EXTAP	87	288	7
BRTAP	88	0	0
BRSTR	88	0	5
NMSI_	88	0	5	96	96	3
CNSI_	88	192	3	0	96	6
CNSI_	88	288	6	0	144	0
EXTAP	89	192	1
EXTAP	89	224	0
EXTAP	89	256	1
EXTAP	89	288	0
BRSTR	90	0	2
NMSI_	90	0	2	96	96	4
BRTAP	90	0	7
CNSI_	90	192	4	0	96	1
CNSI_	90	288	1	0	144	7
EXTAP	91	192	0
EXTAP	91	192	5
EXTAP	91	288	0
EXTAP	91	288	5
NMTAP	92	0	6
NMTAP	92	32	7
NMTAP	92	64	6
NMTAP	92	96	7
NMTAP	92	192	1
NMTAP	92	224	0
NMTAP	92	256	1
NMTAP	92	288	0
NMTAP	93	0	2
NMTAP	93	0	3
NMTAP	93	96	4
NMTAP	93	96	5
NMTAP	93	192	3
NMTAP	93	192	6
EXTAP	93	288	2
EXTAP	93	288	7
NMTAP	94	0	1
NMTAP	94	32	0
NMTAP	94	64	1
NMTAP	94	96	0
NMTAP	94	192	6
NMTAP	94	224	7
NMTAP	94	256	6
NMTAP	94	288	7
NMTAP	95	0	4
NMTAP	95	0	5
NMTAP	95	96	2
NMTAP	95	96	3
NMTAP	95	192	1
NMTAP	95	192	4
EXTAP	95	288	0
EXTAP	95	288	5
NMTAP	96	0	6
NMTAP	96	32	7
NMTAP	96	64	6
NMTAP	96	96	7
NMTAP	96	192	5
NMTAP	96	224	4
NMTAP	96	256	5
NMTAP	96	288	4
NMTAP	97	0	2
NMTAP	97	32	3
NMTAP	97	64	2
NMTAP	97	96	3
NMTAP	97	192	1
NMTAP	97	224	0
NMTAP	97	256	1
NMTAP	97	288	0
NMTAP	98	0	2
NMTAP	98	0	7
NMTAP	98	96	2
NMTAP	98	96	7
NMTAP	98	192	0
NMTAP	98	192	5
NMTAP	98	288	0
NMTAP	98	288	5
EXTAP	99	0	4
EXTAP	99	0	6
EXTAP	99	96	0
EXTAP	99	96	7
EXTAP	99	192	1
EXTAP	99	192	3
BRTAP	99	288	3
BRTAP	99	288	4
NMHLD	100	0	5	96
NMTAP	100	96	4
NMHLD	100	144	4	96
NMTAP	100	240	6
NMTAP	100	288	6
NMTAP	101	0	5
NMTAP	101	96	4
NMTAP	101	96	6
NMTAP	101	192	2
NMTAP	101	288	1
NMTAP	101	288	3
NMHLD	102	0	2	96
NMTAP	102	96	3
NMHLD	102	144	3	96
NMTAP	102	240	1
NMTAP	102	288	1
NMTAP	103	0	2
NMTAP	103	0	3
NMTAP	103	96	0
NMTAP	103	96	1
NMTAP	103	192	6
NMTAP	103	192	7
NMTAP	103	288	4
NMTAP	103	288	5
NMHLD	104	0	6	96
NMTAP	104	96	4
NMHLD	104	144	4	96
NMTAP	104	240	5
NMTAP	104	288	5
NMTAP	105	0	6
NMTAP	105	0	7
NMTAP	105	96	4
NMTAP	105	96	5
NMTAP	105	192	2
NMTAP	105	192	3
NMTAP	105	288	0
NMTAP	105	288	1
NMTAP	106	0	7
NMTAP	106	96	4
NMTAP	106	96	6
NMTAP	106	192	0
NMTAP	106	288	1
NMTAP	106	288	3
BRTAP	107	0	5
BRTAP	107	96	6
BRTAP	107	96	7
BRTAP	107	192	2
BRTAP	107	288	0
BRTAP	107	288	1
BRTAP	108	0	2
BRTAP	108	0	7
NMTAP	108	96	3
NMHLD	108	96	6	1248
NMTAP	108	288	4
NMTAP	109	96	4
NMTAP	109	288	4
NMTTP	110	0	4	E	0	M1
NMTTP	110	96	5	E	0	M1
NMTTP	110	192	6	E	0	M1
NMTTP	110	288	7	E	0	M1
NMTTP	111	0	0	E	0	M1
NMTTP	111	96	1	E	0	M1
NMTTP	111	192	2	E	0	M1
EXTAP	112	0	3
EXTAP	112	0	5
EXHLD	112	96	2	1248
EXTAP	112	96	4
NMTAP	112	288	3
NMTAP	113	96	3
NMTAP	113	288	3
NMTTP	114	0	4	E	0	M1
NMTTP	114	96	3	E	0	M1
NMTTP	114	192	2	E	0	M1
NMTTP	114	288	1	E	0	M1
NMTTP	115	0	0	E	0	M1
NMTTP	115	96	7	E	0	M1
NMTTP	115	192	6	E	0	M1
EXTAP	116	0	3
EXTAP	116	0	5
EXTAP	116	96	3
EXTAP	116	96	5
EXTAP	116	192	3
EXTAP	116	192	5
NMTAP	116	288	6
NMHLD	117	0	6	96
NMHLD	117	96	5	96
NMTAP	117	192	4
NMTAP	117	288	2
NMTAP	117	288	4
EXTAP	118	0	1
EXTAP	118	0	3
EXTAP	118	96	1
EXTAP	118	96	3
EXTAP	118	192	1
EXTAP	118	192	3
NMTAP	118	288	0
NMHLD	119	0	1	96
NMHLD	119	96	2	96
NMTAP	119	192	3
NMTAP	119	288	4
NMTAP	119	288	5
NMTAP	120	0	6
NMTAP	120	96	6
NMTAP	120	192	7
NMTAP	120	288	7
NMTAP	121	0	0
NMTAP	121	96	0
NMTAP	121	192	2
NMTAP	121	192	4
NMSTR	121	288	5
NMSXL	121	288	5	96	288	3
NMSTR	122	288	1
NMSXR	122	288	1	96	288	4
NMTAP	123	288	5
EXTAP	124	0	3
EXHLD	124	0	6	288
NMTAP	124	288	7
NMSTR	125	0	7
NMSF_	125	0	7	96	96	3
BXTAP	125	288	7
BRTAP	126	0	0
NMTAP	126	0	5
NMTAP	126	96	2
BRTAP	126	96	7
BRTAP	126	192	0
NMTAP	126	192	5
NMTAP	126	288	2
NMTAP	126	288	3
NMTAP	127	0	0
NMTAP	127	0	1
NMTAP	127	96	6
NMTAP	127	96	7
NMTAP	127	192	4
NMTAP	127	192	5
NMTAP	127	288	3
NMTAP	127	288	6
BRTAP	128	0	0
NMTAP	128	0	5
NMTAP	128	96	2
BRTAP	128	96	7
BRTAP	128	192	0
NMTAP	128	192	5
NMTAP	128	288	2
NMTAP	128	288	3
NMTAP	129	0	0
NMTAP	129	0	7
NMTAP	129	96	4
NMTAP	129	96	5
NMTAP	129	192	0
NMTAP	129	192	7
NMTAP	129	288	2
NMTAP	129	288	3
NMTAP	130	0	4
NMHLD	130	0	5	96
NMTAP	130	96	1
NMHLD	130	192	2	96
NMTAP	130	192	3
NMTAP	130	288	6
NMTAP	131	0	4
NMHLD	131	0	5	96
NMTAP	131	96	0
NMHLD	131	192	2	96
NMTAP	131	192	3
NMTAP	131	288	7
NMTAP	132	0	4
NMTAP	132	0	6
NMTAP	132	96	2
NMTAP	132	96	3
NMTAP	132	192	0
NMTAP	132	192	1
NMTAP	132	288	5
NMTAP	132	288	7
NMTAP	133	0	3
NMTAP	133	0	4
NMTAP	133	96	0
NMTAP	133	96	2
NMTAP	133	192	6
NMTAP	133	192	7
NMTAP	133	288	6
NMTAP	133	288	7
BRTAP	134	0	0
NMTAP	134	0	4
NMTAP	134	96	2
BRTAP	134	96	7
BRTAP	134	192	0
NMTAP	134	192	4
NMTAP	134	288	1
NMTAP	134	336	1
NMTAP	135	0	3
NMTAP	135	48	3
NMTAP	135	96	2
NMTAP	135	192	4
NMTAP	135	192	5
NMTAP	135	288	4
NMTAP	135	288	5
BRTAP	136	0	3
NMTAP	136	0	7
NMTAP	136	96	1
BRTAP	136	96	4
BRTAP	136	192	3
NMTAP	136	192	7
NMHLD	136	288	6	96
NMHLD	137	0	4	96
NMHLD	137	96	2	96
NMTAP	137	192	0
NMTAP	137	288	1
NMTAP	137	288	7
EXTAP	138	0	1
EXTAP	138	0	7
NMTAP	138	96	4
NMTAP	138	96	6
NMTAP	138	192	2
NMTAP	138	192	3
NMTAP	138	288	0
NMTAP	138	288	1
NMTAP	139	0	6
NMTAP	139	0	7
NMTAP	139	96	4
NMTAP	139	96	5
NMTAP	139	192	1
NMTAP	139	192	3
NMTAP	139	288	0
NMTAP	139	288	7
NMTAP	140	0	6
NMTAP	140	0	7
NMTAP	140	96	1
NMTAP	140	96	3
NMTAP	140	192	0
NMTAP	140	192	1
NMTAP	140	288	4
NMTAP	140	288	6
NMTAP	141	0	0
NMTAP	141	0	2
NMTAP	141	96	5
NMTAP	141	96	7
NMTAP	141	192	1
NMTAP	141	192	3
BRTAP	141	288	0
BRTAP	141	288	4
NMTAP	142	0	6
NMTAP	142	0	7
NMTAP	142	96	4
NMTAP	142	96	5
NMTAP	142	144	4
NMTAP	142	144	5
NMTAP	142	192	4
NMTAP	142	192	5
NMTAP	142	288	2
NMTAP	142	288	3
NMTAP	142	336	2
NMTAP	142	336	3
NMTAP	143	0	2
NMTAP	143	0	3
NMTAP	143	96	0
NMTAP	143	96	1
NMTAP	143	144	0
NMTAP	143	144	1
NMTAP	143	192	0
NMTAP	143	192	1
NMTAP	143	288	6
NMSTR	143	288	7
NMSLL	143	288	7	96	384	3
NMSLR	143	288	7	96	384	3
NMTHO	146	0	0	384	C	0	M1
NMTTP	146	0	1	B	0	M1
NMTTP	146	0	2	B	0	M1
NMTTP	146	0	5	B	0	M1
NMTTP	146	0	6	B	0	M1
BXTAP	147	192	0
BXTAP	147	192	7
BXTAP	147	288	0
BXTAP	147	288	7
NMHLD	148	0	1	96
NMTAP	148	96	3
NMHLD	148	144	3	96
NMTAP	148	240	2
NMTAP	148	288	2
NMTAP	149	0	4
NMTAP	149	0	6
NMTAP	149	96	0
NMTAP	149	96	7
NMTAP	149	192	1
NMTAP	149	192	3
NMTAP	149	288	0
NMTAP	149	288	7
NMHLD	150	0	6	96
NMTAP	150	96	4
NMHLD	150	144	4	96
NMTAP	150	240	5
NMTAP	150	288	5
NMTAP	151	0	2
NMTAP	151	0	3
NMTAP	151	96	2
NMTAP	151	96	3
BRTAP	151	192	1
BRTAP	151	192	5
EXTAP	151	288	7
NMHLD	152	0	2	96
NMTAP	152	96	0
NMHLD	152	144	0	96
NMTAP	152	240	1
NMTAP	152	288	1
NMTAP	153	0	0
NMTAP	153	0	1
NMTAP	153	96	4
NMTAP	153	96	5
NMTAP	153	192	6
NMTAP	153	192	7
NMTAP	153	288	2
NMTAP	153	288	3
NMTAP	154	0	1
NMTAP	154	0	4
NMTAP	154	96	1
NMTAP	154	96	4
NMTAP	154	192	5
NMTAP	154	240	5
NMTAP	154	288	4
NMTAP	154	336	6
BRTAP	155	0	0
BRTAP	155	96	1
BRTAP	155	96	7
BRTAP	155	192	2
BRTAP	155	192	6
BRTAP	155	288	3
BRTAP	155	288	5
BRSTR	156	0	2
BRSCL	156	0	2	96	480	4
BRHLD	156	0	6	768
NMTAP	158	0	4
NMTAP	158	96	4
NMTAP	158	192	4
NMTAP	158	288	4
NMHLD	159	0	5	96
NMTAP	159	96	4
NMHLD	159	192	2	96
NMTAP	159	288	3
NMTAP	160	0	5
NMTAP	160	48	5
NMTAP	160	96	5
BXTAP	160	144	4
BXTAP	160	144	6
NMTAP	160	288	2
NMTAP	160	336	2
NMTAP	161	0	2
BXTAP	161	48	1
BXTAP	161	48	3
NMTAP	161	192	0
NMTAP	161	192	6
NMTAP	161	240	0
NMTAP	161	240	6
BXTAP	161	288	1
BXTAP	161	288	5

T_REC_TAP	564
T_REC_BRK	58
T_REC_XTP	72
T_REC_BXX	26
T_REC_HLD	63
T_REC_XHO	6
T_REC_BHO	1
T_REC_BXH	3
T_REC_STR	19
T_REC_BST	7
T_REC_XST	2
T_REC_XBS	0
T_REC_TTP	19
T_REC_THO	1
T_REC_SLD	27
T_REC_BSL	2
T_REC_ALL	870
T_NUM_TAP	676
T_NUM_BRK	97
T_NUM_HLD	70
T_NUM_SLD	27
T_NUM_ALL	870
T_JUDGE_TAP	767
T_JUDGE_HLD	274
T_JUDGE_SLD	29
T_JUDGE_ALL	1070
TTM_EACHPAIRS	269
TTM_SCR_TAP	338000
TTM_SCR_BRK	252200
TTM_SCR_HLD	70000
TTM_SCR_SLD	40500
TTM_SCR_ALL	700700
TTM_SCR_S	670300
TTM_SCR_SS	691000
TTM_RAT_ACV	10140

