VERSION	0.00.00	1.05.00
FES_MODE	0
BPM_DEF	239.000	239.000	239.000	239.000
MET_DEF	4	4
RESOLUTION	384
CLK_DEF	384
COMPATIBLE_CODE	MA2

BPM	0	0	239.000
MET	0	0	4	4

NMTAP	2	0	0
NMTAP	2	192	0
NMTAP	3	0	1
NMTAP	3	192	1
NMTAP	4	0	2
NMTAP	4	192	2
NMTAP	5	0	3
NMTAP	5	0	4
NMTAP	6	0	4
NMTAP	6	192	4
NMTAP	7	0	5
NMTAP	7	192	5
NMTAP	8	0	6
NMTAP	8	192	6
NMTAP	9	0	0
NMTAP	9	0	7
NMTAP	9	192	0
NMTAP	9	192	7
NMHLD	10	0	1	384
NMHLD	10	0	6	384
NMTAP	12	0	7
NMTAP	12	96	7
NMTAP	12	192	7
NMTAP	13	0	6
NMTAP	13	96	6
NMTAP	13	192	6
NMTAP	14	0	5
NMTAP	14	96	5
NMTAP	14	192	5
NMTAP	15	0	3
NMTAP	15	0	4
NMTAP	15	192	3
NMTAP	15	192	4
NMTAP	16	0	3
NMTAP	16	96	3
NMTAP	16	192	3
NMTAP	17	0	2
NMTAP	17	96	2
NMTAP	17	192	2
NMTAP	18	0	1
NMTAP	18	96	1
NMTAP	18	192	1
NMTAP	19	0	0
NMTAP	19	0	7
NMTAP	19	192	0
NMTAP	19	192	7
NMSTR	20	0	1
NMSI_	20	0	1	96	288	4
NMTAP	21	192	5
NMSTR	22	0	6
NMSI_	22	0	6	96	288	2
NMTAP	23	192	1
NMSTR	24	0	0
NMSI_	24	0	0	96	288	4
NMTAP	25	192	5
NMSTR	26	0	6
NMSLL	26	0	6	96	384	2
NMTAP	28	0	0
NMTAP	28	96	0
NMTAP	28	192	0
NMTAP	29	0	1
NMTAP	29	96	1
NMTAP	29	192	1
NMTAP	30	0	2
NMTAP	30	96	2
NMTAP	30	192	2
NMTAP	31	0	3
NMTAP	31	0	4
NMTAP	31	192	3
NMTAP	31	192	4
NMTAP	32	0	4
NMTAP	32	96	4
NMTAP	32	192	4
NMTAP	33	0	5
NMTAP	33	96	5
NMTAP	33	192	5
NMTAP	34	0	6
NMTAP	34	96	6
NMTAP	34	192	6
NMTAP	35	0	0
NMTAP	35	0	7
NMTAP	35	192	0
NMTAP	35	192	7
NMTAP	36	0	7
NMTAP	36	96	7
NMTAP	36	192	6
NMTAP	37	0	5
NMTAP	37	96	5
NMTAP	37	192	4
NMTAP	38	0	3
NMTAP	38	96	3
NMTAP	38	192	2
NMTAP	39	0	1
NMTAP	39	96	1
NMTAP	39	192	0
NMTAP	39	192	1
NMTAP	40	0	0
NMTAP	40	96	0
NMTAP	40	192	1
NMTAP	41	0	2
NMTAP	41	96	2
NMTAP	41	192	3
NMTAP	42	0	4
NMTAP	42	96	4
NMTAP	42	192	5
BXTAP	43	0	6
BXTAP	43	0	7
NMTTP	44	0	6	B	0	L1
NMTTP	44	192	5	B	0	L1
NMTTP	45	0	4	B	0	L1
NMTTP	46	0	1	B	0	L1
NMTTP	46	192	2	B	0	L1
NMTTP	47	0	3	B	0	L1
NMTTP	48	0	6	B	0	L1
NMTTP	48	192	5	B	0	L1
NMTTP	49	0	4	B	0	L1
NMTTP	49	192	3	B	0	L1
NMTTP	50	0	2	B	0	L1
NMTTP	50	192	1	B	0	L1
NMTTP	51	0	0	C	1	L1
EXHLD	52	0	1	384
NMHLD	53	0	0	384
NMHLD	54	0	7	384
NMTAP	55	0	6
NMHLD	56	0	6	384
NMHLD	57	0	7	384
NMHLD	58	0	0	384
NMTAP	59	0	1
EXTAP	60	0	2
EXTAP	60	96	2
EXTAP	60	192	2
NMTAP	61	0	2
NMTAP	61	0	3
NMTAP	61	96	2
NMTAP	61	96	3
NMTAP	61	192	2
NMTAP	61	192	3
EXTAP	62	0	1
EXTAP	62	96	1
EXTAP	62	192	1
NMTAP	63	0	0
NMTAP	63	0	1
NMTAP	63	96	0
NMTAP	63	96	1
NMTAP	63	192	0
NMTAP	63	192	1
NMTAP	64	0	7
NMTAP	64	96	7
NMTAP	64	192	7
NMTAP	65	0	6
NMTAP	65	0	7
NMTAP	65	96	6
NMTAP	65	96	7
NMTAP	65	192	6
NMTAP	65	192	7
NMTAP	66	0	5
NMTAP	66	96	5
NMTAP	66	192	5
BXTAP	67	0	3
BXTAP	67	0	4
EXTAP	68	0	5
EXTAP	68	96	5
EXTAP	68	192	5
NMTAP	69	0	4
NMTAP	69	0	5
NMTAP	69	96	4
NMTAP	69	96	5
NMTAP	69	192	4
NMTAP	69	192	5
EXTAP	70	0	6
EXTAP	70	96	6
EXTAP	70	192	6
NMTAP	71	0	6
NMTAP	71	0	7
NMTAP	71	96	6
NMTAP	71	96	7
NMTAP	71	192	6
NMTAP	71	192	7
NMTAP	72	0	0
NMTAP	72	96	0
NMTAP	72	192	0
NMTAP	73	0	0
NMTAP	73	0	1
NMTAP	73	96	0
NMTAP	73	96	1
NMTAP	73	192	0
NMTAP	73	192	1
NMTAP	74	0	2
NMTAP	74	96	2
NMTAP	74	192	2
BXTAP	75	0	3
BXTAP	75	0	4
NMSTR	76	0	2
NMSXR	76	0	2	96	672	3
NMTAP	79	0	4
NMSTR	80	0	5
NMSXL	80	0	5	96	672	4
NMTAP	83	0	3
NMHLD	84	0	2	192
NMTAP	84	192	3
NMTAP	85	0	2
NMTAP	85	0	3
NMTAP	85	192	2
NMTAP	85	192	3
NMHLD	86	0	1	192
NMTAP	86	192	0
NMTAP	87	0	0
NMTAP	87	0	1
NMTAP	87	192	0
NMTAP	87	192	1
NMHLD	88	0	6	192
NMTAP	88	192	7
NMTAP	89	0	6
NMTAP	89	0	7
NMTAP	89	192	6
NMTAP	89	192	7
NMHLD	90	0	5	192
NMTAP	90	192	4
NMTAP	91	0	4
NMTAP	91	0	5
NMTAP	91	192	4
NMTAP	91	192	5
NMTAP	92	0	5
NMTAP	92	96	5
NMTAP	92	192	5
NMTAP	93	0	6
NMTAP	93	96	6
NMTAP	93	192	6
NMTAP	94	0	7
NMTAP	94	96	7
NMTAP	94	192	7
NMTAP	95	0	0
NMTAP	95	0	1
NMTAP	95	192	0
NMTAP	95	192	1
NMTAP	96	0	2
NMTAP	96	96	2
NMTAP	96	192	2
NMTAP	97	0	1
NMTAP	97	96	1
NMTAP	97	192	1
NMTAP	98	0	0
NMTAP	98	96	0
NMTAP	98	192	0
NMTAP	99	0	6
NMTAP	99	0	7
NMTAP	99	192	6
NMTAP	99	192	7
NMTAP	100	0	6
NMTAP	100	96	6
NMTAP	100	192	6
NMTAP	101	0	5
NMTAP	101	96	5
NMTAP	101	192	5
NMTAP	102	0	4
NMTAP	102	96	4
NMTAP	102	192	4
NMTAP	103	0	2
NMTAP	103	0	3
NMTAP	103	96	2
NMTAP	103	96	3
NMTAP	103	192	2
NMTAP	103	192	3
NMTAP	104	0	1
NMTAP	104	96	1
NMTAP	104	192	1
NMTAP	105	0	2
NMTAP	105	96	2
NMTAP	105	192	2
NMTAP	106	0	3
NMTAP	106	96	3
NMTAP	106	192	3
BRTAP	107	0	4
BRTAP	107	0	5
NMTTP	108	0	6	B	0	L1
NMTTP	108	192	5	B	0	L1
NMTTP	109	0	4	B	0	L1
NMTTP	110	0	1	B	0	L1
NMTTP	110	192	2	B	0	L1
NMTTP	111	0	3	B	0	L1
NMTTP	112	0	7	E	0	L1
NMTTP	112	192	6	E	0	L1
NMTTP	113	0	4	B	0	L1
NMTTP	113	0	5	E	0	L1
NMTTP	114	0	1	E	0	L1
NMTTP	114	192	2	E	0	L1
NMTTP	115	0	3	B	0	L1
NMTTP	115	0	3	E	0	L1
EXSTR	116	0	5
NMSI_	116	0	5	96	288	2
NMTAP	117	192	1
NMSTR	118	0	0
NMSI_	118	0	0	96	288	4
NMTAP	119	192	5
NMSTR	120	0	6
NMSI_	120	0	6	96	288	3
NMTAP	121	192	2
NMSTR	122	0	2
NMSI_	122	0	2	96	288	7
NMTAP	123	192	6
NMSTR	124	0	5
NMSLR	124	0	5	96	480	3
EXTAP	126	0	2
EXTAP	126	96	2
EXTAP	126	192	1
NMTAP	126	288	1
NMTAP	127	0	0
NMTAP	127	96	0
NMTAP	127	192	6
NMTAP	127	192	7
EXTAP	128	0	5
EXTAP	128	96	5
EXTAP	128	192	6
NMTAP	128	288	6
NMTAP	129	0	7
NMTAP	129	96	7
NMTAP	129	192	0
NMTAP	129	192	1
NMTAP	130	0	1
NMTAP	130	96	1
NMTAP	130	192	2
NMTAP	130	288	2
NMTAP	131	0	3
NMTAP	131	96	3
NMTAP	131	192	4
NMTAP	131	192	5
NMTAP	132	0	6
NMTAP	132	96	6
NMTAP	132	192	5
NMTAP	132	288	5
NMTAP	133	0	4
NMTAP	133	96	4
NMTAP	133	192	2
NMTAP	133	192	3
NMTAP	134	0	2
NMTAP	134	96	2
NMTAP	134	192	0
NMTAP	134	192	1
NMTAP	134	288	0
NMTAP	134	288	1
NMTAP	135	0	7
NMTAP	135	96	7
NMTAP	135	192	6
NMTAP	135	192	7
NMTAP	136	0	5
NMTAP	136	96	5
NMTAP	136	192	6
NMTAP	136	192	7
NMTAP	136	288	6
NMTAP	136	288	7
NMTAP	137	0	0
NMTAP	137	96	0
NMTAP	137	192	0
NMTAP	137	192	1
NMTAP	138	0	1
NMTAP	138	96	1
NMTAP	138	192	2
NMTAP	138	192	3
NMTAP	138	288	2
NMTAP	138	288	3
NMTAP	139	0	4
NMTAP	139	96	4
NMTAP	139	192	4
NMTAP	139	192	5
NMTAP	140	0	6
NMTAP	140	96	6
NMTAP	140	192	4
NMTAP	140	192	5
NMTAP	140	288	4
NMTAP	140	288	5
NMTAP	141	0	3
NMTAP	141	96	3
NMTAP	141	192	2
NMTAP	141	192	3
NMTAP	142	0	2
NMTAP	142	96	2
NMTAP	142	192	3
NMTAP	142	288	3
NMTAP	143	0	4
NMTAP	143	96	4
NMTAP	143	192	3
NMTAP	143	192	4
EXSTR	144	0	3
NMSXR	144	0	3	96	864	0
EXSTR	144	0	4
NMSXL	144	0	4	96	864	7
NMTAP	148	0	6
NMTAP	148	96	6
NMTAP	148	192	6
NMTAP	148	192	7
NMTAP	149	0	5
NMTAP	149	96	5
NMTAP	149	192	4
NMTAP	149	192	5
NMTAP	150	0	3
NMTAP	150	96	3
NMTAP	150	192	2
NMTAP	150	288	2
NMTAP	151	0	1
NMTAP	151	96	1
NMTAP	151	192	0
NMTAP	151	192	7
NMTAP	152	0	1
NMTAP	152	96	1
NMTAP	152	192	0
NMTAP	152	192	1
NMTAP	153	0	2
NMTAP	153	96	2
NMTAP	153	192	2
NMTAP	153	192	3
NMTAP	154	0	4
NMTAP	154	96	4
NMTAP	154	192	5
NMTAP	154	288	5
NMTAP	155	0	6
NMTAP	155	96	6
NMTAP	155	192	0
NMTAP	155	192	7
NMHLD	156	0	0	384
NMHLD	156	0	1	384
NMTAP	157	192	0
NMTAP	157	192	7
NMHLD	158	0	6	384
NMHLD	158	0	7	384
NMTAP	159	192	0
NMTAP	159	192	7
EXTAP	160	0	0
EXTAP	160	0	1
EXTAP	160	96	0
EXTAP	160	96	1
EXTAP	160	288	6
EXTAP	160	288	7
EXTAP	161	0	6
EXTAP	161	0	7
EXTAP	161	192	0
EXTAP	161	192	7
BXTAP	161	288	0
BXTAP	161	288	7

T_REC_TAP	331
T_REC_BRK	2
T_REC_XTP	28
T_REC_BXX	8
T_REC_HLD	15
T_REC_XHO	1
T_REC_BHO	0
T_REC_BXH	0
T_REC_STR	10
T_REC_BST	0
T_REC_XST	3
T_REC_XBS	0
T_REC_TTP	27
T_REC_THO	0
T_REC_SLD	13
T_REC_BSL	0
T_REC_ALL	438
T_NUM_TAP	399
T_NUM_BRK	10
T_NUM_HLD	16
T_NUM_SLD	13
T_NUM_ALL	438
T_JUDGE_TAP	409
T_JUDGE_HLD	112
T_JUDGE_SLD	13
T_JUDGE_ALL	534
TTM_EACHPAIRS	84
TTM_SCR_TAP	199500
TTM_SCR_BRK	26000
TTM_SCR_HLD	16000
TTM_SCR_SLD	19500
TTM_SCR_ALL	261000
TTM_SCR_S	252200
TTM_SCR_SS	260000
TTM_RAT_ACV	10038

