VERSION	0.00.00	1.05.00
FES_MODE	0
BPM_DEF	310.000	310.000	310.000	310.000
MET_DEF	4	4
RESOLUTION	384
CLK_DEF	384
COMPATIBLE_CODE	MA2

BPM	0	0	310.000
MET	0	0	4	4

BXHLD	2	0	0	48
NMHLD	2	96	0	48
NMHLD	2	192	0	48
NMHLD	2	288	0	48
NMHLD	3	0	0	48
NMHLD	3	96	0	48
BXHLD	3	192	6	48
BXHLD	3	192	7	48
NMHLD	3	288	6	48
NMHLD	3	288	7	48
BXHLD	4	0	5	48
NMHLD	4	96	5	48
NMHLD	4	192	5	48
NMHLD	4	288	5	48
BXHLD	5	0	4	48
BXHLD	5	0	6	48
NMHLD	5	96	4	48
NMHLD	5	96	6	48
NMHLD	5	192	4	48
NMHLD	5	192	6	48
NMHLD	5	288	4	48
NMHLD	5	288	6	48
BXHLD	6	0	7	48
NMHLD	6	96	7	48
NMHLD	6	192	7	48
NMHLD	6	288	7	48
NMHLD	7	0	7	48
NMHLD	7	96	7	48
BXHLD	7	192	0	48
BXHLD	7	192	6	48
NMHLD	7	288	0	48
NMHLD	7	288	6	48
BXHLD	8	0	1	48
BXHLD	8	0	5	48
NMHLD	8	96	1	48
NMHLD	8	96	5	48
NMHLD	8	192	1	48
NMHLD	8	192	5	48
NMHLD	8	288	1	48
NMHLD	8	288	5	48
BXTAP	9	0	2
BXTAP	9	0	4
EXTAP	9	96	0
EXTAP	9	192	0
NMTAP	10	0	1
NMSTR	10	96	1
NMSI_	10	96	1	96	48	3
NMTAP	10	192	4
NMTAP	10	288	6
NMTAP	11	0	5
NMTAP	11	96	5
NMTAP	11	144	4
NMTAP	11	240	4
NMTAP	11	288	5
NMTAP	12	0	6
NMSTR	12	96	6
NMSI_	12	96	6	96	48	4
NMTAP	12	192	3
NMTAP	12	288	1
NMTAP	13	0	0
NMTAP	13	96	0
NMTAP	13	192	1
NMTAP	13	192	7
NMHLD	13	240	1	48
NMHLD	13	240	7	48
NMTAP	14	0	2
NMSTR	14	96	2
NMSI_	14	96	2	96	48	4
NMTAP	14	192	6
NMTAP	14	288	5
NMTAP	15	0	6
NMTAP	15	96	6
NMTAP	15	144	7
NMTAP	15	240	7
NMTAP	15	288	5
NMTAP	16	0	6
NMSTR	16	96	6
NMSI_	16	96	6	96	48	3
NMTAP	16	192	2
NMTAP	16	288	1
EXTAP	17	0	1
EXHLD	17	48	1	144
NMTAP	17	192	3
NMTAP	17	240	2
NMTAP	17	288	3
NMTAP	17	336	2
NMTAP	18	0	4
NMTAP	18	48	3
NMTAP	18	96	4
NMTAP	18	144	3
NMTAP	18	192	5
NMTAP	18	240	4
NMTAP	18	288	5
NMTAP	18	336	4
NMHLD	19	0	6	192
NMTAP	19	96	7
NMHLD	19	192	1	192
NMTAP	19	288	0
NMTAP	20	0	6
NMTAP	20	48	7
NMTAP	20	96	6
NMTAP	20	144	7
NMTAP	20	192	5
NMTAP	20	240	0
NMTAP	20	288	5
NMTAP	20	336	0
NMHLD	21	0	4	96
NMTAP	21	96	1
NMHLD	21	144	1	96
EXTAP	21	288	2
EXTAP	21	288	3
NMTAP	22	0	2
NMTAP	22	48	4
NMTAP	22	96	2
NMTAP	22	144	4
NMTAP	22	192	2
NMTAP	22	240	4
NMHLD	22	288	2	96
NMTAP	23	0	5
NMTAP	23	48	3
NMTAP	23	96	5
NMTAP	23	144	3
NMTAP	23	192	5
NMTAP	23	240	3
NMHLD	23	288	5	96
NMTAP	24	0	4
NMTAP	24	48	6
NMTAP	24	96	4
NMTAP	24	144	6
NMTAP	24	192	3
NMTAP	24	240	5
NMTAP	24	288	2
NMTAP	24	336	4
NMTAP	25	0	1
NMTAP	25	96	0
NMTAP	25	96	1
BRTAP	25	192	2
BRTAP	25	192	7
NMTAP	26	0	1
NMHLD	26	96	1	192
NMTTP	26	192	2	E	0	M1
NMTTP	26	288	3	E	0	M1
NMTTP	27	0	5	B	0	M1
NMTTP	27	0	5	E	0	M1
NMTTP	27	0	6	B	0	M1
NMTTP	27	0	7	E	0	M1
NMTTP	27	192	1	B	0	M1
NMTTP	27	192	1	E	0	M1
NMTTP	27	192	2	B	0	M1
NMTTP	27	192	3	E	0	M1
NMTAP	28	0	7
NMHLD	28	96	6	96
NMTAP	28	192	4
NMTAP	28	288	4
EXTAP	29	0	3
EXTAP	29	0	5
BRTAP	29	96	6
BRTAP	29	192	0
BRHLD	29	288	2	96
NMSTR	30	0	3
NMSI_	30	0	3	96	96	6
NMSTR	30	96	1
NMSI_	30	96	1	96	96	7
CNSI_	30	192	6	0	96	4
CNSI_	30	288	7	0	96	2
NMSTR	31	0	5
NMSI_	31	0	5	96	96	0
NMSTR	31	96	4
NMSCL	31	96	4	96	192	0
NMHLD	32	0	6	48
NMHLD	32	96	6	48
NMHLD	32	192	6	48
NMHLD	32	192	7	48
NMHLD	32	288	6	48
NMHLD	32	288	7	48
NMHLD	33	0	0	32
NMHLD	33	0	5	64
NMHLD	33	96	1	32
NMHLD	33	96	4	64
EXTAP	33	192	2
EXTAP	33	192	3
NMTTP	34	0	0	B	0	M1
NMTTP	34	0	0	C	1	M1
NMTTP	34	0	3	B	0	M1
NMTTP	34	0	6	B	0	M1
NMTAP	34	192	7
NMSTR	34	288	6
NMSI_	34	288	6	96	96	2
NMHLD	35	0	0	192
CNSI_	35	96	2	0	96	5
CNSI_	35	192	5	0	96	3
NMTHO	36	0	0	96	C	0	M1
NMTAP	36	192	7
NMTAP	36	288	7
NMTAP	37	0	0
NMTAP	37	0	6
NMTAP	37	96	1
NMTAP	37	96	5
NMTTP	37	192	0	B	0	M1
NMTTP	37	192	0	C	0	M1
NMTTP	37	192	3	B	1	M1
NMTTP	37	192	6	B	0	M1
NMTAP	38	0	1
NMTAP	38	48	7
NMTAP	38	144	7
NMTAP	38	192	1
NMTAP	38	288	0
NMTAP	38	288	5
NMTAP	39	0	6
NMTAP	39	48	7
NMTAP	39	144	7
NMTAP	39	192	6
NMTAP	39	288	0
NMTAP	39	288	7
NMHLD	40	0	0	64
NMHLD	40	0	1	32
NMHLD	40	96	2	32
NMHLD	40	96	7	64
NMHLD	40	192	3	32
NMHLD	40	192	6	64
EXTAP	40	288	4
EXTAP	40	288	5
EXTAP	41	0	2
EXTAP	41	0	3
EXTAP	41	48	2
EXTAP	41	48	3
EXTAP	41	96	2
EXTAP	41	96	3
BRTAP	41	192	1
BRTAP	41	192	4
NMTAP	42	0	5
NMSTR	42	96	5
NMSI_	42	96	5	96	48	3
NMTAP	42	192	2
NMTAP	42	288	1
NMTAP	43	0	6
NMSTR	43	96	6
NMSI_	43	96	6	96	48	4
NMTAP	43	192	3
NMTAP	43	288	2
NMTAP	44	0	6
NMSTR	44	96	6
NMSI_	44	96	6	96	48	3
NMTAP	44	192	1
NMTAP	44	288	0
NMHLD	45	0	2	96
BRTAP	45	96	0
BRTAP	45	192	1
BRTAP	45	192	7
NMTAP	46	0	1
NMSTR	46	96	1
NMSI_	46	96	1	96	48	3
NMTAP	46	192	4
NMTAP	46	288	5
NMTAP	47	0	6
NMSTR	47	96	6
NMSI_	47	96	6	96	48	4
NMTAP	47	192	3
NMTAP	47	288	2
EXTAP	48	0	1
EXTAP	48	32	3
EXTAP	48	64	1
EXTAP	48	96	3
EXTAP	48	192	6
EXTAP	48	224	4
EXTAP	48	256	6
EXTAP	48	288	4
NMTAP	49	0	3
NMTAP	49	0	5
BRTAP	49	96	7
BRTAP	49	192	0
BRTAP	49	192	6
NMSTR	50	0	1
NMSI_	50	0	1	96	48	7
NMTAP	50	96	3
NMSTR	50	192	4
NMSI_	50	192	4	96	48	6
NMTAP	50	288	2
NMSTR	51	0	1
NMSI_	51	0	1	96	48	7
NMTAP	51	96	3
NMSTR	51	192	4
NMSI_	51	192	4	96	48	6
NMTAP	51	288	2
NMSTR	52	0	1
NMSI_	52	0	1	96	48	7
NMTAP	52	96	3
NMSTR	52	192	4
NMSI_	52	192	4	96	48	6
NMTAP	52	288	1
NMHLD	53	0	0	96
BRTAP	53	96	4
BRTAP	53	192	2
BRTAP	53	192	6
NMSTR	54	0	7
NMSI_	54	0	7	96	48	1
NMTAP	54	96	3
NMSTR	54	192	2
NMSI_	54	192	2	96	48	4
NMTAP	54	288	0
NMSTR	55	0	7
NMSI_	55	0	7	96	48	1
NMTAP	55	96	3
NMSTR	55	192	2
NMSI_	55	192	2	96	48	4
NMTAP	55	288	0
NMSTR	56	0	7
NMSI_	56	0	7	96	48	1
NMTAP	56	96	3
NMSTR	56	192	2
NMSI_	56	192	2	96	48	4
NMTAP	56	288	0
NMHLD	57	0	6	96
BRTAP	57	96	0
BRTAP	57	192	1
BRTAP	57	192	7
NMTAP	58	0	5
NMTAP	58	96	4
NMHLD	58	96	6	192
NMTTP	58	192	6	E	0	M1
NMTTP	58	288	5	E	0	M1
NMTTP	59	0	1	B	0	M1
NMTTP	59	0	1	E	0	M1
NMTTP	59	0	2	B	0	M1
NMTTP	59	0	2	E	1	M1
NMTTP	59	0	3	E	0	M1
NMTTP	59	192	5	B	0	M1
NMTTP	59	192	5	E	0	M1
NMTTP	59	192	6	B	0	M1
NMTTP	59	192	6	E	1	M1
NMTTP	59	192	7	E	0	M1
NMTAP	60	0	1
NMTAP	60	96	1
NMTAP	60	192	0
NMTAP	60	192	2
NMSTR	60	288	3
NMSLL	60	288	3	96	192	7
NMSTR	60	288	7
NMSLL	60	288	7	96	192	3
NMTAP	62	0	1
NMTAP	62	0	5
BRTAP	62	96	0
BRHLD	62	96	4	192
NMTAP	62	288	1
NMTAP	62	336	1
NMTAP	63	0	3
NMTAP	63	48	3
NMHLD	63	96	2	192
NMTAP	63	288	6
NMTAP	63	336	1
NMTAP	64	0	5
EXTAP	64	48	1
NMTAP	64	96	4
EXTAP	64	144	0
NMTAP	64	192	3
EXTAP	64	240	0
NMSTR	64	288	2
NMSXL	64	288	2	96	192	3
NMSLL	64	288	2	96	192	3
NMTTP	66	0	0	B	0	M1
NMTTP	66	0	0	C	1	M1
NMTTP	66	0	0	A	0	M1
NMTTP	66	0	3	B	0	M1
NMTTP	66	0	3	A	0	M1
NMTTP	66	0	6	B	0	M1
NMTTP	66	0	6	A	0	M1
NMTAP	66	192	1
NMTAP	66	192	7
NMSTR	66	288	1
NMSI_	66	288	1	96	120	5
NMSTR	66	288	7
NMSI_	66	288	7	96	120	3
CNSI_	67	120	3	0	120	7
CNSI_	67	120	5	0	120	1
NMTHO	68	0	0	96	C	0	M1
NMTAP	68	192	7
NMSTR	68	288	0
NMSV_	68	288	0	96	96	3
NMSTR	68	288	6
NMSV_	68	288	6	96	96	3
BXTAP	69	192	2
BXTAP	69	192	4
NMHLD	70	0	1	48
NMHLD	70	0	3	48
NMHLD	70	96	1	48
NMHLD	70	96	3	48
NMHLD	70	192	2	48
NMHLD	70	192	4	48
NMHLD	70	288	2	48
NMHLD	70	288	4	48
NMHLD	71	0	3	48
NMHLD	71	0	5	48
NMHLD	71	96	3	48
NMHLD	71	96	5	48
NMHLD	71	192	4	48
NMHLD	71	192	6	48
NMTAP	71	288	4
NMTAP	71	288	6
NMTAP	72	0	3
NMTAP	72	0	7
NMTAP	72	48	6
NMTAP	72	96	5
NMTAP	72	144	4
NMTAP	72	192	0
NMTAP	72	240	1
NMTAP	72	288	2
NMTAP	72	336	3
EXSTR	73	0	4
NMSI_	73	0	4	96	144	0
EXSTR	73	0	6
NMSI_	73	0	6	96	144	2
NMTAP	74	0	0
NMHLD	74	96	0	96
NMTAP	74	192	3
NMHLD	74	288	3	96
NMTAP	75	0	1
NMTAP	75	96	1
NMTAP	75	144	4
NMTAP	75	288	6
NMTAP	76	0	7
NMHLD	76	96	7	96
NMSTR	76	192	4
NMSLL	76	192	4	96	192	0
NMTAP	77	192	4
NMSTR	77	288	5
NMSCR	77	288	5	96	192	1
EXTAP	78	0	4
NMTAP	78	192	2
NMSTR	78	288	2
NMSCL	78	288	2	96	192	6
EXTAP	79	0	3
NMTAP	79	192	5
NMSTR	79	288	5
NMSF_	79	288	5	96	96	1
NMTAP	80	288	1
NMHLD	80	336	1	144
NMTAP	81	96	3
NMTAP	81	192	2
NMTAP	81	192	4
NMTAP	81	288	1
NMTAP	81	288	5
NMTAP	82	96	6
NMTAP	82	96	7
NMTAP	82	192	5
NMTAP	82	240	4
NMTAP	82	288	6
NMTAP	83	0	0
NMTAP	83	0	1
NMTAP	83	96	0
NMTAP	83	96	1
NMTAP	83	192	2
NMTAP	83	240	3
NMTAP	83	288	1
NMTAP	84	0	6
NMTAP	84	0	7
NMTAP	84	96	0
NMTAP	84	96	5
NMTAP	84	192	1
NMTAP	84	240	3
NMTAP	84	288	2
NMTAP	85	0	0
NMTAP	85	0	1
NMTAP	85	96	2
NMTAP	85	96	7
NMTAP	85	192	6
NMTAP	85	240	4
NMTAP	85	288	5
BRTAP	86	0	1
BRTAP	86	0	4
NMTAP	86	96	2
NMTAP	86	144	3
NMTAP	86	240	3
NMTAP	86	288	1
BRTAP	87	0	3
BRTAP	87	0	6
NMTAP	87	96	5
NMTAP	87	144	4
NMTAP	87	240	4
NMTAP	87	288	6
NMTAP	88	0	1
NMTAP	88	0	7
NMSTR	88	96	1
NMSI_	88	96	1	96	48	3
NMSTR	88	96	7
NMSI_	88	96	7	96	48	5
EXTAP	88	192	1
EXTAP	88	192	7
NMTAP	89	0	1
NMTAP	89	0	7
NMSTR	89	96	1
NMSI_	89	96	1	96	48	4
NMSTR	89	96	7
NMSI_	89	96	7	96	48	4
BXTAP	89	192	1
BXTAP	89	192	7
BRTAP	90	0	1
NMTAP	90	48	3
NMTAP	90	96	1
NMTAP	90	144	3
NMTAP	90	192	1
NMTAP	90	240	2
NMTAP	90	288	1
NMTAP	90	336	2
NMTAP	91	0	1
NMTAP	91	48	0
NMTAP	91	96	1
NMTAP	91	144	0
NMTAP	91	192	1
NMTAP	91	240	7
NMTAP	91	288	1
NMTAP	91	336	7
NMTAP	92	0	1
NMTAP	92	48	0
NMTAP	92	96	1
NMTAP	92	144	0
NMTAP	92	192	1
NMTAP	92	240	2
NMTAP	92	288	1
NMTAP	92	336	2
NMTAP	93	0	0
NMTAP	93	96	6
NMTAP	93	144	7
NMTAP	93	240	5
NMTAP	93	288	4
BRTAP	94	0	6
NMTAP	94	48	3
NMTAP	94	96	6
NMTAP	94	144	3
NMTAP	94	192	6
NMTAP	94	240	4
NMTAP	94	288	6
NMTAP	94	336	4
NMTAP	95	0	6
NMTAP	95	48	5
NMTAP	95	96	6
NMTAP	95	144	5
NMTAP	95	192	6
NMTAP	95	240	7
NMTAP	95	288	6
NMTAP	95	336	7
NMTAP	96	0	6
NMTAP	96	48	0
NMTAP	96	96	6
NMTAP	96	144	0
NMTAP	96	192	6
NMTAP	96	240	0
NMTAP	96	288	6
BRTAP	97	0	7
BRTAP	97	48	7
BRTAP	97	96	7
BRTAP	97	144	7
BRTAP	97	192	7
NMHLD	98	0	0	48
NMTAP	98	0	4
NMHLD	98	96	1	48
NMTAP	98	96	4
NMHLD	98	192	2	48
NMTAP	98	192	4
NMHLD	98	288	3	48
NMTAP	98	288	4
NMTAP	99	0	2
NMHLD	99	0	4	48
NMTAP	99	96	2
NMHLD	99	96	5	48
NMTAP	99	192	2
NMHLD	99	192	6	48
NMTAP	99	288	2
NMHLD	99	288	7	48
NMHLD	100	0	0	48
NMHLD	100	0	1	48
NMHLD	100	96	0	48
NMHLD	100	96	1	48
NMHLD	100	192	0	48
NMHLD	100	192	7	48
NMHLD	100	288	6	48
NMHLD	100	288	7	48
NMHLD	101	0	6	48
NMHLD	101	0	7	48
NMHLD	101	96	0	48
NMHLD	101	96	7	48
NMHLD	101	192	0	48
NMHLD	101	192	1	48
NMTAP	101	288	2
NMTAP	101	288	7
NMTAP	102	0	6
NMTAP	102	48	3
NMTAP	102	96	6
NMTAP	102	144	3
NMTAP	102	192	6
NMTAP	102	240	4
NMTAP	102	288	6
NMTAP	102	336	5
NMTAP	103	0	6
NMTAP	103	48	7
NMTAP	103	96	6
NMTAP	103	144	0
NMTAP	103	192	6
NMTAP	103	240	1
NMTAP	103	288	6
NMTAP	103	336	2
NMSTR	104	0	7
NMSI_	104	0	7	96	48	3
NMTAP	104	96	0
NMSTR	104	192	1
NMSI_	104	192	1	96	48	5
NMTAP	104	288	5
BRTAP	105	0	6
BRTAP	105	96	0
BRTAP	105	96	7
BRTAP	105	192	1
BRTAP	105	192	5
BRTAP	106	0	2
NMTAP	106	48	3
NMTAP	106	96	2
NMTAP	106	144	3
NMTAP	106	192	1
NMTAP	106	240	0
NMTAP	106	288	1
NMTAP	106	336	0
NMTAP	107	0	4
NMTAP	107	48	5
NMTAP	107	96	4
NMTAP	107	144	5
NMTAP	107	192	7
NMTAP	107	240	6
NMTAP	107	288	7
NMTAP	107	336	6
NMTAP	108	0	0
NMTAP	108	48	5
NMTAP	108	96	0
NMTAP	108	144	4
NMTAP	108	192	0
NMTAP	108	240	3
NMTAP	108	288	0
NMTAP	108	336	2
NMHLD	109	0	1	96
NMHLD	109	96	3	96
NMTAP	109	192	4
NMTAP	109	288	3
NMTAP	109	288	5
NMHLD	110	0	0	48
NMHLD	110	0	6	48
NMHLD	110	96	0	48
NMHLD	110	96	6	48
NMHLD	110	192	4	48
NMHLD	110	192	5	48
NMHLD	110	288	2	48
NMHLD	110	288	3	48
BXHLD	111	0	1	48
BXHLD	111	0	7	48
BXHLD	111	96	1	48
BXHLD	111	96	7	48
NMHLD	111	192	2	48
NMHLD	111	192	3	48
NMHLD	111	288	4	48
NMHLD	111	288	5	48
NMTAP	112	0	3
NMTAP	112	0	6
NMTAP	112	96	2
NMTAP	112	96	5
NMTAP	112	192	2
NMTAP	112	240	4
NMTAP	112	288	1
NMTAP	112	336	3
BRTAP	113	0	0
BRTAP	113	96	1
BRTAP	113	96	7
NMTTP	113	192	4	B	0	M1
NMTTP	113	192	4	E	0	M1
NMTTP	113	192	5	B	0	M1
NMTTP	113	192	5	E	1	M1
NMTTP	113	192	6	E	0	M1
NMHLD	114	0	0	48
NMHLD	114	96	1	48
NMHLD	114	192	2	48
NMHLD	114	288	3	48
NMHLD	115	0	4	48
NMHLD	115	96	5	48
NMHLD	115	192	6	48
NMHLD	115	288	7	48
NMHLD	116	0	0	48
NMHLD	116	0	6	48
NMHLD	116	96	1	48
NMHLD	116	96	7	48
NMHLD	116	192	0	48
NMHLD	116	192	2	48
NMHLD	116	288	1	48
NMHLD	116	288	3	48
NMHLD	117	0	2	48
NMHLD	117	0	4	48
NMHLD	117	96	3	48
NMHLD	117	96	5	48
NMHLD	117	192	4	48
NMHLD	117	192	6	48
NMHLD	117	288	5	48
NMHLD	117	288	7	48
NMTAP	118	0	0
NMTAP	118	48	1
NMTAP	118	96	2
NMTAP	118	144	3
NMTAP	118	192	4
NMTAP	118	240	5
NMTAP	118	288	6
NMTAP	118	336	7
NMTAP	119	0	0
NMTAP	119	48	1
NMTAP	119	96	2
NMTAP	119	144	3
NMTAP	119	192	4
NMTAP	119	240	5
NMTAP	119	288	6
NMTAP	119	336	7
EXTAP	120	0	0
NMTAP	120	24	1
NMTAP	120	48	2
NMTAP	120	72	3
NMTAP	120	96	4
NMTAP	120	120	5
NMTAP	120	144	6
NMTAP	120	168	7
NMTAP	120	192	0
NMTAP	120	216	1
NMTAP	120	240	2
NMTAP	120	264	3
NMTAP	120	288	4
NMTAP	120	312	5
NMTAP	120	336	6
NMTAP	120	360	7
BXHLD	121	0	0	96
BXHLD	121	0	4	96
BRTAP	121	192	1
BRTAP	121	240	3
BRTAP	121	288	2
BRTAP	121	336	4
BRTAP	122	0	0
NMTTP	122	192	1	B	0	M1
NMTTP	122	192	2	B	1	M1
NMTTP	122	192	2	E	0	M1
NMTTP	122	192	3	B	0	M1
NMTTP	122	192	3	E	0	M1
BRTAP	123	0	7
NMTTP	123	192	4	B	0	M1
NMTTP	123	192	5	B	1	M1
NMTTP	123	192	5	E	0	M1
NMTTP	123	192	6	B	0	M1
NMTTP	123	192	6	E	0	M1
NMTAP	124	0	1
NMTAP	124	48	7
NMTAP	124	96	1
NMTAP	124	144	7
NMTAP	124	192	2
NMTAP	124	240	6
NMTAP	124	288	2
NMTAP	124	336	6
NMTAP	125	0	3
NMTAP	125	48	5
NMTAP	125	96	3
NMTAP	125	144	5
EXTAP	125	192	4
NMSTR	125	288	5
NMSI_	125	288	5	96	48	0
BRSTR	126	0	1
NMSI_	126	0	1	96	48	4
NMSTR	126	96	6
NMSI_	126	96	6	96	48	3
NMSTR	126	192	0
NMSI_	126	192	0	96	48	4
EXTAP	126	288	5
NMHLD	127	0	6	96
NMTAP	127	96	4
NMTAP	127	144	5
NMTAP	127	192	3
NMTAP	127	240	4
NMSTR	127	288	2
NMSI_	127	288	2	96	48	7
BRSTR	128	0	6
NMSI_	128	0	6	96	48	3
NMSTR	128	96	1
NMSI_	128	96	1	96	48	4
NMSTR	128	192	5
NMSI_	128	192	5	96	48	0
EXTAP	128	288	2
NMHLD	129	0	1	96
NMTAP	129	96	3
NMTAP	129	144	2
NMTAP	129	192	4
NMTAP	129	240	3
NMHLD	129	288	5	96
BRTAP	130	0	7
NMTAP	130	96	0
NMTAP	130	96	6
NMTAP	130	144	0
NMTAP	130	144	6
NMTAP	130	240	2
NMTAP	130	240	3
NMTAP	130	288	2
NMTAP	130	288	3
NMSTR	131	0	4
NMSCR	131	0	4	96	48	7
NMTAP	131	96	1
NMSTR	131	192	3
NMSCL	131	192	3	96	48	0
NMTAP	131	288	5
NMHLD	132	0	6	96
NMTAP	132	96	7
NMTAP	132	144	6
NMTAP	132	192	0
NMTAP	132	288	2
NMTAP	132	288	4
EXHLD	133	0	1	96
NMTAP	133	96	0
NMTAP	133	144	1
NMTAP	133	192	7
NMSTR	133	288	1
NMSI_	133	288	1	96	48	4
BRSTR	134	0	6
NMSI_	134	0	6	96	48	2
NMSTR	134	96	0
NMSI_	134	96	0	96	48	4
NMSTR	134	192	5
NMSI_	134	192	5	96	48	1
EXTAP	134	288	3
NMHLD	135	0	2	96
NMTAP	135	96	0
NMTAP	135	144	1
NMTAP	135	192	7
NMTAP	135	240	0
NMSTR	135	288	6
NMSI_	135	288	6	96	48	3
BRSTR	136	0	1
NMSI_	136	0	1	96	48	5
NMSTR	136	96	7
NMSI_	136	96	7	96	48	3
NMSTR	136	192	2
NMSI_	136	192	2	96	48	6
EXTAP	136	288	4
NMHLD	137	0	5	96
NMTAP	137	96	7
NMTAP	137	144	6
NMTAP	137	192	7
NMTAP	137	240	6
NMSTR	137	288	0
NMSI_	137	288	0	96	48	4
NMSTR	138	0	5
NMSI_	138	0	5	96	48	0
NMSTR	138	96	2
NMSI_	138	96	2	96	48	7
NMSTR	138	192	6
NMSI_	138	192	6	96	48	3
NMSTR	138	288	1
NMSI_	138	288	1	96	48	4
NMSTR	139	0	5
NMSI_	139	0	5	96	48	0
NMSTR	139	96	2
NMSI_	139	96	2	96	48	7
NMSTR	139	192	6
NMSI_	139	192	6	96	48	3
NMSTR	139	288	1
BRSI_	139	288	1	96	48	5
BRTAP	140	0	7
NMSTR	140	96	7
NMSI_	140	96	7	96	48	3
BRTAP	140	192	2
NMSTR	140	288	2
BRSI_	140	288	2	96	48	6
BRTAP	141	0	7
NMTAP	141	192	3
NMTAP	141	192	6
NMTAP	141	288	3
NMTAP	141	288	6
NMTAP	142	0	5
NMTAP	142	48	4
NMTAP	142	96	6
NMTAP	142	144	4
NMTAP	142	192	5
NMTAP	142	240	4
NMTAP	142	288	6
NMTAP	142	336	4
NMTAP	143	0	5
NMTAP	143	48	4
NMTAP	143	96	7
NMTAP	143	144	4
NMTAP	143	192	5
NMTAP	143	240	4
NMTAP	143	288	6
NMTAP	143	336	6
BRTAP	144	0	0
NMTAP	144	48	4
NMTAP	144	96	2
NMTAP	144	144	4
BRTAP	144	192	7
NMTAP	144	240	5
NMTAP	144	288	3
NMTAP	144	336	5
BRTAP	145	0	1
NMTAP	145	48	4
NMTAP	145	96	2
NMTAP	145	144	4
BRTAP	145	192	3
BXTAP	145	192	5
BRTAP	146	0	0
NMTAP	146	48	4
EXTAP	146	96	0
NMTAP	146	144	4
EXTAP	146	192	1
NMTAP	146	240	3
EXTAP	146	288	2
NMTAP	146	336	4
EXTAP	147	0	3
NMTAP	147	48	5
EXTAP	147	96	2
EXTAP	147	144	7
NMTAP	147	192	3
NMTAP	147	240	7
NMHLD	147	288	1	96
NMHLD	148	0	3	96
NMTAP	148	96	2
NMTAP	148	144	4
NMTAP	148	192	2
NMTAP	148	240	5
NMTAP	148	288	2
NMTAP	148	336	6
NMTAP	149	0	2
NMTAP	149	48	7
NMTAP	149	96	2
NMTAP	149	144	0
NMTAP	149	192	2
NMTAP	149	240	1
NMTAP	149	288	2
NMTAP	149	336	3
NMTAP	150	0	1
NMHLD	150	0	4	288
NMTTP	150	288	0	E	0	M1
NMTHO	151	0	0	288	C	1	M1
BXTAP	151	192	7
BXSTR	151	288	7
BRSCL	151	288	7	96	576	0
CNSUL	153	192	0	0	768	7
BRTAP	156	0	0
BRTAP	156	0	6
NMHLD	156	96	2	96
NMTAP	156	96	4
NMTAP	156	192	3
NMTAP	156	288	0
NMTAP	157	0	1
NMTAP	157	0	7
NMTAP	157	96	3
NMHLD	157	96	5	96
NMTAP	157	192	4
NMTAP	157	288	7
NMTAP	158	0	0
NMTAP	158	0	6
NMHLD	158	96	2	96
NMTAP	158	96	4
NMTAP	158	192	3
NMTAP	158	288	0
EXTAP	159	0	1
EXTAP	159	0	7
EXHLD	159	48	1	144
EXTAP	159	48	7
NMTAP	159	192	0
NMTAP	159	240	1
NMTAP	159	288	0
NMTAP	159	336	1
BRTAP	160	0	7
NMTAP	160	48	2
NMTAP	160	96	6
NMTAP	160	144	2
NMTAP	160	192	5
NMTAP	160	240	2
NMTAP	160	288	4
NMTAP	160	336	2
NMSTR	161	0	3
NMSI_	161	0	3	96	48	7
NMTAP	161	96	0
NMSTR	161	192	1
NMSI_	161	192	1	96	48	4
NMTAP	161	288	7
NMTAP	162	0	6
NMTAP	162	48	6
NMTAP	162	96	4
NMTAP	162	144	4
NMTAP	162	192	5
NMTAP	162	240	5
NMTAP	162	288	3
NMTAP	162	336	3
NMTAP	163	0	4
NMTAP	163	96	3
NMTAP	163	96	5
NMTAP	163	144	3
NMTAP	163	144	5
NMTAP	163	240	2
NMTAP	163	240	4
NMTAP	163	288	2
NMTAP	163	288	4
BRTAP	164	0	1
NMTAP	164	48	3
NMTAP	164	96	2
NMTAP	164	144	3
NMTAP	164	192	0
NMTAP	164	240	5
NMTAP	164	288	4
NMTAP	164	336	5
NMTAP	165	0	1
NMTAP	165	48	3
NMTAP	165	96	2
NMTAP	165	144	4
NMTAP	165	192	0
NMTAP	165	240	7
NMTAP	165	288	1
NMTAP	165	336	6
NMTAP	166	0	3
NMTAP	166	48	5
NMTAP	166	96	2
NMTAP	166	144	4
NMTAP	166	192	1
NMTAP	166	240	3
NMTAP	166	288	0
NMTAP	166	336	2
NMTAP	167	0	7
NMTAP	167	48	0
NMTAP	167	48	6
NMTAP	167	192	3
NMTAP	167	240	2
NMTAP	167	240	4
BRTAP	168	0	4
NMTAP	168	48	2
NMTAP	168	96	5
NMTAP	168	144	3
NMTAP	168	192	6
NMTAP	168	240	4
NMTAP	168	288	7
NMTAP	168	336	5
NMTAP	169	0	0
NMTAP	169	48	1
NMTAP	169	48	7
NMTAP	169	192	4
NMTAP	169	240	3
NMTAP	169	240	5
BRTAP	170	0	1
NMTAP	170	48	3
NMTAP	170	96	1
NMTAP	170	144	3
NMTAP	170	192	0
NMTAP	170	240	4
NMTAP	170	288	7
NMTAP	170	336	5
BXTAP	171	0	6
BXTAP	171	48	6
BXTAP	171	96	6
BXTAP	171	144	6
BXTAP	172	0	0
BXTAP	172	0	1
BXTAP	172	48	0
BXTAP	172	48	1
BXTAP	172	96	0
BXTAP	172	96	1
BXTAP	172	144	0
BXTAP	172	144	1
BRTAP	173	48	2
BRHLD	173	48	7	1488
NMTTP	174	192	4	B	1	M1
NMTTP	175	0	2	B	1	M1
NMTTP	175	144	7	B	1	M1
NMTTP	175	288	0	B	1	M1
NMTTP	176	0	2	E	1	M1
NMTTP	176	0	2	D	0	M1
NMTTP	176	96	3	E	1	M1
NMTTP	176	96	3	D	0	M1
NMTTP	176	192	4	E	1	M1
NMTTP	176	192	4	D	0	M1
NMTTP	176	288	5	E	1	M1
NMTTP	176	288	5	D	0	M1
BXTAP	177	0	0
BXTAP	177	96	1
BXTAP	177	96	3
BXTAP	177	256	3
BXTAP	177	256	4
BXTAP	178	0	4
BXTAP	178	0	6
BRTAP	178	224	0
BRTAP	178	224	5
BRTAP	179	144	2
BRTAP	179	144	7
NMTAP	180	168	3
NMTAP	180	192	4
NMHLD	180	216	3	456
BRTAP	181	288	4
NMTAP	181	304	2
NMTAP	181	304	5
NMTAP	181	320	1
NMTAP	181	320	6
NMTAP	181	336	0
NMHLD	181	336	7	336
NMTAP	182	288	5
NMTAP	182	320	4
NMTAP	182	352	3
NMTAP	183	0	2

T_REC_TAP	552
T_REC_BRK	66
T_REC_XTP	47
T_REC_BXX	27
T_REC_HLD	153
T_REC_XHO	3
T_REC_BHO	3
T_REC_BXH	17
T_REC_STR	70
T_REC_BST	4
T_REC_XST	2
T_REC_XBS	1
T_REC_TTP	65
T_REC_THO	3
T_REC_SLD	75
T_REC_BSL	3
T_REC_ALL	1091
T_NUM_TAP	736
T_NUM_BRK	121
T_NUM_HLD	159
T_NUM_SLD	75
T_NUM_ALL	1091
T_JUDGE_TAP	834
T_JUDGE_HLD	215
T_JUDGE_SLD	78
T_JUDGE_ALL	1127
TTM_EACHPAIRS	154
TTM_SCR_TAP	368000
TTM_SCR_BRK	314600
TTM_SCR_HLD	159000
TTM_SCR_SLD	112500
TTM_SCR_ALL	954100
TTM_SCR_S	913750
TTM_SCR_SS	942000
TTM_RAT_ACV	10128

