VERSION	0.00.00	1.05.00
FES_MODE	0
BPM_DEF	310.000	310.000	310.000	310.000
MET_DEF	4	4
RESOLUTION	384
CLK_DEF	384
COMPATIBLE_CODE	MA2

BPM	0	0	310.000
MET	0	0	4	4

NMHLD	2	0	2	576
NMTAP	2	192	0
NMTAP	2	288	0
NMTAP	3	0	0
NMTAP	3	96	0
NMTAP	3	192	0
NMHLD	4	0	6	192
NMTAP	4	192	7
NMHLD	5	0	1	192
NMTAP	5	192	0
NMHLD	6	0	5	576
NMTAP	6	192	7
NMTAP	6	288	7
NMTAP	7	0	7
NMTAP	7	96	7
NMTAP	7	192	7
NMHLD	8	0	1	192
NMTAP	8	192	0
NMTAP	9	0	6
BRTAP	9	96	7
BRTAP	9	192	7
NMTAP	10	0	6
NMTAP	10	96	6
NMTAP	10	192	4
NMTAP	10	192	5
NMTAP	10	288	4
NMTAP	10	288	5
NMTAP	11	0	1
NMTAP	11	96	1
NMTAP	11	192	2
NMTAP	11	192	3
NMTAP	11	288	2
NMTAP	11	288	3
NMTAP	12	0	6
NMTAP	12	96	6
NMTAP	12	192	4
NMTAP	12	192	5
NMTAP	12	288	4
NMTAP	12	288	5
NMTAP	13	0	3
NMTAP	13	96	2
NMTAP	13	96	4
NMTAP	13	192	2
NMTAP	13	192	4
NMTAP	14	0	1
NMTAP	14	96	1
NMTAP	14	192	2
NMTAP	14	192	3
NMTAP	14	288	2
NMTAP	14	288	3
NMTAP	15	0	6
NMTAP	15	96	6
NMTAP	15	192	4
NMTAP	15	192	5
NMTAP	15	288	4
NMTAP	15	288	5
NMTAP	16	0	1
NMTAP	16	96	1
NMTAP	16	192	2
NMTAP	16	192	3
NMTAP	16	288	2
NMTAP	16	288	3
NMTAP	17	0	4
NMTAP	17	96	3
NMTAP	17	96	5
NMTAP	17	192	3
NMTAP	17	192	5
NMTAP	18	0	6
NMTAP	18	0	7
NMTAP	18	96	5
NMTAP	18	192	3
NMTAP	18	192	4
NMTAP	18	288	2
NMTAP	19	0	0
NMTAP	19	0	1
NMTAP	19	96	2
NMTAP	19	192	3
NMTAP	19	192	4
NMTAP	19	288	5
NMTAP	20	0	6
NMTAP	20	0	7
NMTAP	20	96	5
NMTAP	20	192	3
NMTAP	20	192	4
NMTAP	20	288	2
NMHLD	21	0	1	192
NMTAP	21	192	3
NMTAP	22	0	4
NMTAP	22	0	5
NMTAP	22	96	6
NMTAP	22	192	0
NMTAP	22	192	7
NMTAP	22	288	1
NMTAP	23	0	2
NMTAP	23	0	3
NMTAP	23	96	1
NMTAP	23	192	0
NMTAP	23	192	7
NMTAP	23	288	6
NMTAP	24	0	4
NMTAP	24	0	5
NMTAP	24	96	6
NMTAP	24	192	0
NMTAP	24	192	7
NMTAP	24	288	1
NMTAP	25	0	2
NMTAP	25	0	3
NMTAP	25	192	1
NMTAP	25	192	4
NMTAP	26	0	5
NMTAP	26	96	5
NMHLD	26	192	4	96
NMHLD	26	192	6	96
NMSTR	27	0	7
NMSI_	27	0	7	96	96	4
NMSTR	27	192	0
NMSI_	27	192	0	96	96	3
NMTAP	28	0	4
NMTAP	28	96	5
NMTAP	28	192	6
NMTAP	28	288	7
EXTAP	29	0	7
EXTAP	29	96	6
EXTAP	29	192	5
EXTAP	29	288	4
NMTAP	30	0	2
NMTAP	30	96	2
NMTAP	30	192	1
NMTAP	30	192	3
NMTAP	30	288	1
NMTAP	30	288	3
NMSTR	31	0	0
NMSI_	31	0	0	96	96	4
NMSTR	31	192	7
NMSI_	31	192	7	96	96	3
NMTAP	32	0	2
NMTAP	32	96	2
NMTAP	32	192	3
NMTAP	32	288	1
NMTAP	33	0	0
NMTAP	33	96	0
NMTAP	33	192	1
NMTAP	33	192	3
NMSTR	34	0	4
NMSV_	34	0	4	96	144	1
NMSV_	34	0	4	96	144	7
NMTAP	35	0	0
NMTAP	35	96	0
NMTAP	35	192	3
NMTAP	35	288	3
EXHLD	36	0	2	96
NMTAP	36	192	1
NMTAP	36	192	3
NMSTR	37	0	0
NMSI_	37	0	0	96	144	4
NMSTR	37	0	1
NMSI_	37	0	1	96	144	4
NMTAP	38	0	5
NMTAP	38	96	5
NMTAP	38	192	4
NMTAP	38	192	6
NMTAP	38	288	4
NMTAP	38	288	6
NMTAP	39	0	2
NMTAP	39	96	2
NMTAP	39	192	1
NMTAP	39	192	3
NMTAP	39	288	1
NMTAP	39	288	3
NMSTR	40	0	4
NMSCR	40	0	4	96	96	7
NMSTR	40	192	3
NMSCL	40	192	3	96	96	0
NMTAP	41	0	7
NMTAP	41	96	7
NMTAP	41	192	0
NMTAP	41	192	6
NMTAP	42	0	2
NMTAP	42	96	2
NMTAP	42	96	3
NMTAP	42	192	1
NMTAP	42	288	0
NMTAP	42	288	1
NMTAP	43	0	2
NMTAP	43	96	2
NMTAP	43	96	3
NMTAP	43	192	1
NMTAP	43	288	0
NMTAP	43	288	1
NMTAP	44	0	2
NMTAP	44	96	2
NMTAP	44	96	3
NMTAP	44	192	1
NMTAP	44	288	0
NMTAP	44	288	1
NMTAP	45	0	2
NMTAP	45	96	3
NMTAP	45	192	4
NMTAP	45	288	5
NMTAP	46	0	5
NMTAP	46	96	4
NMTAP	46	96	5
NMTAP	46	192	6
NMTAP	46	288	6
NMTAP	46	288	7
NMTAP	47	0	5
NMTAP	47	96	4
NMTAP	47	96	5
NMTAP	47	192	6
NMTAP	47	288	6
NMTAP	47	288	7
NMTAP	48	0	5
NMTAP	48	96	4
NMTAP	48	96	5
NMTAP	48	192	6
NMTAP	48	288	6
NMTAP	48	288	7
NMTAP	49	0	5
NMTAP	49	96	4
NMTAP	49	96	6
BRHLD	49	192	4	192
BRHLD	49	192	6	192
NMTAP	50	96	4
NMTAP	50	96	6
NMTAP	50	288	1
NMTAP	50	288	3
NMTAP	51	96	5
NMTAP	51	96	7
NMTAP	51	288	0
NMTAP	51	288	2
NMTAP	52	96	4
NMTAP	52	96	6
NMTAP	52	288	1
NMTAP	52	288	3
NMTAP	53	96	5
NMTAP	53	96	7
BRTAP	53	192	0
BRTAP	53	192	4
NMTAP	54	96	1
NMTAP	54	96	3
NMTAP	54	288	0
NMTAP	54	288	2
NMTAP	55	96	4
NMTAP	55	96	6
NMTAP	55	288	5
NMTAP	55	288	7
NMTAP	56	96	1
NMTAP	56	96	3
NMTAP	56	288	0
NMTAP	56	288	2
BRTAP	57	96	3
BRTAP	57	96	7
BRTAP	57	192	3
BRTAP	57	192	7
NMTAP	58	0	2
NMTAP	58	96	2
NMHLD	58	192	1	96
NMHLD	58	288	3	96
NMSTR	59	0	0
NMSI_	59	0	0	96	96	3
NMSTR	59	192	4
NMSI_	59	192	4	96	96	7
NMTAP	60	0	3
NMTAP	60	96	2
NMTAP	60	192	1
NMTAP	60	288	0
EXTAP	61	0	0
EXTAP	61	0	2
EXTAP	61	96	1
EXTAP	61	96	3
EXTAP	61	192	2
EXTAP	61	192	4
EXTAP	61	288	3
EXTAP	61	288	5
NMTAP	62	96	3
NMTAP	62	96	5
NMTAP	62	288	6
NMTAP	63	0	7
BRHLD	63	96	7	192
NMTAP	63	288	4
NMTAP	64	0	5
NMTAP	64	96	5
NMTAP	64	192	4
NMTAP	64	288	6
NMTAP	65	0	0
NMTAP	65	0	7
NMSTR	65	96	0
NMSI_	65	96	0	96	96	5
NMSTR	65	96	7
NMSI_	65	96	7	96	96	2
NMSTR	66	0	0
NMSV_	66	0	0	96	144	3
NMSTR	66	0	6
NMSV_	66	0	6	96	144	3
NMTAP	67	0	4
NMTAP	67	96	4
NMTAP	67	192	6
NMTAP	67	288	6
BXHLD	68	0	5	96
NMTAP	68	192	4
NMTAP	68	192	6
NMSTR	69	0	6
NMSI_	69	0	6	96	144	3
NMSTR	69	0	7
NMSI_	69	0	7	96	144	3
NMTAP	70	0	1
NMTAP	70	0	3
NMTAP	70	96	1
NMTAP	70	96	3
NMTAP	70	192	2
NMTAP	70	288	2
NMTAP	71	0	4
NMTAP	71	0	6
NMTAP	71	96	4
NMTAP	71	96	6
NMTAP	71	192	5
NMTAP	71	288	5
NMSTR	72	0	3
NMSCL	72	0	3	96	96	0
NMSTR	72	192	7
NMSCL	72	192	7	96	96	4
NMTAP	73	0	3
NMTAP	73	96	3
NMTAP	73	192	2
NMTAP	73	192	4
NMTAP	74	0	1
NMSTR	74	96	1
NMSI_	74	96	1	96	96	4
NMTAP	75	0	5
NMSTR	75	96	5
NMSI_	75	96	5	96	96	0
NMHLD	76	0	1	192
NMHLD	76	192	3	192
NMHLD	77	0	4	192
NMTAP	77	192	6
NMTAP	78	0	5
NMSTR	78	96	5
NMSCR	78	96	5	96	96	0
NMTAP	79	0	1
NMSTR	79	96	1
NMSCR	79	96	1	96	96	4
NMHLD	80	0	5	192
NMTAP	80	192	4
NMTAP	80	288	4
NMTAP	81	0	6
NMTAP	81	0	7
NMTAP	81	96	6
NMTAP	81	96	7
NMTAP	81	192	0
NMTAP	81	192	5
NMTTP	82	0	7	E	0	M1
NMTTP	82	96	6	E	0	M1
NMTTP	82	192	5	E	0	M1
NMTTP	83	0	3	E	0	M1
NMTTP	83	96	2	E	0	M1
NMTTP	83	192	1	E	0	M1
NMTTP	84	0	7	B	0	M1
NMTTP	84	96	0	B	0	M1
NMTTP	84	192	1	B	0	M1
NMTTP	84	288	2	B	0	M1
NMTTP	85	0	3	B	0	M1
NMTTP	85	96	4	B	0	M1
NMTTP	85	192	5	B	0	M1
NMSTR	86	0	6
NMSCL	86	0	6	96	144	3
NMSTR	86	0	7
NMSCR	86	0	7	96	144	2
NMSTR	87	0	0
NMSCL	87	0	0	96	144	5
NMSTR	87	0	1
NMSCR	87	0	1	96	144	4
EXHLD	88	0	4	96
EXHLD	88	0	5	96
NMHLD	88	192	6	96
NMHLD	88	192	7	96
NMHLD	89	0	0	96
NMHLD	89	0	1	96
NMHLD	89	192	2	96
NMHLD	89	192	3	96
NMTAP	90	0	2
NMTAP	90	48	3
NMTAP	90	96	2
NMTAP	90	144	3
NMTAP	90	192	2
NMTAP	90	240	3
NMTAP	90	288	2
NMTAP	91	0	1
NMTAP	91	48	4
NMTAP	91	96	1
NMTAP	91	144	4
NMTAP	91	192	1
NMTAP	91	240	4
NMTAP	91	288	1
NMTAP	92	0	2
NMTAP	92	48	3
NMTAP	92	96	2
NMTAP	92	144	3
NMTAP	92	192	2
NMTAP	92	240	3
NMTAP	92	288	1
NMSTR	93	0	0
NMSCR	93	0	0	96	96	3
NMTAP	94	0	5
NMTAP	94	48	4
NMTAP	94	96	5
NMTAP	94	144	4
NMTAP	94	192	5
NMTAP	94	240	4
NMTAP	94	288	5
NMTAP	95	0	6
NMTAP	95	48	3
NMTAP	95	96	6
NMTAP	95	144	3
NMTAP	95	192	6
NMTAP	95	240	3
NMTAP	95	288	6
NMTAP	96	0	5
NMTAP	96	48	4
NMTAP	96	96	5
NMTAP	96	144	4
NMTAP	96	192	5
NMTAP	96	240	4
NMTAP	96	288	6
NMSTR	97	0	7
NMSCL	97	0	7	96	96	4
EXTAP	98	0	0
EXTAP	98	96	1
EXTAP	98	192	2
EXTAP	98	288	3
BXTAP	99	0	4
BXTAP	99	96	5
BXTAP	99	192	6
BXTAP	99	288	7
NMTAP	100	0	6
NMTAP	100	0	7
NMTAP	100	96	6
NMTAP	100	96	7
NMTAP	100	192	4
NMTAP	100	192	5
NMTAP	100	288	4
NMTAP	100	288	5
NMTAP	101	0	2
NMTAP	101	0	3
NMTAP	101	96	2
NMTAP	101	96	3
NMTAP	101	192	0
NMTAP	101	192	1
NMTAP	101	288	0
NMTAP	101	288	1
NMTAP	102	0	6
NMTAP	102	48	7
NMTAP	102	96	6
NMTAP	102	144	7
NMTAP	102	192	6
NMTAP	102	240	7
NMTAP	102	288	6
NMTAP	103	0	1
NMTAP	103	48	0
NMTAP	103	96	1
NMTAP	103	144	0
NMTAP	103	192	1
NMTAP	103	240	0
NMTAP	103	288	1
NMTAP	104	0	0
NMTAP	104	0	7
NMSTR	104	96	0
NMSI_	104	96	0	96	96	4
NMSTR	104	96	7
NMSI_	104	96	7	96	96	3
EXTAP	105	0	2
EXTAP	105	0	5
EXTAP	105	96	2
EXTAP	105	96	5
EXTAP	105	192	2
EXTAP	105	192	5
EXTAP	106	0	1
NMTAP	106	48	3
NMTAP	106	96	1
NMTAP	106	144	3
NMTAP	106	192	1
NMTAP	106	240	3
NMTAP	106	288	1
EXTAP	107	0	2
NMTAP	107	48	4
NMTAP	107	96	2
NMTAP	107	144	4
NMTAP	107	192	2
NMTAP	107	240	4
NMTAP	107	288	2
EXTAP	108	0	1
NMTAP	108	48	3
NMTAP	108	96	1
NMTAP	108	144	3
NMTAP	108	192	1
NMTAP	108	240	3
NMTAP	108	288	1
EXTAP	109	0	1
EXTAP	109	96	0
EXTAP	109	192	7
EXTAP	109	288	6
EXTAP	110	0	6
NMTAP	110	48	4
NMTAP	110	96	6
NMTAP	110	144	4
NMTAP	110	192	6
NMTAP	110	240	4
NMTAP	110	288	6
EXTAP	111	0	5
NMTAP	111	48	3
NMTAP	111	96	5
NMTAP	111	144	3
NMTAP	111	192	5
NMTAP	111	240	3
NMTAP	111	288	5
EXTAP	112	0	6
NMTAP	112	48	4
NMTAP	112	96	6
NMTAP	112	144	4
NMTAP	112	192	6
NMTAP	112	240	4
NMTAP	112	288	6
NMTAP	113	0	7
NMTAP	113	96	0
NMTAP	113	96	7
NMTAP	113	192	0
NMTAP	113	192	7
NMTAP	114	0	4
NMTAP	114	0	6
NMTAP	114	96	4
NMTAP	114	96	6
EXTAP	114	192	3
EXTAP	114	192	5
NMTAP	114	288	3
NMTAP	114	288	5
NMTAP	115	0	2
NMTAP	115	0	4
EXTAP	115	96	2
EXTAP	115	96	4
NMTAP	115	192	1
NMTAP	115	192	3
NMTAP	115	288	1
NMTAP	115	288	3
NMTAP	116	0	0
NMTAP	116	0	1
EXTAP	116	96	0
EXTAP	116	96	1
NMTAP	116	192	2
NMTAP	116	192	3
NMTAP	116	288	2
NMTAP	116	288	3
NMTAP	117	0	4
NMTAP	117	0	5
NMTAP	117	96	4
NMTAP	117	96	5
NMTAP	117	192	6
NMTAP	117	192	7
NMTAP	117	288	6
NMTAP	117	288	7
NMTAP	118	0	4
NMTAP	118	0	6
NMTAP	118	96	4
NMTAP	118	96	6
EXTAP	118	192	3
EXTAP	118	192	5
NMTAP	118	288	3
NMTAP	118	288	5
NMTAP	119	0	2
NMTAP	119	0	4
NMTAP	119	96	2
NMTAP	119	96	4
NMSTR	119	192	1
BRSXL	119	192	1	96	384	7
NMTAP	119	192	3
NMTAP	121	0	6
NMTAP	121	96	6
NMTAP	121	192	4
NMTAP	121	192	5
NMTAP	121	288	4
NMTAP	121	288	5
NMSTR	122	0	4
NMSI_	122	0	4	96	144	0
NMSTR	122	0	5
NMSI_	122	0	5	96	144	0
NMSTR	123	0	2
NMSI_	123	0	2	96	144	7
NMSTR	123	0	3
NMSI_	123	0	3	96	144	7
NMTAP	124	0	0
NMTAP	124	96	0
NMTAP	124	192	7
NMTAP	124	288	7
NMSTR	125	0	0
NMSCR	125	0	0	96	144	3
NMSTR	125	0	7
NMSCL	125	0	7	96	144	4
NMTAP	126	0	1
NMTAP	126	0	3
NMTAP	126	96	2
NMTAP	126	192	4
NMTAP	126	192	6
NMTAP	126	288	5
NMTAP	127	0	6
NMTAP	127	0	7
NMTAP	127	96	6
NMTAP	127	96	7
NMTAP	127	192	0
NMTAP	127	192	1
NMTAP	127	288	0
NMTAP	127	288	1
NMTAP	128	0	2
NMTAP	128	96	1
NMTAP	128	96	3
NMTAP	128	192	5
NMTAP	128	288	4
NMTAP	128	288	6
NMTAP	129	0	2
NMTAP	129	96	1
NMTAP	129	192	0
NMTAP	129	288	7
NMTAP	130	0	6
NMSTR	130	96	5
NMSCR	130	96	5	96	96	0
NMTAP	131	0	1
NMSTR	131	96	2
NMSCL	131	96	2	96	96	7
NMHLD	132	0	6	192
NMTTP	132	192	5	E	1	M1
NMHLD	133	0	2	192
NMTTP	133	192	4	E	1	M1
NMTAP	134	0	4
NMTAP	134	0	6
NMTAP	134	96	5
NMTAP	134	192	1
NMTAP	134	192	3
NMTAP	134	288	2
NMTAP	135	0	0
NMTAP	135	0	1
NMTAP	135	96	0
NMTAP	135	96	1
NMTAP	135	192	6
NMTAP	135	192	7
NMTAP	135	288	6
NMTAP	135	288	7
NMTAP	136	0	5
NMTAP	136	96	4
NMTAP	136	96	6
NMTAP	136	192	2
NMTAP	136	288	1
NMTAP	136	288	3
NMTAP	137	0	5
NMTAP	137	96	6
NMTAP	137	192	7
NMTAP	137	288	0
NMTAP	138	0	1
NMSTR	138	96	2
NMSI_	138	96	2	96	96	7
NMTAP	139	0	6
NMSTR	139	96	5
NMSI_	139	96	5	96	96	0
NMHLD	140	0	1	192
NMHLD	140	192	3	192
NMTAP	141	0	4
EXTAP	141	192	2
EXTAP	141	192	5
EXTAP	141	288	2
EXTAP	141	288	5
NMTAP	142	0	6
NMTAP	142	96	7
NMTAP	142	192	0
NMTAP	142	288	1
NMTAP	143	0	6
NMTAP	143	96	7
NMTAP	143	192	0
NMTAP	143	288	1
NMSTR	144	0	6
NMSCL	144	0	6	96	96	3
NMSTR	144	192	0
NMSCR	144	192	0	96	96	3
NMTAP	145	0	4
NMSTR	145	96	4
NMSI_	145	96	4	96	96	1
NMSI_	145	96	4	96	96	7
NMTAP	146	0	0
NMTAP	146	96	0
NMTAP	146	192	7
NMTAP	146	288	6
NMTAP	147	0	5
NMTAP	147	96	4
NMTAP	147	192	3
NMTAP	147	288	2
NMTAP	148	0	2
NMTAP	148	48	3
NMTAP	148	96	2
NMTAP	148	144	3
NMTAP	148	192	2
NMTAP	148	240	3
NMTAP	148	288	2
NMTAP	149	0	5
NMTAP	149	48	4
NMTAP	149	96	5
NMTAP	149	144	4
NMTAP	149	192	5
NMTAP	149	240	4
NMTAP	149	288	5
NMHLD	150	0	3	288
NMHLD	150	0	6	288
NMTAP	151	0	4
NMTAP	151	0	5
NMSTR	151	96	6
NMSCL	151	96	6	96	288	3
NMSTR	151	96	7
NMSUL	151	96	7	96	288	2
NMHLD	153	0	2	192
NMTAP	153	96	3
NMHLD	153	192	4	192
NMTAP	153	288	3
NMHLD	154	0	1	192
NMTAP	154	96	3
NMHLD	154	192	5	192
NMTAP	154	288	3
NMTAP	155	0	0
NMTAP	155	96	0
NMTAP	155	192	1
NMTAP	155	192	7
NMHLD	156	0	6	192
NMTAP	156	96	4
NMHLD	156	192	2	192
NMTAP	156	288	4
NMHLD	157	0	5	192
NMTAP	157	96	4
NMHLD	157	192	3	192
NMTAP	157	288	4
NMHLD	158	0	6	192
NMTAP	158	96	4
NMHLD	158	192	2	192
NMTAP	158	288	4
NMTAP	159	0	7
NMTAP	159	96	7
NMTAP	159	192	0
NMTAP	159	192	6
NMTAP	160	0	1
NMTAP	160	48	3
NMTAP	160	96	1
NMTAP	160	144	3
EXTAP	160	192	0
EXTAP	160	288	7
NMTAP	161	0	6
NMTAP	161	48	4
NMTAP	161	96	6
NMTAP	161	144	4
EXTAP	161	192	7
EXTAP	161	288	0
NMTAP	162	0	1
NMTAP	162	48	3
NMTAP	162	96	1
NMTAP	162	144	3
EXTAP	162	192	0
EXTAP	162	288	7
NMTAP	163	0	0
NMTAP	163	0	6
NMSTR	163	96	0
NMSCR	163	96	0	96	96	3
NMSTR	163	96	6
NMSCL	163	96	6	96	96	3
NMTAP	164	0	6
NMTAP	164	48	4
NMTAP	164	96	6
NMTAP	164	144	4
EXTAP	164	192	7
EXTAP	164	288	0
NMTAP	165	0	1
NMTAP	165	48	3
NMTAP	165	96	1
NMTAP	165	144	3
EXTAP	165	192	0
EXTAP	165	288	7
NMTAP	166	0	6
NMTAP	166	48	4
NMTAP	166	96	6
NMTAP	166	144	4
EXTAP	166	192	7
EXTAP	166	288	0
BXTAP	167	0	1
BXTAP	167	0	7
BXTAP	167	192	1
BXTAP	167	192	7
NMTAP	168	0	6
NMTAP	168	96	4
NMTAP	168	192	3
NMTAP	168	288	1
BRTAP	169	0	0
BRTAP	169	0	6
BRTAP	169	192	0
BRTAP	169	192	6
NMTAP	170	0	1
NMTAP	170	96	3
NMTAP	170	192	4
NMTAP	170	288	6
NMTAP	171	0	6
NMTAP	171	48	4
NMTAP	171	96	6
NMTAP	171	144	4
NMTAP	172	0	1
NMTAP	172	48	3
NMTAP	172	96	1
NMTAP	172	144	3
BRSTR	173	48	0
NMSCR	173	48	0	96	1008	3
BRHLD	173	48	3	3072
CNSUR	176	0	3	0	768	4
CNSCR	178	0	4	0	768	7
NMTTP	181	312	2	B	0	M1
NMTTP	181	312	2	E	0	M1
NMTTP	181	312	3	B	1	M1
NMTTP	181	312	4	B	0	M1
NMTTP	181	312	5	E	0	M1
EXSTR	182	288	7
NMSI_	182	288	7	96	96	3

T_REC_TAP	572
T_REC_BRK	12
T_REC_XTP	56
T_REC_BXX	8
T_REC_HLD	36
T_REC_XHO	3
T_REC_BHO	4
T_REC_BXH	1
T_REC_STR	49
T_REC_BST	1
T_REC_XST	1
T_REC_XBS	0
T_REC_TTP	20
T_REC_THO	0
T_REC_SLD	52
T_REC_BSL	1
T_REC_ALL	816
T_NUM_TAP	698
T_NUM_BRK	27
T_NUM_HLD	39
T_NUM_SLD	52
T_NUM_ALL	816
T_JUDGE_TAP	719
T_JUDGE_HLD	114
T_JUDGE_SLD	53
T_JUDGE_ALL	886
TTM_EACHPAIRS	168
TTM_SCR_TAP	349000
TTM_SCR_BRK	70200
TTM_SCR_HLD	39000
TTM_SCR_SLD	78000
TTM_SCR_ALL	536200
TTM_SCR_S	517500
TTM_SCR_SS	533500
TTM_RAT_ACV	10050

