VERSION	0.00.00	1.05.00
FES_MODE	0
BPM_DEF	310.000	310.000	310.000	310.000
MET_DEF	4	4
RESOLUTION	384
CLK_DEF	384
COMPATIBLE_CODE	MA2

BPM	0	0	310.000
MET	0	0	4	4

NMTAP	2	0	2
NMTAP	2	192	2
NMTAP	3	0	2
NMTAP	4	0	3
NMTAP	4	192	3
NMTAP	5	0	3
NMTAP	6	0	4
NMTAP	6	192	4
NMTAP	7	0	4
NMTAP	8	0	4
NMTAP	8	0	5
NMTAP	9	0	4
NMTAP	9	0	5
NMTAP	10	0	3
NMTAP	10	192	3
NMTAP	11	0	2
NMTAP	11	192	2
NMTAP	12	0	1
NMTAP	12	192	1
NMTAP	13	0	0
NMTAP	13	192	0
NMTAP	14	0	7
NMTAP	14	192	7
NMTAP	15	0	6
NMTAP	15	192	6
NMTAP	16	0	4
NMTAP	16	0	5
NMTAP	16	192	4
NMTAP	16	192	5
NMTAP	17	0	4
NMTAP	17	0	5
NMTAP	18	0	4
NMTAP	18	192	4
NMTAP	19	0	5
NMTAP	19	192	5
NMTAP	20	0	6
NMTAP	20	192	6
NMTAP	21	0	7
NMTAP	21	192	7
NMTAP	22	0	0
NMTAP	22	192	0
NMTAP	23	0	1
NMTAP	23	192	1
NMTAP	24	0	2
NMTAP	24	0	3
NMTAP	24	192	2
NMTAP	24	192	3
NMTAP	25	0	2
NMTAP	25	0	3
NMHLD	26	0	2	384
NMHLD	27	0	3	384
NMHLD	28	0	4	384
NMTAP	29	0	5
NMHLD	30	0	5	384
NMHLD	31	0	4	384
NMHLD	32	0	3	384
NMTAP	33	0	2
NMHLD	34	0	1	384
NMHLD	35	0	0	384
EXHLD	36	0	7	384
NMTAP	37	0	6
NMHLD	38	0	6	384
NMHLD	39	0	7	384
NMHLD	40	0	0	384
NMTAP	41	0	1
NMTTP	42	0	1	B	0	L1
NMTTP	42	192	2	B	0	L1
NMTTP	43	0	3	B	0	L1
NMTTP	44	0	6	B	0	L1
NMTTP	44	192	5	B	0	L1
NMTTP	45	0	4	B	0	L1
NMTTP	46	0	1	B	0	L1
NMTTP	46	192	2	B	0	L1
NMTTP	47	0	3	B	0	L1
NMTTP	47	192	4	B	0	L1
NMTTP	48	0	0	C	1	L1
NMTTP	50	0	7	B	0	L1
NMTTP	50	192	6	B	0	L1
NMTTP	51	0	4	B	0	L1
NMTTP	51	0	5	B	0	L1
NMTTP	52	0	0	B	0	L1
NMTTP	52	192	1	B	0	L1
NMTTP	53	0	2	B	0	L1
NMTTP	53	0	3	B	0	L1
NMTTP	54	0	6	B	0	L1
NMTTP	54	192	5	B	0	L1
NMTTP	55	0	4	B	0	L1
NMTTP	55	192	3	B	0	L1
NMTTP	56	0	0	C	1	L1
EXTAP	58	0	6
EXTAP	58	192	6
EXTAP	59	0	6
EXTAP	59	0	7
EXTAP	59	192	6
EXTAP	59	192	7
NMTAP	60	0	5
NMTAP	60	192	5
NMTAP	61	0	4
NMTAP	61	0	5
NMTAP	62	0	3
NMTAP	62	192	3
NMTAP	63	0	2
NMTAP	63	0	3
NMTAP	63	192	2
NMTAP	63	192	3
EXTAP	64	0	0
EXTAP	64	0	1
EXTAP	64	192	0
EXTAP	64	192	1
EXTAP	65	0	0
EXTAP	65	0	1
NMTAP	66	0	1
NMTAP	66	192	1
NMTAP	67	0	0
NMTAP	67	0	1
NMTAP	67	192	0
NMTAP	67	192	1
EXTAP	68	0	2
NMTAP	68	192	2
NMTAP	69	0	2
NMTAP	69	0	3
NMTAP	70	0	4
NMTAP	70	192	4
NMTAP	71	0	4
NMTAP	71	0	5
NMTAP	71	192	4
NMTAP	71	192	5
NMTAP	72	0	6
NMTAP	72	0	7
NMTAP	72	192	6
NMTAP	72	192	7
NMTAP	73	0	6
NMTAP	73	0	7
NMSTR	74	0	6
NMSI_	74	0	6	96	384	3
NMSTR	76	0	1
NMSI_	76	0	1	96	384	4
NMSTR	78	0	6
NMSI_	78	0	6	96	384	2
NMTAP	80	0	1
NMTAP	80	192	1
NMTAP	81	0	0
NMTAP	81	0	1
NMSTR	82	0	1
NMSCR	82	0	1	96	480	4
NMSTR	84	0	5
NMSCR	84	0	5	96	480	0
NMSTR	86	0	1
NMSI_	86	0	1	96	384	4
NMTAP	88	0	5
NMTAP	88	192	5
NMTAP	89	0	4
NMTAP	89	0	5
NMTAP	90	0	4
NMTAP	90	96	4
NMTAP	90	192	4
NMTAP	91	0	5
NMTAP	91	96	5
NMTAP	91	192	5
NMTAP	92	0	6
NMTAP	92	96	6
NMTAP	92	192	6
NMTAP	93	0	7
NMTAP	93	96	7
NMTAP	93	192	7
NMTAP	94	0	0
NMTAP	94	96	0
NMTAP	94	192	0
NMTAP	95	0	1
NMTAP	95	96	1
NMTAP	95	192	1
NMTAP	96	0	2
NMTAP	96	0	3
NMTAP	96	192	2
NMTAP	96	192	3
BXTAP	97	0	2
BXTAP	97	0	3
NMTAP	98	0	3
NMTAP	98	96	3
NMTAP	98	192	3
NMTAP	99	0	2
NMTAP	99	96	2
NMTAP	99	192	2
NMTAP	100	0	1
NMTAP	100	96	1
NMTAP	100	192	1
NMTAP	101	0	0
NMTAP	101	96	0
NMTAP	101	192	0
NMTAP	102	0	7
NMTAP	102	96	7
NMTAP	102	192	7
NMTAP	103	0	6
NMTAP	103	96	6
NMTAP	103	192	6
NMTAP	104	0	4
NMTAP	104	0	5
NMTAP	104	192	4
NMTAP	104	192	5
BXTAP	105	0	4
BXTAP	105	0	5
NMTAP	106	0	5
NMTAP	106	96	5
NMTAP	106	192	5
NMTAP	107	0	6
NMTAP	107	96	6
NMTAP	107	192	6
NMTAP	108	0	7
NMTAP	108	96	7
NMTAP	108	192	7
NMTAP	109	0	0
NMTAP	109	96	0
NMTAP	109	192	0
NMTAP	110	0	1
NMTAP	110	96	1
NMTAP	110	192	1
NMTAP	111	0	2
NMTAP	111	96	2
NMTAP	111	192	2
NMTAP	112	0	3
NMTAP	112	0	4
NMTAP	112	192	3
NMTAP	112	192	4
BXTAP	113	0	3
BXTAP	113	0	4
NMTTP	114	0	2	B	0	L1
NMTTP	114	192	1	B	0	L1
NMTTP	115	0	0	B	0	L1
NMTTP	115	192	7	B	0	L1
NMTTP	116	0	6	B	0	L1
NMTTP	116	192	5	B	0	L1
NMTTP	117	0	0	C	0	L1
NMTTP	118	0	1	E	0	L1
NMTTP	118	192	2	E	0	L1
NMTTP	119	0	3	E	0	L1
NMTTP	119	192	4	E	0	L1
NMTTP	120	0	5	E	0	L1
NMTTP	120	192	6	E	0	L1
NMTTP	121	0	0	C	1	L1
EXSTR	122	0	0
NMSI_	122	0	0	96	576	3
EXSTR	122	0	7
NMSI_	122	0	7	96	576	4
NMTAP	126	0	2
NMTAP	126	96	2
NMTAP	126	192	2
NMTAP	126	192	3
NMTAP	127	0	1
NMTAP	127	96	1
NMTAP	127	192	0
NMTAP	127	192	1
NMTAP	128	0	6
NMTAP	128	96	6
NMTAP	128	192	6
NMTAP	128	192	7
EXTAP	129	0	4
EXTAP	129	0	5
NMTAP	130	0	5
NMTAP	130	96	5
NMTAP	130	192	4
NMTAP	130	192	5
NMTAP	131	0	6
NMTAP	131	96	6
NMTAP	131	192	6
NMTAP	131	192	7
NMTAP	132	0	1
NMTAP	132	96	1
NMTAP	132	192	0
NMTAP	132	192	1
EXTAP	133	0	2
EXTAP	133	0	3
NMTAP	134	0	1
NMTAP	134	96	1
NMTAP	134	192	0
NMTAP	134	192	1
NMTAP	135	0	2
NMTAP	135	96	2
NMTAP	135	192	2
NMTAP	135	192	3
NMTAP	136	0	5
NMTAP	136	96	5
NMTAP	136	192	4
NMTAP	136	192	5
EXTAP	137	0	6
EXTAP	137	0	7
NMTAP	138	0	6
NMTAP	138	96	6
NMTAP	138	192	6
NMTAP	138	192	7
NMTAP	139	0	5
NMTAP	139	96	5
NMTAP	139	192	4
NMTAP	139	192	5
NMTAP	140	0	2
NMTAP	140	96	2
NMTAP	140	192	2
NMTAP	140	192	3
EXTAP	141	0	0
EXTAP	141	0	1
NMTAP	142	0	0
NMTAP	142	96	0
NMTAP	142	192	1
NMTAP	142	288	1
NMTAP	143	0	2
NMTAP	143	96	2
NMTAP	143	192	2
NMTAP	143	192	3
NMTAP	144	0	4
NMTAP	144	96	4
NMTAP	144	192	5
NMTAP	144	288	5
NMTAP	145	0	6
NMTAP	145	96	6
NMTAP	145	192	6
NMTAP	145	192	7
NMTAP	146	0	7
NMTAP	146	96	7
NMTAP	146	192	6
NMTAP	146	288	6
NMTAP	147	0	5
NMTAP	147	96	5
NMTAP	147	192	4
NMTAP	147	192	5
NMTAP	148	0	3
NMTAP	148	96	3
NMTAP	148	192	2
NMTAP	148	288	2
NMTAP	149	0	1
NMTAP	149	96	1
NMTAP	149	192	0
NMTAP	149	288	0
BRTAP	150	0	7
EXTAP	151	0	0
EXTAP	151	0	7
NMTAP	152	0	1
NMTAP	152	192	0
NMTAP	152	192	1
NMTAP	153	0	2
NMTAP	153	192	2
NMTAP	153	192	3
NMTAP	154	0	5
NMTAP	154	192	4
NMTAP	154	192	5
NMTAP	155	0	6
NMTAP	155	0	7
NMTAP	155	192	6
NMTAP	155	192	7
NMTAP	156	0	6
NMTAP	156	192	6
NMTAP	156	192	7
NMTAP	157	0	5
NMTAP	157	192	4
NMTAP	157	192	5
NMTAP	158	0	2
NMTAP	158	192	2
NMTAP	158	192	3
NMTAP	159	0	0
NMTAP	159	0	1
NMTAP	160	0	1
NMTAP	160	96	1
NMTAP	160	192	1
NMTAP	161	0	0
NMTAP	161	96	0
NMTAP	161	192	0
NMTAP	162	0	7
NMTAP	162	96	7
NMTAP	162	192	7
NMTAP	163	0	6
NMTAP	163	0	7
NMTAP	163	192	6
NMTAP	163	192	7
NMTAP	164	0	6
NMTAP	164	96	6
NMTAP	164	192	6
NMTAP	165	0	7
NMTAP	165	96	7
NMTAP	165	192	7
NMTAP	166	0	0
NMTAP	166	96	0
NMTAP	166	192	0
NMTAP	167	0	0
NMTAP	167	0	1
NMTAP	167	192	0
NMTAP	167	192	1
NMTAP	168	0	2
NMTAP	168	96	2
NMTAP	168	192	2
NMTAP	169	0	3
NMTAP	169	0	4
NMTAP	169	192	3
NMTAP	169	192	4
NMTAP	170	0	5
NMTAP	170	96	5
NMTAP	170	192	5
EXTAP	171	0	3
EXTAP	171	0	4
EXTAP	171	96	3
EXTAP	171	96	4
EXTAP	172	0	2
EXTAP	172	0	5
EXTAP	172	96	2
EXTAP	172	96	5
EXHLD	173	48	1	2832
EXHLD	173	48	6	2832
EXSTR	181	288	0
NMSI_	181	288	0	96	384	3
EXSTR	181	288	7
NMSI_	181	288	7	96	384	4

T_REC_TAP	298
T_REC_BRK	1
T_REC_XTP	31
T_REC_BXX	6
T_REC_HLD	11
T_REC_XHO	3
T_REC_BHO	0
T_REC_BXH	0
T_REC_STR	6
T_REC_BST	0
T_REC_XST	4
T_REC_XBS	0
T_REC_TTP	38
T_REC_THO	0
T_REC_SLD	10
T_REC_BSL	0
T_REC_ALL	408
T_NUM_TAP	377
T_NUM_BRK	7
T_NUM_HLD	14
T_NUM_SLD	10
T_NUM_ALL	408
T_JUDGE_TAP	384
T_JUDGE_HLD	108
T_JUDGE_SLD	10
T_JUDGE_ALL	502
TTM_EACHPAIRS	77
TTM_SCR_TAP	188500
TTM_SCR_BRK	18200
TTM_SCR_HLD	14000
TTM_SCR_SLD	15000
TTM_SCR_ALL	235700
TTM_SCR_S	227950
TTM_SCR_SS	235000
TTM_RAT_ACV	10029

