VERSION	0.00.00	1.05.00
FES_MODE	0
BPM_DEF	310.000	310.000	310.000	310.000
MET_DEF	4	4
RESOLUTION	384
CLK_DEF	384
COMPATIBLE_CODE	MA2

BPM	0	0	310.000
MET	0	0	4	4

NMTAP	10	0	0
NMTAP	10	192	0
NMTAP	11	0	0
NMTAP	12	0	1
NMTAP	12	192	1
NMTAP	13	0	1
NMTAP	14	0	2
NMTAP	14	192	2
NMTAP	15	0	2
NMTAP	16	0	3
NMTAP	16	192	3
NMTAP	17	0	3
NMTAP	17	0	4
NMTAP	18	0	4
NMTAP	18	192	4
NMTAP	19	0	4
NMTAP	20	0	5
NMTAP	20	192	5
NMTAP	21	0	5
NMTAP	22	0	6
NMTAP	22	192	6
NMTAP	23	0	6
NMTAP	24	0	7
NMTAP	24	192	7
EXTAP	25	0	0
EXTAP	25	0	7
NMTAP	26	0	7
NMTAP	26	192	7
NMTAP	27	0	6
NMTAP	27	192	6
NMTAP	28	0	5
NMTAP	29	0	4
NMTAP	29	0	5
NMTAP	30	0	3
NMTAP	30	192	3
NMTAP	31	0	2
NMTAP	31	192	2
NMTAP	32	0	1
NMTAP	33	0	0
NMTAP	33	0	1
NMTAP	34	0	0
NMTAP	34	192	0
NMTAP	35	0	1
NMTAP	35	192	1
BXTAP	36	0	2
NMTAP	37	0	3
NMTAP	37	0	4
NMTAP	38	0	4
NMTAP	38	192	4
NMTAP	39	0	5
NMTAP	39	192	5
NMTAP	40	0	6
NMTAP	41	0	0
NMTAP	41	0	7
NMHLD	42	0	6	384
NMHLD	42	0	7	384
NMTAP	44	0	6
NMTAP	44	0	7
NMTAP	44	192	6
NMTAP	44	192	7
NMTAP	45	0	6
NMTAP	45	0	7
NMHLD	46	0	4	384
NMHLD	46	0	5	384
NMTAP	48	0	4
NMTAP	48	0	5
NMTAP	48	192	4
NMTAP	48	192	5
NMTAP	49	0	4
NMTAP	49	0	5
NMHLD	50	0	2	384
NMHLD	50	0	3	384
NMTAP	52	0	2
NMTAP	52	0	3
NMTAP	52	192	2
NMTAP	52	192	3
NMTAP	53	0	2
NMTAP	53	0	3
NMHLD	54	0	0	384
NMHLD	54	0	1	384
NMTAP	56	0	0
NMTAP	56	0	1
NMTAP	56	192	0
NMTAP	56	192	1
NMTAP	57	0	0
NMTAP	57	0	1
NMTAP	58	0	0
NMTAP	58	192	0
NMTAP	59	0	1
NMTAP	59	192	1
NMTAP	60	0	2
NMTAP	60	192	2
NMTAP	61	0	2
NMTAP	61	0	3
NMTAP	62	0	4
NMTAP	62	192	4
NMTAP	63	0	5
NMTAP	63	192	5
NMTAP	64	0	6
NMTAP	64	192	6
EXTAP	65	0	6
EXTAP	65	0	7
NMTAP	66	0	7
NMTAP	66	192	7
NMTAP	67	0	6
NMTAP	67	192	6
NMTAP	68	0	5
NMTAP	68	192	5
NMTAP	69	0	3
NMTAP	69	0	4
NMTAP	70	0	3
NMTAP	70	192	3
NMTAP	71	0	2
NMTAP	71	192	2
NMTAP	72	0	1
NMTAP	72	192	1
NMTAP	73	0	0
NMTAP	73	0	7
NMSTR	74	0	0
NMSI_	74	0	0	96	480	4
EXTAP	77	0	7
NMSTR	78	0	7
NMSI_	78	0	7	96	480	3
EXTAP	81	0	1
NMSTR	82	0	1
NMSI_	82	0	1	96	480	5
EXTAP	85	0	6
NMSTR	86	0	6
NMSI_	86	0	6	96	480	2
EXTAP	89	0	0
EXTAP	89	0	1
BRTAP	90	0	0
NMTAP	90	96	0
NMTAP	90	192	0
NMTAP	91	0	1
NMTAP	91	192	1
NMTAP	92	0	2
NMTAP	92	192	2
NMTAP	93	0	2
NMTAP	93	0	3
EXTAP	94	0	4
NMTAP	94	96	4
NMTAP	94	192	4
NMTAP	95	0	5
NMTAP	95	192	5
NMTAP	96	0	6
NMTAP	96	192	6
EXTAP	97	0	6
EXTAP	97	0	7
BRTAP	98	0	7
NMTAP	98	96	7
NMTAP	98	192	7
NMTAP	99	0	6
NMTAP	99	192	6
NMTAP	100	0	5
NMTAP	100	192	5
NMTAP	101	0	3
NMTAP	101	0	4
EXTAP	102	0	3
NMTAP	102	96	3
NMTAP	102	192	3
NMTAP	103	0	2
NMTAP	103	192	2
NMTAP	104	0	1
NMTAP	104	192	1
NMTAP	105	0	0
NMTAP	105	0	7
BRTAP	106	0	0
NMTAP	106	96	0
NMTAP	106	192	0
NMTAP	107	0	1
NMTAP	107	192	1
NMTAP	108	0	2
NMTAP	108	192	2
NMTAP	109	0	3
NMTAP	109	0	4
NMTAP	110	0	4
NMTAP	110	96	4
NMTAP	110	192	4
NMTAP	111	0	5
NMTAP	111	192	5
NMTAP	112	0	6
NMTAP	112	192	6
EXTAP	113	0	0
EXTAP	113	0	7
NMTTP	114	0	0	E	0	L1
NMTTP	116	0	0	B	0	L1
NMTTP	116	0	7	B	0	L1
NMTTP	118	0	1	B	0	L1
NMTTP	118	0	6	B	0	L1
NMTHO	120	0	0	768	C	1	L1
NMTAP	124	0	0
NMTAP	124	0	7
NMTAP	124	192	0
NMTAP	124	192	7
NMTAP	125	0	0
NMTAP	125	0	7
BRTAP	126	0	0
NMTAP	126	96	0
NMTAP	126	192	0
NMTAP	127	0	1
NMTAP	127	192	1
NMTAP	128	0	2
NMTAP	128	96	2
NMTAP	128	192	2
NMTAP	129	0	3
NMTAP	129	0	4
NMTAP	130	0	4
NMTAP	130	96	4
NMTAP	130	192	4
NMTAP	131	0	5
NMTAP	131	192	5
NMTAP	132	0	6
NMTAP	132	96	6
NMTAP	132	192	6
EXTAP	133	0	0
EXTAP	133	0	7
NMTAP	134	0	7
NMTAP	134	96	7
NMTAP	134	192	7
NMTAP	135	0	6
NMTAP	135	192	6
NMTAP	136	0	5
NMTAP	136	96	5
NMTAP	136	192	5
NMTAP	137	0	3
NMTAP	137	0	4
NMTAP	138	0	3
NMTAP	138	96	3
NMTAP	138	192	3
NMTAP	139	0	2
NMTAP	139	192	2
NMTAP	140	0	1
NMTAP	140	96	1
NMTAP	140	192	1
BRTAP	141	0	0
BRTAP	141	0	7
NMTAP	142	0	0
NMTAP	142	96	0
NMTAP	142	192	0
NMTAP	143	0	0
NMTAP	143	0	1
NMTAP	143	192	0
NMTAP	143	192	1
NMTAP	144	0	2
NMTAP	144	96	2
NMTAP	144	192	2
NMTAP	145	0	3
NMTAP	145	0	4
NMTAP	146	0	4
NMTAP	146	96	4
NMTAP	146	192	4
NMTAP	147	0	4
NMTAP	147	0	5
NMTAP	147	192	4
NMTAP	147	192	5
NMTAP	148	0	6
NMTAP	148	96	6
NMTAP	148	192	6
NMTAP	149	0	0
NMTAP	149	0	7
NMTAP	149	192	0
NMTAP	149	192	7
NMHLD	150	0	0	384
NMHLD	150	0	7	384
NMTAP	152	0	7
NMTAP	152	192	7
NMTAP	153	0	6
NMTAP	153	192	6
NMTAP	154	0	4
NMTAP	154	0	5
NMTAP	154	192	4
NMTAP	154	192	5
NMTAP	155	0	4
NMTAP	155	0	5
NMTAP	156	0	3
NMTAP	156	192	3
NMTAP	157	0	2
NMTAP	157	192	2
NMTAP	158	0	0
NMTAP	158	0	1
NMTAP	158	192	0
NMTAP	158	192	1
NMTAP	159	0	0
NMTAP	159	0	1
NMTAP	160	0	0
NMTAP	160	96	0
NMTAP	160	192	0
NMTAP	161	0	1
NMTAP	161	192	1
NMTAP	162	0	2
NMTAP	162	0	3
NMTAP	162	192	2
NMTAP	162	192	3
NMTAP	163	0	2
NMTAP	163	0	3
NMTAP	164	0	4
NMTAP	164	96	4
NMTAP	164	192	4
NMTAP	165	0	5
NMTAP	165	192	5
NMTAP	166	0	6
NMTAP	166	0	7
NMTAP	166	192	6
NMTAP	166	192	7
EXTAP	167	0	6
EXTAP	167	0	7
NMTTP	168	0	7	E	0	L1
NMTTP	169	0	0	E	0	L1
NMTTP	170	0	1	E	0	L1
NMTTP	171	0	2	E	0	L1
NMTHO	172	0	0	3744	C	1	L1

T_REC_TAP	257
T_REC_BRK	6
T_REC_XTP	19
T_REC_BXX	1
T_REC_HLD	10
T_REC_XHO	0
T_REC_BHO	0
T_REC_BXH	0
T_REC_STR	4
T_REC_BST	0
T_REC_XST	0
T_REC_XBS	0
T_REC_TTP	9
T_REC_THO	2
T_REC_SLD	4
T_REC_BSL	0
T_REC_ALL	312
T_NUM_TAP	289
T_NUM_BRK	7
T_NUM_HLD	12
T_NUM_SLD	4
T_NUM_ALL	312
T_JUDGE_TAP	296
T_JUDGE_HLD	87
T_JUDGE_SLD	4
T_JUDGE_ALL	387
TTM_EACHPAIRS	60
TTM_SCR_TAP	144500
TTM_SCR_BRK	18200
TTM_SCR_HLD	12000
TTM_SCR_SLD	6000
TTM_SCR_ALL	180700
TTM_SCR_S	174600
TTM_SCR_SS	180000
TTM_RAT_ACV	10038

