VERSION	0.00.00	1.05.00
FES_MODE	0
BPM_DEF	180.000	180.000	180.000	180.000
MET_DEF	4	4
RESOLUTION	384
CLK_DEF	384
COMPATIBLE_CODE	MA2

BPM	0	0	180.000
MET	0	0	4	4

NMHLD	1	0	2	48
NMHLD	1	0	4	48
NMHLD	1	96	2	48
NMHLD	1	96	4	48
NMHLD	1	192	3	48
NMHLD	1	192	5	48
NMHLD	1	288	3	48
NMHLD	1	288	5	48
NMTAP	2	0	4
NMTAP	2	0	6
NMTAP	2	48	7
NMTAP	2	96	1
NMTAP	2	120	0
NMTAP	2	144	1
NMSTR	2	192	2
NMSI_	2	192	2	96	48	7
NMTAP	2	240	3
BRTAP	2	288	2
BRTAP	2	288	4
NMTAP	3	0	6
NMTAP	3	0	7
NMTAP	3	48	5
NMTAP	3	96	3
NMTAP	3	96	4
NMTAP	3	144	2
NMSTR	3	192	1
NMSCR	3	192	1	96	48	4
NMTAP	3	288	7
NMHLD	3	336	6	96
NMTAP	4	48	4
NMTAP	4	72	5
NMTAP	4	96	4
NMTAP	4	144	6
NMTAP	4	168	7
NMSTR	4	192	6
NMSI_	4	192	6	96	48	4
NMTAP	4	240	0
BRTAP	4	288	0
NMTAP	5	0	2
NMTAP	5	0	3
NMTAP	5	48	1
NMTAP	5	96	0
NMTAP	5	96	7
NMTAP	5	144	6
NMSTR	5	192	5
NMSCR	5	192	5	96	48	0
NMTAP	5	288	3
NMHLD	5	336	2	96
NMTAP	6	48	0
NMTAP	6	72	1
NMTAP	6	96	0
NMTAP	6	144	2
NMTAP	6	168	3
NMSTR	6	192	2
NMSI_	6	192	2	96	48	4
NMTAP	6	240	6
BRTAP	6	288	6
NMTAP	7	0	4
NMTAP	7	0	5
NMTAP	7	48	6
NMTAP	7	96	0
NMTAP	7	96	7
NMTAP	7	144	1
NMTAP	7	192	2
NMSTR	7	192	3
NMSCR	7	192	3	96	48	6
NMTAP	7	288	2
NMHLD	7	336	1	96
NMTAP	8	48	0
NMTAP	8	72	1
NMTAP	8	96	0
NMTAP	8	144	6
NMTAP	8	168	7
NMSTR	8	192	6
NMSI_	8	192	6	96	48	4
NMTAP	8	240	0
BRTAP	8	288	0
NMTAP	9	0	1
NMTAP	9	0	3
NMTAP	9	48	2
NMTAP	9	96	3
NMTAP	9	96	4
NMTAP	9	144	5
NMTAP	9	192	4
NMSTR	9	192	6
NMSCL	9	192	6	96	48	3
NMTAP	9	288	1
NMHLD	9	336	0	96
NMTAP	10	48	3
NMTAP	10	72	1
NMTAP	10	96	3
NMTAP	10	144	6
NMTAP	10	168	4
NMTAP	10	192	6
NMTAP	10	240	0
BRTAP	10	288	1
BRTAP	10	288	7
NMTAP	11	0	3
NMTAP	11	0	6
NMTAP	11	96	4
NMTAP	11	96	5
NMTAP	11	192	3
NMTAP	11	192	5
NMTAP	11	240	3
NMTAP	11	288	3
NMTAP	11	288	5
NMTAP	12	0	4
NMTAP	12	0	5
NMTAP	12	48	4
NMTAP	12	96	4
NMTAP	12	96	5
NMSTR	12	192	0
NMSI_	12	192	0	96	48	4
NMTAP	12	192	5
NMTAP	12	288	5
NMTAP	13	0	5
NMTAP	13	96	3
NMTAP	13	96	4
NMTAP	13	192	2
NMTAP	13	192	3
NMTAP	13	240	3
NMSTR	13	288	2
NMSUL	13	288	2	96	240	7
NMTAP	13	288	3
NMTAP	14	0	4
NMSTR	14	96	5
NMSI_	14	96	5	96	48	0
BRTAP	14	288	1
BRTAP	14	288	6
NMTAP	15	0	3
NMTAP	15	0	5
NMTAP	15	48	3
NMTAP	15	96	3
NMTAP	15	96	5
NMTAP	15	192	4
NMTAP	15	192	5
NMTAP	15	240	4
NMTAP	15	288	4
NMTAP	15	288	5
NMTAP	16	0	5
NMTAP	16	0	7
NMTAP	16	96	0
NMTAP	16	96	5
NMSTR	16	192	3
NMSI_	16	192	3	96	48	7
NMTAP	16	192	5
NMTAP	16	288	6
NMHLD	17	0	6	72
NMHLD	17	72	5	72
NMTAP	17	144	4
NMHLD	17	192	1	72
NMHLD	17	264	2	72
NMTAP	17	336	3
NMTAP	18	0	4
NMTAP	18	48	6
NMSTR	18	96	0
NMSI_	18	96	0	96	48	3
NMSI_	18	96	0	96	48	5
NMTAP	18	144	1
BRTAP	18	288	2
BRTAP	18	288	6
NMTAP	19	0	4
NMTAP	19	0	5
NMTAP	19	48	6
NMTAP	19	96	0
NMTAP	19	96	7
NMTAP	19	144	1
NMTAP	19	192	2
NMHLD	19	192	3	96
NMTAP	19	288	2
NMHLD	19	336	1	96
NMTAP	19	336	4
NMTAP	20	48	3
NMTAP	20	72	2
NMTAP	20	96	3
NMSTR	20	144	1
NMSI_	20	144	1	96	48	3
NMTAP	20	168	0
NMSTR	20	192	1
BRSI_	20	192	1	96	48	7
NMTAP	21	0	4
NMTAP	21	0	6
NMTAP	21	48	5
NMTAP	21	96	3
NMTAP	21	96	4
NMTAP	21	144	2
NMTAP	21	192	0
NMHLD	21	192	1	96
NMTAP	21	288	0
NMTAP	21	336	2
NMHLD	21	336	7	96
NMTAP	22	48	1
NMTAP	22	72	0
NMTAP	22	96	1
NMTAP	22	144	3
NMTAP	22	168	2
NMTAP	22	192	3
NMTAP	22	240	1
NMTAP	22	240	4
BRTAP	22	288	1
BRTAP	22	288	4
NMSTR	23	0	2
NMSCL	23	0	2	96	240	5
NMTAP	23	96	4
NMTAP	23	192	4
NMTAP	23	288	4
CNSCR	23	336	5	0	240	2
NMTTP	24	0	5	E	0	M1
NMTTP	24	96	6	E	0	M1
NMTTP	24	192	7	E	0	M1
NMTTP	24	288	0	E	0	M1
NMSTR	25	0	5
NMSCR	25	0	5	96	168	1
NMTAP	25	96	2
NMTAP	25	192	2
CNSXR	25	264	1	0	312	6
NMTAP	25	288	2
NMTAP	26	0	3
NMSTR	26	96	4
NMSI_	26	96	4	96	48	0
NMTAP	26	192	4
BRTAP	26	288	2
NMTAP	26	288	6
NMSTR	27	0	1
NMSCR	27	0	1	96	216	6
NMTAP	27	0	7
NMTAP	27	96	7
NMTAP	27	192	7
NMTAP	27	288	7
CNSCL	27	312	6	0	264	1
NMTAP	28	0	0
NMTAP	28	96	0
NMTAP	28	192	0
NMTAP	28	288	0
NMTAP	28	288	1
NMHLD	29	0	7	72
NMHLD	29	72	5	72
NMTAP	29	144	4
NMHLD	29	192	3	72
NMHLD	29	264	1	72
NMTAP	29	336	0
NMTAP	30	0	7
NMTAP	30	48	6
NMTAP	30	96	0
NMTAP	30	144	1
NMTAP	30	192	2
NMTAP	30	192	5
NMSTR	30	288	0
NMSI_	30	288	0	96	336	3
NMTAP	30	288	7
NMHLD	31	336	7	336
BXTAP	32	192	2
BXTAP	32	240	0
BXSTR	32	288	4
NMSLL	32	288	4	96	48	0
NMTAP	33	0	4
NMTAP	33	0	7
NMTAP	33	48	6
NMTAP	33	72	6
NMTAP	33	96	7
NMTAP	33	144	5
NMHLD	33	192	0	96
NMTAP	33	192	4
NMTTP	33	288	5	B	0	M1
NMTTP	33	288	5	E	1	M1
EXTAP	33	336	6
EXSTR	34	0	6
NMSI_	34	0	6	96	48	4
NMSTR	34	48	7
NMSI_	34	48	7	96	48	3
NMSTR	34	96	6
NMSI_	34	96	6	96	48	2
NMTAP	34	144	7
BRTAP	34	192	6
EXTAP	34	240	7
EXTAP	34	288	0
EXTAP	34	336	1
EXSTR	35	0	1
NMSI_	35	0	1	96	48	3
EXSTR	35	48	0
NMSI_	35	48	0	96	48	4
NMSTR	35	96	1
NMSI_	35	96	1	96	48	5
NMTAP	35	144	0
BRTAP	35	192	1
EXTAP	35	240	0
EXTAP	35	288	7
EXTAP	35	336	6
EXSTR	36	0	0
NMSUR	36	0	0	96	48	4
EXSTR	36	48	7
NMSCL	36	48	7	96	48	5
NMSTR	36	96	0
NMSCR	36	96	0	96	48	2
NMSTR	36	144	7
NMSUL	36	144	7	96	48	3
NMSTR	36	192	0
NMSI_	36	192	0	96	48	4
NMTAP	36	240	7
BRTAP	36	288	0
NMHLD	37	0	5	72
NMTAP	37	48	7
NMTAP	37	72	7
NMTAP	37	96	6
NMTAP	37	144	0
NMTAP	37	144	5
NMHLD	37	192	2	96
NMTTP	37	288	5	B	1	M1
NMTTP	37	288	5	E	0	M1
NMTTP	37	288	6	E	0	M1
EXTAP	37	336	7
EXSTR	38	0	7
NMSCL	38	0	7	96	48	4
NMSTR	38	48	3
NMSCL	38	48	3	96	48	0
NMSTR	38	96	7
NMSI_	38	96	7	96	48	3
NMTAP	38	144	3
BRTAP	38	192	7
EXTAP	38	240	0
EXTAP	38	288	0
EXTAP	38	336	6
EXSTR	39	0	6
NMSI_	39	0	6	96	48	4
EXSTR	39	48	7
NMSI_	39	48	7	96	48	3
NMTAP	39	96	6
NMTAP	39	144	7
NMSTR	39	192	0
NMSI_	39	192	0	96	48	4
NMSTR	39	240	1
NMSI_	39	240	1	96	48	3
NMTAP	39	288	0
NMTAP	39	336	1
NMSTR	40	0	7
NMSI_	40	0	7	96	48	3
NMSTR	40	48	1
NMSI_	40	48	1	96	48	5
NMSTR	40	96	7
NMSCL	40	96	7	96	48	4
NMTAP	40	144	1
NMSTR	40	192	7
NMSI_	40	192	7	96	48	1
NMSI_	40	192	7	96	48	2
NMTAP	40	240	0
BRTAP	40	288	7
EXTAP	41	0	0
EXSTR	41	0	3
NMSI_	41	0	3	96	48	6
NMTAP	41	48	0
NMTAP	41	96	0
NMTAP	41	96	3
NMTAP	41	144	0
NMTAP	41	192	0
NMSTR	41	192	7
NMSI_	41	192	7	96	48	3
NMTAP	41	240	0
NMTAP	41	288	0
NMTAP	41	288	7
NMTAP	41	336	0
NMSTR	42	0	4
NMSI_	42	0	4	96	48	6
NMSTR	42	48	1
NMSI_	42	48	1	96	48	3
NMSTR	42	96	4
NMSI_	42	96	4	96	48	0
NMTAP	42	144	1
NMTAP	42	192	4
NMTAP	42	240	1
EXTAP	42	288	0
EXTAP	42	288	1
NMSTR	43	0	2
NMSI_	43	0	2	96	48	5
NMTAP	43	0	7
NMTAP	43	48	7
NMTAP	43	96	2
NMTAP	43	96	7
NMTAP	43	144	7
NMSTR	43	192	6
NMSI_	43	192	6	96	48	3
NMTAP	43	192	7
NMTAP	43	240	7
NMTAP	43	288	6
NMTAP	43	288	7
NMTAP	43	336	7
EXTAP	44	0	3
NMTAP	44	0	7
NMTAP	44	48	2
NMSTR	44	96	1
NMSI_	44	96	1	96	48	4
NMSTR	44	96	5
NMSI_	44	96	5	96	48	0
NMTAP	44	144	4
NMTAP	44	192	1
NMTAP	44	192	5
BRTAP	44	288	3
BRTAP	44	288	7
NMTAP	45	0	1
NMSTR	45	0	5
NMSI_	45	0	5	96	48	3
NMTAP	45	48	1
NMTAP	45	96	1
NMTAP	45	96	5
NMTAP	45	144	1
NMTAP	45	192	1
NMSTR	45	192	2
NMSI_	45	192	2	96	48	6
NMTAP	45	240	1
NMTAP	45	288	1
NMTAP	45	288	2
NMTAP	45	336	1
NMSTR	46	0	7
NMSI_	46	0	7	96	48	5
NMSTR	46	48	3
NMSI_	46	48	3	96	48	1
NMSTR	46	96	7
NMSI_	46	96	7	96	48	3
NMTAP	46	144	3
NMTAP	46	192	7
NMTAP	46	240	0
NMTAP	46	288	0
NMTAP	46	288	4
NMSTR	47	0	2
NMSI_	47	0	2	96	48	5
NMTAP	47	0	6
NMTAP	47	48	6
NMTAP	47	96	2
NMTAP	47	96	6
NMTAP	47	144	6
NMSTR	47	192	4
NMSI_	47	192	4	96	48	1
NMTAP	47	192	6
NMTAP	47	240	6
NMTAP	47	288	4
NMTAP	47	288	6
NMTAP	47	336	6
NMTAP	48	0	0
NMTAP	48	0	6
NMTAP	48	48	1
NMSTR	48	96	2
NMSI_	48	96	2	96	48	7
NMSTR	48	96	5
NMSI_	48	96	5	96	48	0
NMTAP	48	144	3
NMTAP	48	144	4
NMTAP	48	192	2
NMTAP	48	192	5
BRTAP	48	288	1
BRTAP	48	288	6
NMTAP	49	0	0
NMTAP	49	96	0
NMTTP	49	192	7	E	0	M1
NMTTP	49	264	6	E	0	M1
NMTTP	49	336	5	E	0	M1
NMTAP	50	0	4
NMTAP	50	96	3
NMTAP	50	96	5
NMSTR	50	192	5
NMSI_	50	192	5	96	12	1
NMTAP	50	240	4
BXTAP	50	288	3
NMTAP	51	0	2
NMTAP	51	48	2
NMSTR	51	96	2
NMSI_	51	96	2	96	96	4
NMTAP	51	96	3
NMTAP	51	192	6
NMTAP	51	240	6
CNSI_	51	288	4	0	96	1
NMTAP	51	288	6
CNSI_	52	0	1	0	96	7
NMTAP	52	0	5
NMTAP	52	48	5
NMHLD	52	96	5	96
NMTAP	52	192	7
NMTAP	52	240	6
NMTAP	52	288	0
NMTAP	52	288	5
NMTAP	53	0	2
NMTAP	53	48	2
NMTAP	53	96	1
NMTAP	53	96	3
NMTAP	53	192	4
NMTAP	53	240	4
NMTAP	53	288	3
NMSTR	53	288	5
NMSXL	53	288	5	96	240	1
NMTAP	54	0	4
NMTAP	54	48	4
NMTAP	54	96	4
NMSTR	54	192	3
NMSI_	54	192	3	96	48	0
BRTAP	54	288	3
NMTAP	55	0	1
NMTAP	55	0	7
NMTAP	55	48	1
NMTAP	55	48	7
NMTAP	55	96	1
NMTAP	55	96	7
NMTAP	55	192	0
NMTAP	55	192	6
NMTAP	55	240	0
NMTAP	55	240	6
NMSTR	55	288	0
NMSCL	55	288	0	96	96	5
NMTAP	55	288	6
NMTAP	56	0	4
NMTAP	56	48	4
NMTAP	56	96	4
CNSCR	56	96	5	0	96	0
NMTAP	56	192	3
NMTAP	56	240	3
NMTAP	56	288	0
NMTAP	56	288	3
NMHLD	57	0	1	72
NMHLD	57	72	2	72
NMTAP	57	144	3
NMHLD	57	192	4	72
NMHLD	57	264	5	72
NMSTR	57	336	6
NMSXL	57	336	6	96	144	6
NMSXR	57	336	6	96	144	6
BRTAP	58	288	0
BRTAP	58	288	7
NMTAP	59	0	1
NMTAP	59	0	3
NMTAP	59	48	0
NMTAP	59	96	6
NMTAP	59	96	7
NMTAP	59	144	5
NMHLD	59	192	2	96
NMTAP	59	192	4
NMTAP	59	288	3
NMTAP	59	336	1
NMTAP	59	336	4
NMTAP	60	48	2
NMTAP	60	72	3
NMTAP	60	96	1
NMSTR	60	144	5
NMSI_	60	144	5	96	48	0
NMTAP	60	168	4
NMSTR	60	192	6
BRSI_	60	192	6	96	48	3
NMTAP	61	0	1
NMTAP	61	0	3
NMTAP	61	48	2
NMTAP	61	96	3
NMTAP	61	96	4
NMTAP	61	144	5
NMTAP	61	192	6
NMHLD	61	192	7	96
NMTAP	61	288	6
NMTAP	61	336	0
NMTAP	61	336	5
NMTAP	62	48	1
NMTAP	62	72	0
NMTAP	62	96	2
NMTAP	62	144	5
NMTAP	62	168	4
NMTAP	62	192	6
NMTAP	62	240	0
NMTAP	62	240	7
EXTAP	62	288	1
EXTAP	62	288	6
NMSTR	63	0	0
NMSI_	63	0	0	96	48	4
NMTAP	63	0	7
NMTAP	63	96	7
NMSTR	63	192	5
NMSI_	63	192	5	96	48	2
NMTAP	63	192	7
NMTAP	63	288	6
NMSTR	64	0	1
NMSCR	64	0	1	96	96	4
NMTAP	64	0	5
NMSTR	64	96	4
NMSCR	64	96	4	96	96	7
NMSTR	64	192	7
NMSCR	64	192	7	96	96	2
NMTAP	64	288	2
NMTAP	65	0	4
NMTAP	65	96	3
NMSTR	65	96	5
NMSI_	65	96	5	96	48	0
NMTAP	65	192	2
NMSTR	65	288	1
NMSI_	65	288	1	96	48	4
NMTAP	66	0	7
NMSTR	66	48	6
NMSXR	66	48	6	96	192	3
NMTAP	66	96	6
NMSTR	66	192	2
BRSCL	66	192	2	96	48	7
BXTAP	66	288	2
EXTAP	67	0	0
EXTAP	67	48	0
NMTAP	67	96	1
NMTAP	67	96	7
NMTAP	67	192	3
NMTAP	67	240	3
NMTAP	67	288	2
NMTAP	67	288	4
NMSTR	68	0	6
NMSI_	68	0	6	96	48	3
NMSTR	68	48	2
NMSI_	68	48	2	96	48	7
NMTAP	68	96	6
NMTAP	68	144	2
NMTAP	68	192	4
NMTAP	68	240	0
NMTAP	68	288	1
NMTAP	68	288	3
NMHLD	69	0	5	72
NMHLD	69	72	6	72
NMTAP	69	144	7
NMTAP	69	192	1
NMTAP	69	240	1
NMSTR	69	288	0
NMSCR	69	288	0	96	96	4
NMTAP	69	288	1
NMSTR	70	0	4
NMSCR	70	0	4	96	96	0
NMSTR	70	96	0
NMSI_	70	96	0	96	48	4
NMTAP	70	192	4
BRTAP	70	288	2
BRTAP	70	288	6
NMHLD	71	0	5	144
NMTAP	71	144	4
NMHLD	71	192	5	288
NMTAP	71	336	6
NMTAP	72	96	4
NMTTP	72	192	4	E	0	M1
NMTTP	72	192	5	E	0	M1
NMTTP	72	192	6	E	0	M1
NMTAP	72	288	3
NMHLD	73	0	2	144
NMTAP	73	144	3
NMHLD	73	192	2	288
NMTAP	73	336	1
NMTAP	74	96	3
NMTTP	74	192	2	E	0	M1
NMTTP	74	192	3	E	0	M1
NMTTP	74	192	4	E	0	M1
BRTAP	74	288	5
NMHLD	75	0	6	144
NMTAP	75	144	4
NMHLD	75	192	5	288
NMTAP	75	336	6
NMTAP	76	96	4
NMTTP	76	192	4	B	0	M1
NMTTP	76	192	4	E	0	M1
NMTTP	76	192	5	B	0	M1
NMTTP	76	192	6	E	0	M1
NMTAP	76	288	2
NMHLD	77	0	1	144
NMTAP	77	144	3
NMHLD	77	192	2	288
NMTAP	77	336	1
NMTAP	78	96	3
NMTTP	78	192	2	B	0	M1
NMTTP	78	192	2	E	0	M1
NMTTP	78	192	3	B	0	M1
NMTTP	78	192	4	E	0	M1
NMTAP	78	288	0
NMSTR	78	288	7
BRSI_	78	288	7	96	336	4
NMHLD	79	336	0	336
BXTAP	80	192	5
BXTAP	80	240	7
BXSTR	80	288	3
NMSLR	80	288	3	96	48	7
NMTAP	81	0	0
NMTAP	81	0	3
NMTAP	81	48	1
NMTAP	81	72	1
NMTAP	81	96	0
NMTAP	81	144	2
NMTAP	81	192	3
NMHLD	81	192	7	96
NMTTP	81	288	2	B	0	M1
NMTTP	81	288	3	E	1	M1
EXTAP	81	336	1
BXSTR	82	0	1
NMSI_	82	0	1	96	48	3
NMSTR	82	48	0
NMSI_	82	48	0	96	48	4
NMSTR	82	96	1
NMSI_	82	96	1	96	48	5
NMTAP	82	144	0
NMTAP	82	192	1
EXTAP	82	240	0
EXTAP	82	288	7
EXTAP	82	336	6
EXSTR	83	0	6
NMSI_	83	0	6	96	48	4
EXSTR	83	48	7
NMSI_	83	48	7	96	48	3
NMSTR	83	96	6
NMSI_	83	96	6	96	48	2
NMTAP	83	144	7
NMTAP	83	192	6
EXTAP	83	240	7
EXTAP	83	288	0
EXTAP	83	336	1
NMSTR	84	0	7
NMSUL	84	0	7	96	48	3
NMSTR	84	48	0
NMSCR	84	48	0	96	48	2
NMSTR	84	96	7
NMSCL	84	96	7	96	48	5
NMSTR	84	144	0
NMSUR	84	144	0	96	48	4
NMSTR	84	192	7
NMSI_	84	192	7	96	48	3
NMTAP	84	240	0
BRTAP	84	288	7
NMHLD	85	0	2	72
NMTAP	85	48	0
NMTAP	85	72	0
NMTAP	85	96	1
NMTAP	85	144	2
NMTAP	85	144	7
NMHLD	85	192	3	96
NMTTP	85	288	5	B	0	M1
NMTTP	85	288	6	E	1	M1
EXTAP	85	336	7
BXSTR	86	0	7
NMSCL	86	0	7	96	48	4
NMSTR	86	48	3
NMSCL	86	48	3	96	48	0
NMSTR	86	96	7
NMSI_	86	96	7	96	48	3
NMTAP	86	144	3
NMTAP	86	192	7
EXTAP	86	240	1
EXTAP	86	288	1
EXTAP	86	336	3
EXSTR	87	0	3
NMSI_	87	0	3	96	48	6
EXSTR	87	48	2
NMSI_	87	48	2	96	48	7
NMTAP	87	96	3
NMTAP	87	144	2
EXSTR	87	192	5
NMSI_	87	192	5	96	48	0
EXSTR	87	240	4
NMSI_	87	240	4	96	48	1
NMTAP	87	288	5
NMTAP	87	336	4
NMSTR	88	0	7
NMSI_	88	0	7	96	48	1
NMSTR	88	48	2
NMSI_	88	48	2	96	48	4
NMSTR	88	96	7
NMSCL	88	96	7	96	48	4
NMSTR	88	144	2
BRSI_	88	144	2	96	48	6
NMSTR	88	192	7
NMSI_	88	192	7	96	48	3
NMTAP	88	240	2
BRTAP	88	288	7
NMHLD	89	0	1	672
NMHLD	89	0	5	672
NMSTR	91	0	6
NMSCL	91	0	6	96	48	4
NMSTR	91	0	7
NMSUL	91	0	7	96	48	3
NMTAP	91	96	6
NMTAP	91	96	7
NMSTR	91	192	0
NMSUR	91	192	0	96	48	4
NMSTR	91	192	1
NMSCR	91	192	1	96	48	3
NMTAP	91	288	0
NMTAP	91	288	1
EXSTR	92	0	5
NMSUL	92	0	5	96	192	3
NMSTR	93	0	3
NMSI_	93	0	3	96	48	7
NMSTR	93	0	4
NMSI_	93	0	4	96	48	0
NMTAP	93	48	2
NMTAP	93	48	5
NMTTP	93	96	4	E	1	M1
NMSTR	93	192	1
NMSI_	93	192	1	96	48	4
EXTAP	93	192	6
NMTAP	93	240	2
NMSTR	93	288	5
NMSI_	93	288	5	96	48	0
NMTAP	93	336	6
NMSTR	94	0	3
NMSI_	94	0	3	96	48	7
NMTAP	94	48	2
NMSTR	94	96	7
NMSF_	94	96	7	96	48	3
NMTAP	94	144	6
EXTAP	94	288	1
EXTAP	94	288	5
EXSTR	95	0	6
NMSI_	95	0	6	96	48	3
EXSTR	95	48	7
NMSI_	95	48	7	96	48	2
NMTAP	95	96	6
NMTAP	95	144	7
EXSTR	95	192	0
NMSI_	95	192	0	96	48	5
EXSTR	95	240	1
NMSI_	95	240	1	96	48	4
NMTAP	95	288	0
NMTAP	95	336	1
EXSTR	96	0	6
NMSI_	96	0	6	96	48	0
EXSTR	96	48	3
NMSCL	96	48	3	96	48	1
NMSTR	96	96	6
NMSI_	96	96	6	96	48	4
NMSTR	96	144	3
NMSI_	96	144	3	96	48	7
NMSTR	96	192	6
BRSI_	96	192	6	96	48	2
NMTAP	96	240	3
BXTAP	96	288	6
EXTAP	97	0	0
EXSTR	97	0	4
NMSI_	97	0	4	96	48	1
NMTAP	97	48	0
NMTAP	97	96	0
NMTAP	97	96	4
NMTAP	97	144	0
NMTAP	97	192	0
NMSTR	97	192	2
NMSI_	97	192	2	96	48	7
NMTAP	97	240	0
NMTAP	97	288	0
NMTAP	97	288	2
NMTAP	97	336	0
NMSTR	98	0	6
NMSI_	98	0	6	96	48	4
NMSTR	98	48	2
NMSI_	98	48	2	96	48	0
NMSTR	98	96	6
NMSI_	98	96	6	96	48	2
NMSTR	98	144	2
NMSI_	98	144	2	96	48	6
NMTAP	98	192	6
EXTAP	98	240	0
EXTAP	98	288	0
NMTAP	99	0	2
NMSTR	99	0	7
NMSI_	99	0	7	96	48	3
NMTAP	99	48	2
NMTAP	99	96	2
NMTAP	99	96	7
NMTAP	99	144	2
NMTAP	99	192	2
NMSTR	99	192	4
NMSI_	99	192	4	96	48	0
NMTAP	99	240	2
NMTAP	99	288	2
NMTAP	99	288	4
NMTAP	99	336	2
NMTAP	100	0	2
NMTAP	100	0	6
NMTAP	100	48	5
NMSTR	100	96	1
NMSI_	100	96	1	96	48	3
NMSTR	100	96	4
NMSI_	100	96	4	96	48	0
NMTAP	100	144	0
NMTAP	100	192	1
NMTAP	100	192	4
BRTAP	100	288	2
BRTAP	100	288	6
NMSTR	101	0	3
NMSI_	101	0	3	96	48	7
NMTAP	101	0	4
NMTAP	101	48	4
NMTAP	101	96	3
NMTAP	101	96	4
NMTAP	101	144	4
NMTAP	101	192	4
NMSTR	101	192	6
NMSCR	101	192	6	96	48	1
NMTAP	101	240	4
NMTAP	101	288	4
NMTAP	101	288	6
NMTAP	101	336	4
EXSTR	102	0	1
NMSI_	102	0	1	96	48	3
NMSTR	102	48	5
NMSI_	102	48	5	96	48	7
NMSTR	102	96	1
NMSI_	102	96	1	96	48	5
NMSTR	102	144	5
NMSI_	102	144	5	96	48	1
NMTAP	102	192	1
NMTAP	102	240	7
NMTAP	102	288	7
NMTAP	103	0	0
NMSTR	103	0	6
NMSI_	103	0	6	96	48	2
NMTAP	103	48	0
NMTAP	103	96	0
NMTAP	103	96	6
NMTAP	103	144	0
NMTAP	103	192	0
NMSTR	103	192	1
NMSI_	103	192	1	96	48	5
NMTAP	103	240	0
NMTAP	103	288	0
NMTAP	103	288	1
NMTAP	103	336	0
EXTAP	104	0	0
EXTAP	104	0	4
NMTAP	104	48	5
NMSTR	104	96	2
NMSI_	104	96	2	96	48	7
NMSTR	104	96	6
NMSI_	104	96	6	96	48	3
NMTAP	104	144	3
NMTAP	104	144	7
NMTAP	104	192	2
NMTAP	104	192	6
BRTAP	104	288	1
BRTAP	104	288	5
NMSTR	105	0	6
NMSI_	105	0	6	96	48	3
NMTAP	105	0	7
NMTAP	105	48	4
NMTAP	105	48	5
NMTAP	105	96	6
NMTAP	105	96	7
NMTAP	105	144	0
NMSTR	105	192	1
NMSI_	105	192	1	96	48	4
NMTAP	105	240	2
NMTAP	105	240	3
NMTAP	105	288	0
NMTAP	105	288	1
NMTAP	105	336	7
NMTAP	106	0	3
NMSTR	106	0	6
BRSI_	106	0	6	96	48	3
NMTAP	106	48	5
NMSTR	106	96	0
NMSF_	106	96	0	96	48	4
NMTAP	106	96	6
NMTAP	106	144	1
BRTAP	106	192	0
NMTTP	106	288	2	E	0	M1
NMTTP	106	288	2	A	0	M1
NMTTP	106	288	2	D	0	M1
NMTTP	106	288	3	E	0	M1
NMTTP	106	288	3	D	0	M1
NMTTP	106	288	6	E	0	M1
NMTTP	106	288	6	A	1	M1
NMTTP	106	288	6	D	0	M1
NMTTP	106	288	7	E	0	M1
NMTTP	106	288	7	D	0	M1
NMTAP	107	0	0
NMTAP	107	0	1
NMTAP	107	48	2
NMTAP	107	96	4
NMTAP	107	96	5
NMTAP	107	144	6
NMTAP	107	192	0
NMTAP	107	192	1
NMTAP	107	288	6
NMTAP	107	288	7
NMTAP	107	336	0
NMHLD	107	336	5	96
NMTAP	108	48	3
NMTAP	108	72	4
NMHLD	108	96	2	48
NMSTR	108	144	0
NMSI_	108	144	0	96	48	5
NMTAP	108	168	1
NMSTR	108	192	0
BRSI_	108	192	0	96	48	3
NMTAP	109	0	4
NMTAP	109	0	5
NMTAP	109	48	6
NMTAP	109	96	0
NMTAP	109	96	1
NMTAP	109	144	2
NMTAP	109	192	4
NMTAP	109	192	5
NMTAP	109	288	2
NMTAP	109	288	3
NMHLD	109	336	1	96
NMTAP	109	336	4
NMTAP	110	48	7
NMTAP	110	72	0
NMHLD	110	96	6	48
NMTAP	110	144	4
NMTAP	110	168	5
NMHLD	110	192	3	48
NMTTP	110	240	0	C	0	M1
BRTAP	110	288	1
BRTAP	110	288	7
NMTAP	111	0	0
NMTAP	111	0	6
NMTAP	111	48	5
NMTAP	111	96	1
NMTAP	111	96	7
NMTAP	111	144	2
NMTAP	111	192	6
NMTAP	111	192	7
NMTAP	111	288	4
NMTAP	111	288	5
NMTAP	111	336	3
NMHLD	111	336	6	96
NMTAP	112	48	0
NMTAP	112	72	7
NMHLD	112	96	1	48
NMSTR	112	144	3
NMSCR	112	144	3	96	48	6
NMTAP	112	168	2
NMSTR	112	192	3
BRSV_	112	192	3	96	48	0
NMTAP	113	0	1
NMTAP	113	0	7
NMTAP	113	48	2
NMTAP	113	96	0
NMTAP	113	96	6
NMTAP	113	144	5
NMTAP	113	192	0
NMTAP	113	192	1
NMTAP	113	288	2
NMTAP	113	288	3
NMHLD	113	336	1	96
NMTAP	113	336	4
NMTAP	114	48	7
NMTAP	114	72	0
NMHLD	114	96	6	48
NMTAP	114	144	4
NMTAP	114	168	5
NMHLD	114	192	3	48
NMTTP	114	240	0	C	0	M1
BRTAP	114	288	0
BRTAP	114	288	6
NMTAP	115	0	0
NMTAP	115	0	7
NMTAP	115	48	1
NMTAP	115	48	6
NMTAP	115	96	2
NMTAP	115	120	3
NMTAP	115	144	1
NMTAP	115	168	5
NMTAP	115	192	4
NMTAP	115	216	6
NMTAP	115	240	0
NMTAP	115	264	7
BXSTR	115	288	1
NMSCR	115	288	1	96	48	4
BXTAP	115	288	6
NMTTP	116	0	1	A	1	M1
BRHLD	116	0	7	360

T_REC_TAP	545
T_REC_BRK	40
T_REC_XTP	38
T_REC_BXX	8
T_REC_HLD	61
T_REC_XHO	0
T_REC_BHO	1
T_REC_BXH	0
T_REC_STR	128
T_REC_BST	0
T_REC_XST	24
T_REC_XBS	5
T_REC_TTP	44
T_REC_THO	0
T_REC_SLD	151
T_REC_BSL	9
T_REC_ALL	1054
T_NUM_TAP	779
T_NUM_BRK	63
T_NUM_HLD	61
T_NUM_SLD	151
T_NUM_ALL	1054
T_JUDGE_TAP	832
T_JUDGE_HLD	170
T_JUDGE_SLD	160
T_JUDGE_ALL	1162
TTM_EACHPAIRS	183
TTM_SCR_TAP	389500
TTM_SCR_BRK	163800
TTM_SCR_HLD	61000
TTM_SCR_SLD	226500
TTM_SCR_ALL	840800
TTM_SCR_S	809500
TTM_SCR_SS	834500
TTM_RAT_ACV	10075

