VERSION	0.00.00	1.05.00
FES_MODE	0
BPM_DEF	180.000	180.000	180.000	180.000
MET_DEF	4	4
RESOLUTION	384
CLK_DEF	384
COMPATIBLE_CODE	MA2

BPM	0	0	180.000
MET	0	0	4	4

EXHLD	1	0	3	576
NMTAP	2	0	4
NMTAP	2	96	4
NMSTR	2	192	5
NMSCL	2	192	5	96	96	3
NMTAP	3	0	2
NMTAP	3	96	2
NMTAP	3	192	1
NMTAP	3	192	3
NMTAP	3	288	0
NMTAP	4	0	7
NMTAP	4	96	4
NMTAP	4	96	6
NMSTR	4	192	5
NMSCL	4	192	5	96	96	3
NMTAP	5	0	2
NMTAP	5	96	2
NMTAP	5	192	1
NMTAP	5	192	3
NMTAP	5	288	0
NMTAP	6	0	7
NMTAP	6	96	4
NMTAP	6	96	6
NMSTR	6	192	5
NMSCL	6	192	5	96	96	3
NMTAP	7	0	2
NMTAP	7	96	2
NMTAP	7	192	0
NMTAP	7	192	1
NMTAP	7	288	6
NMTAP	7	288	7
NMTAP	8	0	5
NMTAP	8	96	4
NMTAP	8	96	6
NMSTR	8	192	5
NMSCL	8	192	5	96	96	3
NMTAP	9	0	1
NMTAP	9	96	0
NMTAP	9	96	1
NMTAP	9	192	6
NMTAP	9	288	6
NMTAP	9	288	7
NMTAP	10	0	0
NMTAP	10	48	0
NMTAP	10	96	7
NMTAP	10	192	1
NMTAP	10	192	6
NMHLD	11	0	2	192
NMTAP	11	96	3
NMHLD	11	192	3	192
NMTAP	11	288	2
NMHLD	12	0	1	192
NMTAP	12	96	2
NMTAP	12	192	0
NMTAP	12	288	0
NMTAP	12	288	7
NMHLD	13	0	6	192
NMTAP	13	96	7
NMHLD	13	192	4	192
NMTAP	13	288	5
NMTAP	14	0	6
NMTAP	14	96	5
NMTAP	14	144	5
NMTAP	14	192	4
NMTAP	14	192	5
BRTAP	14	288	3
BRTAP	14	288	6
NMHLD	15	0	2	192
NMTAP	15	96	3
NMTAP	15	192	3
EXTAP	15	288	0
EXTAP	15	288	2
NMHLD	16	0	1	192
NMTAP	16	96	0
NMTAP	16	192	0
NMTAP	16	288	0
NMTAP	16	288	1
NMSTR	17	0	7
NMSCL	17	0	7	96	96	4
NMSTR	17	192	0
NMSCR	17	192	0	96	96	3
NMTAP	18	0	4
NMTAP	18	48	4
NMTAP	18	96	4
NMTAP	18	192	3
NMTAP	18	192	5
BRTAP	18	288	2
BRTAP	18	288	6
NMTAP	19	0	1
NMTAP	19	48	1
NMTAP	19	96	0
NMTAP	19	192	0
NMTAP	19	192	7
NMTAP	19	288	0
NMTAP	19	288	7
NMTAP	20	0	6
NMTAP	20	48	6
NMTAP	20	96	7
NMTAP	20	192	4
NMTAP	20	192	5
EXTAP	20	288	7
NMTAP	21	0	6
NMTAP	21	48	6
NMTAP	21	96	7
NMTAP	21	192	0
NMTAP	21	192	7
NMTAP	21	288	0
NMTAP	21	288	7
NMTAP	22	0	1
NMTAP	22	48	1
NMTAP	22	96	0
NMTAP	22	192	2
NMTAP	22	192	3
EXTAP	22	288	0
NMHLD	23	0	1	192
NMTAP	23	96	2
NMHLD	23	192	3	192
NMTAP	23	288	2
NMTAP	24	0	1
NMTAP	24	48	1
NMTAP	24	96	3
NMTAP	24	192	2
NMTAP	24	192	4
NMTAP	24	288	3
NMTAP	24	288	5
NMHLD	25	0	6	192
NMTAP	25	96	5
NMHLD	25	192	4	192
NMTAP	25	288	5
NMTAP	26	0	6
NMTAP	26	48	6
NMTAP	26	96	4
NMTAP	26	192	3
NMTAP	26	192	5
BRTAP	26	288	1
BRTAP	26	288	7
NMTAP	27	0	0
NMTAP	27	0	1
NMTAP	27	96	6
NMTAP	27	144	6
NMTAP	27	192	7
NMTAP	27	288	1
NMTAP	27	336	1
NMTAP	28	0	0
NMTAP	28	96	0
NMTAP	28	96	1
NMTAP	28	192	0
NMTAP	28	192	7
NMTAP	28	288	6
NMTAP	28	288	7
NMSTR	29	0	6
NMSI_	29	0	6	96	96	3
NMSTR	29	192	2
NMSI_	29	192	2	96	96	7
NMTAP	30	0	6
NMTAP	30	48	6
NMTAP	30	96	0
NMTAP	30	192	1
NMTAP	30	192	7
BXHLD	30	288	2	432
BXSTR	30	288	6
NMSCR	30	288	6	96	336	3
NMTAP	32	192	3
NMTAP	32	240	3
NMTAP	32	288	4
BRTAP	33	0	0
BRTAP	33	0	7
NMTAP	33	48	0
NMTAP	33	48	7
NMTAP	33	96	0
NMTAP	33	96	7
NMTAP	33	192	4
NMTAP	33	192	6
NMTAP	33	288	2
NMTAP	33	288	3
NMTAP	34	0	0
NMTAP	34	0	1
NMTAP	34	48	0
NMTAP	34	48	1
NMTAP	34	96	0
NMTAP	34	96	1
BRTAP	34	192	3
BRTAP	34	192	6
NMTAP	34	288	4
NMTAP	34	288	5
NMTAP	35	0	6
NMTAP	35	0	7
NMTAP	35	48	6
NMTAP	35	48	7
NMTAP	35	96	6
NMTAP	35	96	7
BRTAP	35	192	1
BRTAP	35	192	4
NMTAP	35	288	2
NMTAP	35	288	3
NMTAP	36	0	0
NMTAP	36	0	5
NMTAP	36	48	0
NMTAP	36	48	5
NMTAP	36	96	0
NMTAP	36	96	5
NMTAP	36	192	2
NMTAP	36	192	3
BRTAP	36	288	6
BRTAP	36	288	7
NMTAP	37	0	1
NMTAP	37	48	1
NMTAP	37	96	0
NMTAP	37	192	2
NMTAP	37	192	3
NMTAP	37	288	4
NMTAP	37	288	5
NMTAP	38	0	6
NMTAP	38	0	7
NMTAP	38	48	6
NMTAP	38	48	7
NMTAP	38	96	6
NMTAP	38	96	7
BRTAP	38	192	1
BRTAP	38	192	4
NMTAP	38	288	2
NMTAP	38	288	3
NMTAP	39	0	4
NMTAP	39	0	5
NMTAP	39	48	4
NMTAP	39	48	5
NMTAP	39	96	4
NMTAP	39	96	5
BRTAP	39	192	0
BRTAP	39	192	1
BRTAP	39	288	3
BRTAP	39	288	4
NMTAP	40	0	6
NMTAP	40	0	7
NMTAP	40	48	6
NMTAP	40	48	7
NMTAP	40	96	6
NMTAP	40	96	7
NMTAP	40	192	4
NMTAP	40	192	5
BRTAP	40	288	2
BRTAP	40	288	7
NMSTR	41	0	0
NMSI_	41	0	0	96	48	4
NMSTR	41	0	1
NMSI_	41	0	1	96	48	3
NMSTR	41	192	6
NMSI_	41	192	6	96	48	4
NMSTR	41	192	7
NMSI_	41	192	7	96	48	3
NMSTR	42	0	0
NMSI_	42	0	0	96	48	4
NMSTR	42	0	1
NMSI_	42	0	1	96	48	3
EXTAP	42	192	6
EXTAP	42	192	7
EXTAP	42	288	6
EXTAP	42	288	7
NMTAP	43	0	5
NMTAP	43	48	5
NMTAP	43	96	4
NMTAP	43	96	6
NMTAP	43	192	2
NMTAP	43	240	2
NMTAP	43	288	1
NMTAP	43	288	3
NMTAP	44	0	0
NMTAP	44	0	1
NMTAP	44	48	0
NMTAP	44	48	1
NMTAP	44	96	0
NMTAP	44	96	1
BRTAP	44	192	3
BRTAP	44	192	6
EXTAP	44	288	4
EXTAP	44	288	5
NMSTR	45	0	6
NMSI_	45	0	6	96	48	4
NMSTR	45	0	7
NMSI_	45	0	7	96	48	3
NMSTR	45	192	0
NMSI_	45	192	0	96	48	4
NMSTR	45	192	1
NMSI_	45	192	1	96	48	3
NMSTR	46	0	6
NMSI_	46	0	6	96	48	4
NMSTR	46	0	7
NMSI_	46	0	7	96	48	3
EXTAP	46	192	0
EXTAP	46	192	1
EXTAP	46	288	0
EXTAP	46	288	1
NMTAP	47	0	7
NMTAP	47	48	7
NMTAP	47	96	1
NMTAP	47	144	1
NMTAP	47	192	6
NMTAP	47	240	6
NMTAP	47	288	0
NMTAP	48	0	3
NMTAP	48	0	5
NMTAP	48	48	3
NMTAP	48	48	5
NMTAP	48	96	3
NMTAP	48	96	5
BRTAP	48	192	1
BRTAP	48	192	7
NMSTR	48	288	2
NMSXR	48	288	2	96	384	3
NMSTR	48	288	6
NMSXR	48	288	6	96	384	7
NMTAP	50	192	4
NMTAP	50	192	6
NMTAP	50	288	3
NMHLD	50	288	5	480
NMHLD	51	0	4	96
NMHLD	51	192	4	96
NMTTP	52	0	4	E	0	M1
NMTTP	52	96	5	E	0	M1
NMTTP	52	192	6	E	0	M1
NMTTP	52	288	7	E	0	M1
NMHLD	53	0	0	384
NMHLD	53	0	1	96
NMHLD	53	192	1	96
NMTTP	54	0	1	E	0	M1
NMTTP	54	96	2	E	0	M1
NMTTP	54	192	3	E	0	M1
NMTTP	54	288	0	C	1	M1
NMTTP	54	288	4	E	0	M1
EXSTR	55	0	7
NMSI_	55	0	7	96	96	5
CNSI_	55	192	5	0	96	1
CNSI_	55	288	1	0	96	3
NMSTR	56	0	0
NMSI_	56	0	0	96	96	6
CNSI_	56	192	6	0	96	2
CNSI_	56	288	2	0	96	4
NMHLD	57	0	5	96
NMHLD	57	192	4	96
NMHLD	57	192	6	96
NMTAP	58	0	5
NMTAP	58	48	5
NMTAP	58	96	3
NMTAP	58	192	2
NMTAP	58	192	4
BRTAP	58	288	1
BRTAP	58	288	5
NMTAP	59	0	2
NMTAP	59	96	1
NMTAP	59	96	3
NMTAP	59	192	5
NMTAP	59	288	4
NMTAP	59	288	6
NMTAP	60	0	2
NMTAP	60	48	2
NMTAP	60	96	3
NMTAP	60	192	4
NMSTR	60	192	5
NMSI_	60	192	5	96	96	7
NMTAP	61	0	1
NMTAP	61	96	0
NMTAP	61	96	2
NMTAP	61	192	6
NMTAP	61	288	5
NMTAP	61	288	7
NMTAP	62	0	5
NMTAP	62	48	5
NMTAP	62	96	4
NMTAP	62	192	3
NMSTR	62	192	5
NMSI_	62	192	5	96	96	7
NMHLD	63	0	1	96
NMHLD	63	96	7	96
NMHLD	63	192	1	96
NMHLD	63	288	0	96
NMHLD	64	0	2	96
NMHLD	64	96	3	96
NMHLD	64	192	4	96
NMHLD	64	288	5	96
NMTAP	65	0	7
NMTAP	65	96	4
NMTAP	65	96	5
NMTAP	65	192	2
NMTAP	65	192	3
NMSTR	65	288	0
NMSCL	65	288	0	96	192	2
NMTAP	65	288	1
BRTAP	66	288	0
NMHLD	67	0	1	48
NMHLD	67	0	3	48
NMHLD	67	96	1	48
NMHLD	67	96	3	48
NMHLD	67	192	4	48
NMHLD	67	192	5	48
NMHLD	67	288	4	48
NMHLD	67	288	5	48
NMHLD	68	0	3	48
NMHLD	68	0	6	48
NMHLD	68	96	3	48
NMHLD	68	96	6	48
NMHLD	68	192	2	48
NMHLD	68	192	5	48
NMHLD	68	288	1	48
NMHLD	68	288	4	48
NMSTR	69	0	1
NMSCL	69	0	1	96	96	6
NMSTR	69	192	5
NMSCL	69	192	5	96	96	2
NMSTR	70	0	0
NMSI_	70	0	0	96	96	4
NMTAP	70	192	7
BRTAP	70	288	3
BRTAP	70	288	6
NMSTR	71	0	4
NMSI_	71	0	4	96	96	0
NMSTR	71	0	5
NMSI_	71	0	5	96	96	7
CNSI_	71	192	0	0	96	2
CNSI_	71	192	7	0	96	3
NMSTR	72	0	2
NMSI_	72	0	2	96	96	6
NMSTR	72	0	3
NMSI_	72	0	3	96	96	5
CNSI_	72	192	5	0	96	1
CNSI_	72	192	6	0	96	0
NMSTR	73	0	0
NMSUR	73	0	0	96	192	7
NMSTR	73	0	1
NMSCR	73	0	1	96	192	6
NMSTR	74	0	6
NMSCL	74	0	6	96	192	1
NMSTR	74	0	7
NMSUL	74	0	7	96	192	0
NMTAP	75	0	0
NMSTR	75	0	1
NMSV_	75	0	1	96	96	4
NMTAP	75	192	7
NMTAP	75	288	7
NMSTR	76	0	6
NMSV_	76	0	6	96	96	3
NMTAP	76	0	7
NMTAP	76	192	0
NMTAP	76	288	0
EXTAP	77	0	2
EXTAP	77	48	2
EXTAP	77	96	3
NMTAP	77	192	1
NMTAP	77	192	4
NMTAP	77	288	0
NMTAP	77	288	7
NMTAP	78	0	3
NMTAP	78	0	6
NMTAP	78	96	1
NMTAP	78	96	4
NMSTR	78	192	2
NMSI_	78	192	2	96	48	0
NMSTR	78	192	5
NMSI_	78	192	5	96	48	7
NMTHO	79	0	0	336	C	0	M1
NMTAP	80	192	0
NMTAP	80	288	0
NMTAP	80	288	7
BRTAP	81	0	7
NMTAP	81	48	7
NMTAP	81	96	0
NMTAP	81	96	6
NMTAP	81	192	1
NMTAP	81	192	3
NMTAP	81	288	4
NMTAP	81	288	5
NMTAP	82	0	6
NMTAP	82	0	7
NMTAP	82	48	6
NMTAP	82	48	7
NMSTR	82	96	6
BRSI_	82	96	6	96	48	3
NMSTR	82	96	7
BRSI_	82	96	7	96	48	3
NMTAP	82	288	2
NMTAP	82	288	4
NMTAP	83	0	0
NMTAP	83	0	1
NMTAP	83	48	0
NMTAP	83	48	1
NMSTR	83	96	0
BRSI_	83	96	0	96	48	4
NMSTR	83	96	1
BRSI_	83	96	1	96	48	4
NMTAP	83	288	3
NMTAP	83	288	5
NMTAP	84	0	2
NMTAP	84	0	6
NMTAP	84	48	2
NMTAP	84	48	6
NMTAP	84	96	2
NMTAP	84	96	6
NMTAP	84	192	0
NMTAP	84	192	4
BRTAP	84	288	2
BRTAP	84	288	7
NMTAP	85	0	6
NMTAP	85	48	6
NMTAP	85	96	5
NMTAP	85	96	7
NMTAP	85	192	3
NMTAP	85	192	4
NMTAP	85	288	0
NMTAP	85	288	2
NMTAP	86	0	1
NMTAP	86	0	5
NMTAP	86	48	1
NMTAP	86	48	5
NMSTR	86	96	1
BRSI_	86	96	1	96	48	4
NMSTR	86	96	5
BRSI_	86	96	5	96	48	0
NMTAP	86	288	3
NMTAP	86	288	7
NMTAP	87	0	2
NMTAP	87	0	4
NMTAP	87	48	2
NMTAP	87	48	4
NMTAP	87	96	2
NMTAP	87	96	4
BRTAP	87	192	0
BRTAP	87	192	1
BRTAP	87	288	6
BRTAP	87	288	7
NMTAP	88	0	4
NMTAP	88	0	5
NMTAP	88	48	4
NMTAP	88	48	5
NMSTR	88	96	4
NMSI_	88	96	4	96	48	0
NMSTR	88	96	5
NMSI_	88	96	5	96	48	2
BRTAP	88	288	1
BRTAP	88	288	7
NMHLD	89	0	2	288
NMHLD	89	0	6	288
NMSTR	90	0	3
NMSCL	90	0	3	96	96	0
NMSTR	90	0	5
NMSCR	90	0	5	96	96	0
EXTAP	90	288	1
EXTAP	90	288	7
NMHLD	91	0	2	48
NMHLD	91	0	3	48
NMHLD	91	96	2	48
NMHLD	91	96	3	48
NMHLD	91	192	4	48
NMHLD	91	192	6	48
NMHLD	91	288	4	48
NMHLD	91	288	6	48
NMTAP	92	0	0
NMTAP	92	0	7
NMTAP	92	48	0
NMTAP	92	48	7
NMSTR	92	96	0
BRSCR	92	96	0	96	96	3
NMSTR	92	96	7
BRSCL	92	96	7	96	96	4
NMSTR	93	0	4
NMSI_	93	0	4	96	48	0
BRTAP	93	96	3
NMHLD	93	192	1	96
NMTAP	93	288	7
NMTAP	94	0	2
NMTAP	94	0	6
NMTAP	94	48	2
NMTAP	94	48	6
NMSTR	94	96	2
NMSI_	94	96	2	96	48	7
NMSTR	94	96	6
NMSI_	94	96	6	96	48	3
NMTAP	94	288	0
NMTAP	94	288	4
NMTAP	95	0	1
NMTAP	95	0	3
NMTAP	95	48	1
NMTAP	95	48	3
NMTAP	95	96	1
NMTAP	95	96	3
BRTAP	95	192	5
BRTAP	95	192	6
BRTAP	95	288	0
BRTAP	95	288	1
NMTAP	96	0	3
NMTAP	96	0	6
NMTAP	96	48	3
NMTAP	96	48	6
NMSTR	96	96	3
NMSI_	96	96	3	96	48	7
NMSTR	96	96	6
NMSI_	96	96	6	96	48	3
BRTAP	96	288	0
BRTAP	96	288	4
NMHLD	97	0	5	48
NMHLD	97	0	7	48
NMHLD	97	96	0	48
NMHLD	97	96	2	48
NMHLD	97	192	6	48
NMHLD	97	192	7	48
NMHLD	97	288	0	48
NMHLD	97	288	1	48
NMHLD	98	0	5	48
NMHLD	98	0	7	48
NMHLD	98	96	0	48
NMHLD	98	96	2	48
NMHLD	98	192	6	48
NMHLD	98	192	7	48
NMHLD	98	288	0	48
NMHLD	98	288	1	48
NMTAP	99	0	2
NMSTR	99	0	7
NMSI_	99	0	7	96	48	5
NMSTR	99	96	1
NMSI_	99	96	1	96	48	3
NMSTR	99	192	4
NMSI_	99	192	4	96	48	0
EXTAP	99	288	2
NMTAP	100	0	1
NMTAP	100	0	7
NMTAP	100	48	1
NMTAP	100	48	7
NMTAP	100	96	1
NMTAP	100	96	7
BRTAP	100	192	3
BRTAP	100	192	5
EXTAP	100	288	2
EXTAP	100	288	6
NMHLD	101	0	0	48
NMHLD	101	0	2	48
NMHLD	101	96	5	48
NMHLD	101	96	7	48
NMHLD	101	192	0	48
NMHLD	101	192	1	48
NMHLD	101	288	6	48
NMHLD	101	288	7	48
NMHLD	102	0	0	48
NMHLD	102	0	2	48
NMHLD	102	96	5	48
NMHLD	102	96	7	48
NMHLD	102	192	0	48
NMHLD	102	192	1	48
NMHLD	102	288	6	48
NMHLD	102	288	7	48
NMSTR	103	0	0
NMSI_	103	0	0	96	48	2
NMTAP	103	0	5
NMSTR	103	96	6
NMSI_	103	96	6	96	48	4
NMSTR	103	192	3
NMSI_	103	192	3	96	48	7
EXTAP	103	288	5
NMTAP	104	0	0
NMTAP	104	0	6
NMTAP	104	48	0
NMTAP	104	48	6
NMTAP	104	96	0
NMTAP	104	96	6
BRTAP	104	192	2
BRTAP	104	192	3
NMTAP	104	288	4
NMTAP	104	288	5
NMTAP	105	0	0
NMTAP	105	0	2
NMTAP	105	48	0
NMTAP	105	48	2
BRTAP	105	96	0
BRTAP	105	96	2
NMTAP	105	192	5
NMTAP	105	192	7
NMTAP	105	240	5
NMTAP	105	240	7
BRTAP	105	288	5
BRTAP	105	288	7
NMTAP	106	0	0
NMTAP	106	48	0
NMTAP	106	96	6
NMTAP	106	144	6
NMTAP	106	192	0
NMTAP	106	192	6
NMTAP	106	240	0
NMTAP	106	240	6
BRTAP	106	288	1
BRTAP	106	288	5
NMHLD	107	0	2	96
NMHLD	107	96	3	96
NMHLD	107	192	2	96
NMHLD	107	288	1	96
NMTAP	108	0	0
NMTAP	108	48	0
NMTAP	108	96	7
NMTAP	108	192	1
NMSTR	108	192	6
NMSCL	108	192	6	96	96	3
NMHLD	109	0	2	96
NMHLD	109	96	3	96
NMHLD	109	192	2	96
NMHLD	109	288	1	96
NMTAP	110	0	0
NMTAP	110	48	0
NMTAP	110	96	7
NMSTR	110	192	1
NMSCR	110	192	1	96	96	4
NMTAP	110	192	6
NMTAP	111	0	5
NMTAP	111	48	5
NMTAP	111	96	4
NMTAP	111	144	4
NMHLD	111	192	6	96
NMTAP	111	288	7
NMTAP	111	336	7
NMTAP	112	0	5
NMTAP	112	48	5
NMTAP	112	96	0
NMTAP	112	144	0
NMSTR	112	192	3
NMSCR	112	192	3	96	96	7
NMTAP	113	0	1
NMTAP	113	48	1
NMTAP	113	96	0
NMTAP	113	144	0
NMHLD	113	192	2	96
NMTAP	113	288	3
NMTAP	113	336	3
NMTAP	114	0	1
NMTAP	114	48	1
NMTAP	114	96	4
NMTAP	114	144	4
NMSTR	114	192	7
NMSCR	114	192	7	96	96	3
NMTAP	115	0	5
NMTAP	115	48	5
NMTAP	115	96	2
NMTAP	115	96	4
NMTAP	115	192	1
NMTAP	115	192	5
NMTAP	115	240	1
NMTAP	115	240	5
BRHLD	115	288	0	456
BRSTR	115	288	6
BRSI_	115	288	6	96	48	2

T_REC_TAP	404
T_REC_BRK	57
T_REC_XTP	23
T_REC_BXX	0
T_REC_HLD	97
T_REC_XHO	1
T_REC_BHO	1
T_REC_BXH	1
T_REC_STR	68
T_REC_BST	1
T_REC_XST	1
T_REC_XBS	1
T_REC_TTP	9
T_REC_THO	1
T_REC_SLD	62
T_REC_BSL	9
T_REC_ALL	736
T_NUM_TAP	505
T_NUM_BRK	70
T_NUM_HLD	99
T_NUM_SLD	62
T_NUM_ALL	736
T_JUDGE_TAP	564
T_JUDGE_HLD	220
T_JUDGE_SLD	71
T_JUDGE_ALL	855
TTM_EACHPAIRS	226
TTM_SCR_TAP	252500
TTM_SCR_BRK	182000
TTM_SCR_HLD	99000
TTM_SCR_SLD	93000
TTM_SCR_ALL	626500
TTM_SCR_S	600950
TTM_SCR_SS	619500
TTM_RAT_ACV	10112

